#TITLE:Very Old Couples;
#SUBTITLE:;
#ARTIST:015B;
#TITLETRANSLIT:;
#SUBTITLETRANSLIT:;
#ARTISTTRANSLIT:;
#GENRE:K-Pop;
#CREDIT:;
#BANNER:Very Old Couples-banner.png;
#BACKGROUND:Very Old Couples-bg.png;
#LYRICSPATH:;
#CDTITLE:;
#MUSIC:Very Old Couples.ogg;
#OFFSET:-0.163086;
#SAMPLESTART:67.612999;
#SAMPLELENGTH:15.868000;
#SELECTABLE:YES;
#BPMS:0.000000=121.000000
,116.000000=60.500000
,118.000000=121.000000
,134.000000=60.500000
,142.000000=121.000000
;
#STOPS:
;
#BGCHANGES:0.000=Very Old Couples.avi=1.000=0=0=0=StretchNoLoop====,
99999=-nosongbg-=1.000=0=0=0 // don't automatically add -songbackground-
;
#KEYSOUNDS:;
#ATTACKS:;

//---------------pump-halfdouble - A. DiPasqua----------------
#NOTES:
     pump-halfdouble:
     A. DiPasqua:
     Medium:
     6:
     0.391721,0.475305,0.353467,0.182089,0.101756,256.000000,223.000000,33.000000,17.000000,0.000000,0.000000,0.391721,0.475305,0.353467,0.182089,0.101756,256.000000,223.000000,33.000000,17.000000,0.000000,0.000000:
000000
000000
000000
000000
,
000000
000000
000000
000000
,
000000
000000
000000
000000
,
010000
001000
000010
000100
010100
000000
000000
000000
,
001000
000100
001000
000000
000001
000010
000100
000000
,
001000
000000
000100
000000
001000
000000
010000
000000
100000
000000
000000
101000
000000
000000
000000
000000
,
000100
001000
000100
000000
100000
010000
001000
000000
,
000100
000000
001000
000000
000100
000000
000010
000000
000001
000000
000000
000101
000000
000000
001000
000000
,
001000
000000
010000
000000
100000
000000
001000
000000
010000
000000
000000
010100
000000
000000
000000
000000
,
000100
000000
000010
000000
000001
000000
000100
000000
000010
000000
000000
001010
000000
000000
000000
000000
,
000010
000100
000001
000010
000100
010000
001000
100000
,
010000
000000
001000
000000
000100
000000
000010
000000
000001
000000
000000
001000
000000
000000
011000
000000
,
000000
010000
000100
000001
001000
000000
000010
000000
,
010000
000000
001000
000020
000000
000030
000000
000000
,
000000
000100
001000
010000
100000
001000
000010
000100
,
100000
000000
000000
000101
000000
000000
000000
000000
,
000000
001000
010000
100000
000100
000000
000010
000000
,
000001
000000
001000
010000
000000
000000
000000
000000
,
100000
000100
000010
001000
000000
010000
000000
000100
,
001010
000000
001000
020200
000000
000000
000000
030300
,
010000
000010
000000
000000
000000
000000
001000
000100
000000
000000
000000
000000
010000
000000
000100
000000
,
100000
010000
001000
000001
000010
000000
000100
000000
,
100000
000000
000000
000000
001000
000000
000010
000000
000000
000000
000000
000001
000000
000000
000011
000000
,
000000
002100
000010
003001
,
000001
000000
010000
000000
000010
000000
100000
000000
000000
000000
000000
000100
000000
000000
100100
000000
,
000001
000010
000100
100000
010000
000000
001000
000000
,
000001
000000
000000
000000
000100
000000
010000
000000
000000
000000
000000
100000
000000
000000
110000
000000
,
000000
001200
010000
100300
,
100000
000000
000010
000000
010000
000000
000001
000000
001000
000000
000000
000100
000000
000000
010100
000000
,
002020
000000
000000
003030
010100
000000
010000
000000
,
000100
000000
000000
100100
000000
000000
101000
000000
000000
000000
001000
000000
010000
000000
001000
000000
,
000010
000000
000000
000110
000000
000000
001100
000000
000000
000000
001000
000000
010000
000000
001000
000000
,
000100
000000
000000
100100
000000
000000
001001
000000
000000
000000
000100
000000
010000
000000
001000
000000
,
000010
000001
000100
000000
000202
000000
000000
000303
,
202000
000000
000000
303000
000022
000000
000000
000033
,
220000
000000
000000
330000
010000
100000
001000
000010
,
000001
000100
000010
100000
010000
000000
001000
011000
,
000000
000000
000000
010000
000000
000000
100000
000000
001000
000000
010000
000000
100000
000000
010000
000000
,
001000
000010
000001
000100
000010
000001
000010
000100
,
010000
000000
000000
011000
000000
000000
001000
000000
000000
000000
000100
000000
000010
000000
000001
000000
,
001000
000000
000000
010000
000000
000000
100000
000000
000010
000000
000100
000000
000001
000000
010000
000000
,
001000
000000
100000
001000
000000
000000
000000
000000
101000
000000
001000
000000
100000
000000
000010
000000
,
000100
000000
000000
000110
000000
000000
011000
000000
001000
000000
000010
000000
000100
000000
010000
000000
,
100000
001000
000010
000001
000022
000000
000000
000000
,
000000
000000
000000
000033
000000
000000
000000
000000
;

//---------------pump-double - Andamiro----------------
#NOTES:
     pump-double:
     Andamiro:
     Medium:
     4:
     0.229524,0.279560,0.085689,0.000000,0.005356,150.000000,142.000000,8.000000,0.000000,0.000000,0.000000,0.229524,0.279560,0.085689,0.000000,0.005356,150.000000,142.000000,8.000000,0.000000,0.000000,0.000000:
0000000000
0000000000
0000000000
0000000000
,
0000000000
0000000000
0000000000
0000000000
,
0000000000
0000000000
0000000000
0000000000
,
0000000000
0000000000
0000000000
0000000000
,
0000010000
0000000100
0000000010
0000000000
,
0000000001
0000000100
0000001000
0000000000
,
0010000000
0000000000
0000100000
0000000000
,
0100000000
0001000000
0010000000
0000000000
,
0000010000
0000100000
0000000100
0000000000
,
0000100000
0000010000
0010000000
0000000000
,
0000001000
0000000000
0000000100
0000000000
,
0001000000
0000001000
0100000000
0000000000
,
1000000000
0000100000
0000001000
0000001100
,
0000000001
0000010000
0001000000
0011000000
,
0010000000
0000000000
0000100000
0000000000
0000001000
0000000100
0000000010
0000000000
,
0000000001
0000000100
0000010000
0000110000
,
1000000000
0000100000
0100000000
0000100000
,
1000000000
0000000000
0000100000
0000000000
0100000000
0001000000
0000100000
0000000000
,
0000010000
0000000000
0001000000
0000000000
0000010000
0000100000
0000000100
0000000000
,
0000001000
0000000000
0000000010
0000000000
0000000100
0000010000
0000000001
0000000000
,
0000010001
0000000000
0000000000
0000000100
,
0000110000
0010000000
0001000000
1000000000
,
0000100000
0100000000
0000000000
1010000000
,
0000100000
0010000000
0000001000
0001000000
,
0000000100
0000001000
0000000001
0000000000
,
0000010000
0000001000
0010000000
0000100000
,
0100000000
0001000000
0000000000
0011000000
,
0000001000
0000100000
0000000100
0001000000
,
0000010000
0010000000
0001000000
0000010000
,
0000000100
0000000000
0000000000
0000000100
0000010000
0000000000
0000000001
0000000000
,
0000010000
0000000000
0000000000
0000000000
0000000001
0000010000
0000000000
0000000000
,
0000010001
0000000000
0000000010
0000001000
,
0000000100
0000000000
0000000000
0000000100
0000000000
0000000000
0000000100
0000000000
0000010000
0000000000
0000000000
0000000000
0000000000
0000000000
0000000000
0000000000
,
0000000000
0000000000
0000000000
0000000000
0010000000
0010000000
0000000000
0000000000
,
0001000000
0000000000
0000100000
0000000000
0000010000
0000010000
0000000000
0000000000
,
0010000000
0000000000
0000000100
0000001000
,
0000000010
0000000010
0000010000
0000000001
,
0000001000
0000001000
0000100000
0000000100
,
0000001000
0000000000
0000000010
0000000000
0000010000
0000000100
0000000001
0000000100
,
0000000010
0000001000
0000010000
0010000000
,
0000100000
0000100000
0100000000
0001000000
,
0010000000
0000000000
0000001000
0000100000
,
0000000100
0000001000
0000000100
0000000100
,
0000000000
0000000000
0010000000
0000000000
;

//---------------pump-double - Andamiro----------------
#NOTES:
     pump-double:
     Andamiro:
     Hard:
     9:
     0.624305,0.664491,0.203511,0.139244,0.540911,408.000000,387.000000,19.000000,13.000000,0.000000,2.000000,0.624305,0.664491,0.203511,0.139244,0.540911,408.000000,387.000000,19.000000,13.000000,0.000000,2.000000:
0000000000
0000000000
0000000000
0000000000
,
0000000000
0000000000
0000000000
0000000000
,
0000000000
0000000000
0000000000
0000000000
,
0000000000
0000000000
0000000000
0000000000
,
0000000100
0000000000
0000000001
0000000000
0000001000
0000000000
0000000100
0000000000
0000010000
0000000000
0000000000
0000010000
0000000000
0000000000
0000000000
0000000000
,
0000001000
0000000000
0000100000
0000000000
0000010000
0000000000
0010000000
0000000000
0001000000
0000000000
0000000000
0001000000
0000000000
0000000000
0001000000
0000000000
,
0100000000
0000000000
0000100000
0000000000
0001000000
0000000000
0000010000
0000000000
0010000000
0000000000
0000000000
0010000000
0000000000
0000000000
0000000000
0000000000
,
0000001000
0000000000
0000100000
0000000000
0000000100
0000000000
0000010000
0000000000
0000010000
0000000000
0000000000
0000000100
0000000000
0000000000
0000000100
0000000000
,
0000010000
0000000000
0000000010
0000000000
0000000100
0000000000
0000000001
0000000000
0000001000
0000000000
0000000100
0000010000
0000000100
0000000000
0000001000
0000000000
,
0000010000
0000000000
0000100000
0000000000
0000001000
0000000000
0000010000
0000000000
0000000100
0000000000
0000001000
0000000010
0000001000
0000000000
0000000100
0000000000
,
0000010000
0000000000
0000001000
0000000000
0001000000
0000000000
0000010000
0000000000
0000100000
0000000000
0001000000
0010000000
0001000000
0000000000
0010000000
0000000000
,
0000100000
0000000000
0100000000
0000000000
0010000000
0000000000
1000000000
0000000000
0000100000
0000000000
0000000000
0001100000
0000000000
0000000000
0001000000
0000000000
,
0000010000
0000000000
0001000000
0000100000
0010000000
0000000000
0000010000
0000000000
0000100000
0000001000
0000010000
0000000100
0000010000
0000001000
0000100000
0000000000
,
0000010000
0000000000
0000001000
0000000100
0000001000
0000000000
0000010000
0000000000
0000100000
0001000000
0010000000
0001000000
0000100000
0000000000
0000001000
0000000000
,
0001000000
0000000000
0000010000
0000001000
0000000100
0000000000
0001000000
0000000000
0000001000
0000100000
0001000000
0010000000
0001000000
0000100000
0000001000
0000000000
,
0001000000
0000000000
0000100000
0010000000
0000100000
0000000000
0001000000
0000000000
0000001000
0000010000
0000000100
0000010000
0000001000
0000000000
0001000000
0000000000
,
0000010000
0000000000
0000100000
0001000000
0010000000
0000000000
0000001000
0000000000
0001000000
0000010000
0000001000
0000000100
0000001000
0000010000
0001000000
0000000000
,
0000001000
0000000000
0000010000
0000000100
0000010000
0000000000
0000001000
0000000000
0001000000
0000100000
0010000000
0000100000
0001000000
0000000000
0000010000
0000000000
,
0000100000
0000000000
0000001000
0000010000
0000000100
0000000000
0000100000
0000000000
0000010000
0001000000
0000100000
0010000000
0000100000
0001000000
0000010000
0000000000
,
0000100000
0000000000
0001000000
0010000000
0001000000
0000000000
0000100000
0000000000
0000010000
0000001000
0000000100
0000001000
0000010000
0000000000
0000100000
0000000000
,
0000001000
0010000000
0000000000
0000001000
0001000000
0000000000
0001000000
0000000100
0000000000
0001000000
0000001000
0000000000
0000200000
0000000000
0000310000
0000000000
,
0010000000
0000000000
0000001000
0001000000
0000100000
0000000000
0010000000
0000000000
0001000000
0000100000
0000010000
0000001000
0000000100
0000000000
0001000000
0000000000
,
0000010000
0000000000
0010000000
0001000000
0100000000
0000000000
0010000000
0000000000
1000000000
0100000000
0010000000
0001000000
0000100000
0000000000
0000001000
0000000000
,
0001000000
0000000000
0000010000
0000100000
0000001000
0000000000
0010000000
0000000000
0001000000
0000100000
0000010000
0000001000
0000000100
0000000000
0001000000
0000000000
,
0000010000
0000000000
0010000000
0001000000
0000100000
0000000000
0010000000
0000000000
1000000000
0100000000
0010000000
0001000000
0000100000
0000000000
0000101000
0000000000
,
0000000100
0000000000
0001000000
0000001000
0000010000
0000000000
0000000100
0000000000
0000001000
0000010000
0000100000
0001000000
0010000000
0000000000
0000001000
0000000000
,
0000100000
0000000000
0000000100
0000001000
0000000010
0000000000
0000000100
0000000000
0000000001
0000000010
0000000100
0000001000
0000010000
0000000000
0001000000
0000000000
,
0000001000
0000000000
0000100000
0000010000
0001000000
0000000000
0000000100
0000000000
0000001000
0000010000
0000100000
0001000000
0010000000
0000000000
0000001000
0000000000
,
0000100000
0000000000
0000000100
0000001000
0000010000
0000000000
0000000100
0000000000
0000000001
0000000010
0000000100
0000001000
0000010000
0000000000
0001010000
0000000000
,
0020000000
0000000000
0000000000
0000000000
0000000000
0000000000
0000000000
0000000000
0000000000
0000000000
0000000000
0000000000
0000000000
0000000000
0000000000
0000000000
0000000000
0000000000
0000000000
0000000000
0000000000
0030000000
0000000000
0000000000
0011100000
0000000000
0000000000
0000000000
0000000000
0000000000
0000000000
0000000000
0001100000
0000000000
0000000000
0000000000
0000000000
0000000000
0000000000
0000000000
0000100000
0000000000
0000000000
0000000000
0000000000
0000000000
0000000000
0000000000
0100000000
0000000000
0000000000
0000000000
0000000000
0000000000
0000000000
0000000000
0000000000
0000000000
0000000000
0000000000
0000000000
0000000000
0000000000
0000000000
,
0011000000
0000000000
0000000000
0110000000
0000000000
0000000000
0100001000
0000000000
0000000000
0000000000
0001010100
0000000000
0000010000
0000100000
0000001000
0000000000
,
0000101000
0000000000
0000100000
0000010000
0001000000
0000000000
0001001000
0000000000
0010000000
0000000000
0000100000
0000000000
0010010000
0000000000
0000000000
0000000000
,
0000010000
0000000000
0010000000
0000100000
0000000000
0000000000
0100100000
0000000000
0000000000
0000000000
0100000000
0001000000
0100000000
0001000000
0100000000
0000000000
,
0001000000
1000000000
0001000000
1000000000
0001000000
0000000000
0000000000
0000000000
0020000000
0000000000
0000100000
0000000000
0001000000
0000000000
0000200000
0030000000
,
0000320000
0000000000
0001000000
0000000000
0010000000
0000000000
0002000000
0000030000
0003002000
0000000000
0000000100
0000000000
0000000010
0000000000
0000000200
0000003000
,
0000020300
0000000000
0000100000
0000000000
0001000000
0000000000
0000200000
0000030000
0000300100
0000000000
0000010000
0000000010
0000000100
0000000000
0000000001
0000000000
,
0000001000
0000000100
0000010000
0000001000
0000100000
0000000000
0000010000
0000000000
0001000000
0000000000
0000100000
0100000000
0010000000
0000000000
1000000000
0000000000
,
0001000000
0010000000
0000100000
0010000000
0001000000
0000000000
0000100000
0000000000
0000001000
0000000000
0001000000
0000010000
0000001000
0000000000
0000000100
0000000000
,
0000010000
0000000001
0000000100
0000000010
0000001000
0000000000
0000000100
0000000000
0000010000
0000000100
0000010000
0000000010
0000000100
0000000010
0000010000
0000000100
,
0000001000
0000010000
0000000000
0001000000
0000010000
0000100000
0000001000
0000100000
0001000000
0000000000
0011000000
0000000000
0100000000
0000000000
0110000000
0000000000
,
0000100000
0010000000
0000000000
0010000000
0001000000
0000000000
0001000000
0000000000
0000010000
0000000100
0000010000
0000000000
0000000001
0000000100
0000000001
0000000000
,
0000001000
0000000000
0000000100
0000000000
0000000000
0000000000
0002002000
0000000000
0000000000
0000000000
0000000000
0003003000
0000000000
0000000000
0000000000
0000000000
0000100000
0000000000
0000000000
0000000000
0010100000
0000000000
0000000000
0000000000
1000000000
0000000000
0000000000
0000000000
1010000000
0000000000
0000000000
0000000000
,
0001000000
0000100000
0000000000
0000100000
0000010000
0000000000
0000010000
0000000000
0000001000
0000000100
0000001000
0000000000
0000000010
0000000100
0000000010
0000000000
,
0000001000
0000010000
0000000000
0000010000
0000100000
0000000000
0001000000
0000000000
0120000000
0000000000
0000000000
0000000000
0000000000
0000000000
0000000000
0000000000
,
0000000000
0000000000
0000000000
0000000000
0000000000
0030000000
0000000000
0000000000
0000000000
0000000000
0000000000
0000000000
0000000000
0000000000
0000000000
0000000000
;

//---------------dance-single - ----------------
#NOTES:
     dance-single:
     :
     Hard:
     10:
     0.648787,0.641662,0.621244,0.310622,0.428444,424.000000,366.000000,58.000000,29.000000,0.000000,0.000000,0.648787,0.641662,0.621244,0.310622,0.428444,424.000000,366.000000,58.000000,29.000000,0.000000,0.000000:
// measure 0
0000
0000
0000
0000
,  // measure 1
0000
0000
0000
0000
,  // measure 2
0000
0000
0000
0000
,  // measure 3
1001
1001
1001
1001
2002
3003
0100
1010
,  // measure 4
1000
0000
1010
0000
0010
0000
0100
0000
0001
0000
0000
0001
0000
0000
0000
0000
,  // measure 5
0101
0000
0101
0000
1001
0000
1001
0000
1010
0000
0000
0010
0000
0000
0100
0000
,  // measure 6
0001
0000
0101
0000
1000
0000
0100
0000
0010
0000
0000
0010
0000
0000
0000
0000
,  // measure 7
0110
0000
1001
0000
0100
0000
1001
0000
0101
0000
0000
1000
0000
0000
0010
0000
,  // measure 8
1000
0000
1010
0000
0001
0000
0101
0000
0011
0000
0010
0001
0100
0000
0001
0000
,  // measure 9
1000
0000
1010
0000
0001
0000
0101
0000
1010
0000
0010
1000
0100
0000
1000
0000
,  // measure 10
0001
0000
0011
0000
1000
0000
1100
0000
1001
0000
0100
1000
0010
0000
1000
0000
,  // measure 11
0001
0000
0011
0000
1000
0000
1100
0000
1001
0000
0000
0110
0000
0000
1001
0000
,  // measure 12
1000
0000
0010
0100
0001
0000
1000
0000
0010
0100
0001
0100
0010
0000
1000
0000
,  // measure 13
0001
0000
1000
0100
0010
0000
0001
0000
0010
0100
1000
0001
0100
0010
1000
0000
,  // measure 14
0100
0000
1000
0010
0100
0000
0001
0000
1000
0100
0001
0100
1000
0000
0001
0000
,  // measure 15
1000
0000
0010
0100
0001
0000
1000
0000
0001
0100
1000
0100
0001
0000
1000
0000
,  // measure 16
0001
0000
0010
0100
1000
0000
0001
0000
0010
0100
1000
0100
0010
0000
0001
0000
,  // measure 17
1000
0000
0001
0100
0010
0000
1000
0000
0010
0100
0001
1000
0100
0010
0001
0000
,  // measure 18
0100
0000
0001
0010
0100
0000
1000
0000
0001
0100
1000
0100
0001
0000
1000
0000
,  // measure 19
0001
0000
0010
0100
1000
0000
0001
0000
1000
0100
0001
0100
1000
0000
0001
0000
,  // measure 20
1000
0100
0000
1000
0001
0000
0010
0001
0000
0010
0100
0000
2100
0000
3010
0000
,  // measure 21
1000
0000
0010
0000
0100
0000
0001
0000
1010
0000
0100
1000
0010
0000
0200
0000
,  // measure 22
0301
0000
0000
0000
0010
0000
0000
0000
0100
0000
0000
0000
1000
0000
0000
0000
0011
0000
0000
0000
0001
0000
2000
0000
0010
0000
0000
3000
0002
0000
0000
0000
,  // measure 23
1003
0000
0010
0000
0100
0000
0001
0000
1010
0000
0100
1000
0010
0000
0200
0000
,  // measure 24
0301
0000
0000
0000
0010
0000
0000
0000
0100
0000
0000
0000
1000
0000
0000
0000
0011
0000
0000
0000
0001
0000
2000
0000
0010
0000
0000
3000
0002
0000
0000
0000
,  // measure 25
1003
0000
0001
0000
0100
0000
0010
0000
1100
0000
0100
1000
0001
0000
0200
0000
,  // measure 26
0310
0000
0000
0000
1000
0000
0000
0000
0100
0000
0000
0000
0010
0000
0000
0000
0101
0000
0000
0000
0001
0000
2000
0000
0100
0000
0000
3000
0002
0000
0000
0000
,  // measure 27
1003
0000
0001
0000
0100
0000
0010
0000
1100
0000
0100
1000
0001
0000
0200
0000
,  // measure 28
0310
0000
1000
0000
0100
0000
0010
0000
0001
0100
0010
1000
0002
0000
1003
0000
,  // measure 29
2020
0000
0000
0000
0000
3030
1001
0000
1000
0000
0010
0000
1000
0000
0000
0000
,  // measure 30
0010
0000
0000
1000
0000
0000
1010
0000
0000
0000
1001
0000
0010
0100
0001
0000
,  // measure 31
1001
0000
1000
0100
0010
0000
0011
0000
1000
0000
0100
0000
1000
0000
0001
0000
,  // measure 32
1000
0000
0000
1100
0000
0000
0110
0000
0000
0000
0002
0000
0000
0000
0000
0000
,  // measure 33
2000
0000
3003
0000
1001
0200
1000
0310
,  // measure 34
2000
0000
0010
0200
0300
0000
0000
3100
0002
0000
1000
0000
0203
0000
0010
0000
,  // measure 35
0302
0000
0100
0023
0000
0030
0010
2000
3001
0000
0101
0000
0010
0000
0100
0000
,  // measure 36
1000
0000
0001
0010
0001
0000
1000
0000
0001
0000
0001
0010
0100
0000
1100
0000
,  // measure 37
0010
1000
0100
1000
0010
0000
1010
0000
0100
0000
0001
0010
0001
0000
1000
0000
,  // measure 38
0001
0010
0100
1000
0010
0000
0100
0000
0001
0100
0010
1000
0100
1000
0010
0100
,  // measure 39
0001
0100
0000
0100
0001
0000
0001
0000
0100
0000
0110
0000
0010
0000
0110
0000
,  // measure 40
1001
0000
0000
0110
0000
0000
1001
0000
0001
0000
1000
0000
0100
0000
1000
0000
,  // measure 41
0001
0000
0100
0020
0000
0000
0030
0000
1000
0010
1000
0000
0001
0010
0001
0000
,  // measure 42
1000
0010
0000
0010
0001
0000
0010
0000
1000
0010
1000
0100
0010
0100
1000
0010
,  // measure 43
0100
0001
0000
0001
0010
0000
0110
0000
0022
0000
0000
0000
0000
0000
0000
0000
,  // measure 44
0000
0000
0000
0033
0000
0000
0000
0000
;

//---------------dance-single - ----------------
#NOTES:
     dance-single:
     :
     Medium:
     4:
     0.290730,0.372747,0.182089,0.064267,0.026778,190.000000,173.000000,17.000000,6.000000,0.000000,0.000000,0.290730,0.372747,0.182089,0.064267,0.026778,190.000000,173.000000,17.000000,6.000000,0.000000,0.000000:
0000
0000
0000
0000
,
0000
0000
0000
0000
,
0000
0000
0000
0000
,
0000
0000
0000
0000
,
1000
0000
0001
0000
0100
0010
1000
0000
,
0100
0100
0100
0000
,
1000
0100
0010
0000
,
1000
0001
0100
0010
1000
0000
0000
0000
,
0001
0000
1000
0000
0100
0010
0001
0000
,
0100
0100
0100
0000
,
0001
0100
0010
0000
,
0001
1000
0100
0010
0001
0000
0000
0000
,
1000
0000
0001
0000
1000
0010
1000
0000
,
0001
0010
0001
0011
,
0001
0000
0100
0000
0001
0100
0001
0000
,
1000
0100
1000
1100
,
1000
0100
0010
0001
,
0100
0000
0001
0000
1000
0100
1000
0000
,
0001
0010
0100
1000
0000
1000
0010
0100
,
0001
0000
0000
0000
,
1001
0000
0000
1001
0000
0000
0010
0100
,
0001
1000
0001
0101
,
1000
0000
0001
0000
1000
0100
1000
0000
,
0001
1000
0001
1001
,
0100
0010
1000
0100
,
0010
0001
1000
1010
,
0001
0000
1000
0000
0001
0010
0001
0000
,
1000
0001
1000
1001
,
0100
0011
0000
0011
,
0100
0000
1000
0100
,
1000
0000
0000
1100
0000
0000
0100
0000
0000
0000
0010
0000
0000
0000
0000
0000
,
0001
0000
0000
0000
0100
0001
0100
0000
,
0001
0000
0000
0101
0000
0000
0100
0000
0000
0000
0020
0000
0000
0000
0000
0000
,
2000
0000
0000
0000
3030
0000
0000
0000
0100
0000
0200
0000
0300
0000
0000
0100
,
0001
0000
0002
0000
0003
0000
0000
1000
0010
0000
0020
0000
0030
0000
0000
1000
,
0100
0000
0200
0000
0000
0300
0000
0000
1000
0000
0010
0000
1000
0000
0000
0000
,
0001
0010
0001
0000
1000
0000
0010
0000
,
0100
0001
1000
1100
,
0010
0000
0101
0000
1000
0100
0001
0100
,
1000
0010
0001
0010
1000
0000
0100
0000
,
1000
0001
0010
0100
,
1000
0000
0000
0000
0010
1000
0100
1000
,
0010
0000
1001
0000
0010
0001
0100
0001
,
0010
0110
1001
0000
;

//---------------dance-single - ----------------
#NOTES:
     dance-single:
     :
     Easy:
     1:
     0.134654,0.163077,0.000000,0.032133,0.000000,88.000000,88.000000,0.000000,3.000000,0.000000,0.000000,0.134654,0.163077,0.000000,0.032133,0.000000,88.000000,88.000000,0.000000,3.000000,0.000000,0.000000:
0000
0000
0000
0000
,
0000
0000
0000
0000
,
0000
0000
0000
0000
,
0000
0000
0000
0000
,
1000
0000
0000
0000
,
0001
0000
0000
0000
,
0100
0000
0000
0000
,
0010
0000
0000
0000
,
1000
0000
0010
0100
,
0001
0000
1000
0010
,
0100
0000
0001
1000
,
0010
0000
0100
0001
,
1000
0000
0010
0000
,
1000
0001
0010
0000
,
0001
0000
0010
0000
,
0001
1000
0010
0000
,
1000
0000
1000
0000
,
1000
0100
1000
0000
,
0001
0000
0001
0000
,
1000
0000
0010
0000
,
0100
0000
0000
0100
0000
0000
0100
0000
,
1000
0000
0010
0000
,
1000
0100
1000
0000
,
0100
0000
0010
0000
,
0001
0000
1000
0000
,
0001
0000
0010
0000
,
0001
0100
0010
0000
,
0100
0000
0010
0000
,
1000
0000
0000
0100
,
0200
0000
0300
0000
0001
0100
0001
0000
,
1000
0000
0000
0000
,
0000
0000
0100
0100
,
0001
0000
0000
0000
0000
2000
0000
3000
,
0000
0000
1000
0000
,
0010
0000
0001
0000
,
0100
0000
1000
0000
,
0010
0000
0100
0010
,
0100
0000
0010
0000
,
1000
0000
0002
0000
,
0003
0000
0001
0000
,
0010
0000
0001
1000
,
0100
0000
0100
0000
,
0001
0000
1000
0010
,
0100
0000
0010
0000
;
