#VERSION:0.83;
#TITLE:Super Fantasy;
#SUBTITLE:;
#ARTIST:SHK;
#TITLETRANSLIT:;
#SUBTITLETRANSLIT:;
#ARTISTTRANSLIT:;
#GENRE:Classical Crossover;
#ORIGIN:;
#CREDIT:;
#BANNER:Super Fantasy-bn.jpg;
#BACKGROUND:Super Fantasy-bg.png;
#PREVIEWVID:;
#JACKET:;
#CDIMAGE:;
#DISCIMAGE:;
#LYRICSPATH:;
#CDTITLE:;
#MUSIC:Super Fantasy.mp3;
#OFFSET:-0.098489;
#SAMPLESTART:13.349163;
#SAMPLELENGTH:12.000000;
#SELECTABLE:YES;
#BPMS:0.000=145.000,
51.000=72.500,
51.500=145.000,
54.500=72.500,
55.000=145.000,
63.000=72.500,
64.000=145.000,
66.000=72.500,
67.000=145.000,
69.000=72.500,
70.000=145.000,
72.000=72.500,
73.000=145.000,
75.000=72.500,
76.000=145.000,
78.000=72.500,
79.000=145.000,
81.000=72.500,
82.000=145.000,
84.000=72.500,
85.000=145.000,
167.000=72.500,
168.000=145.000,
170.000=72.500,
171.000=145.000,
173.000=72.500,
174.000=145.000,
180.000=72.500,
181.000=145.000,
183.000=72.500,
184.000=145.000,
186.000=72.500,
187.000=145.000,
212.000=72.500,
212.500=145.000,
215.500=72.500,
216.000=145.000,
268.000=72.500,
268.625=145.000;
#STOPS:;
#DELAYS:;
#WARPS:;
#TIMESIGNATURES:0.000=4=4;
#TICKCOUNTS:0.000=4;
#COMBOS:0.000=1;
#SPEEDS:0.000=1.000=0.000=0;
#SCROLLS:0.000=1.000;
#FAKES:;
#LABELS:0.000=Song Start;
#BGCHANGES:0.000=Super Fantasy.avi=1.000=0=0=0=StretchNoLoop====,
99999=-nosongbg-=1.000=0=0=0 // don't automatically add -songbackground-
;
#KEYSOUNDS:;
#ATTACKS:
;

//---------------dance-single - ----------------
#NOTEDATA:;
#CHARTNAME:;
#STEPSTYPE:dance-single;
#DESCRIPTION:;
#CHARTSTYLE:;
#DIFFICULTY:Medium;
#METER:7;
#RADARVALUES:0.526517,0.614590,0.049918,0.773730,0.099836,443.000000,437.000000,6.000000,93.000000,0.000000,0.000000,0.000000,0.000000,0.000000,0.526517,0.614590,0.049918,0.773730,0.099836,443.000000,437.000000,6.000000,93.000000,0.000000,0.000000,0.000000,0.000000,0.000000;
#CREDIT:;
#NOTES:
// measure 0
0000
0000
0000
0000
,  // measure 1
0000
0000
0000
0000
,  // measure 2
0000
0000
0000
0000
,  // measure 3
0000
0000
0000
0000
,  // measure 4
1000
0001
1000
0010
,  // measure 5
0100
0001
1000
0100
,  // measure 6
0010
0001
1000
0001
,  // measure 7
2002
0000
0000
0000
0000
3003
0000
0000
,  // measure 8
0001
0100
0001
1000
0001
0100
0020
0030
,  // measure 9
1000
0100
1000
0001
1000
0100
0020
0030
,  // measure 10
0001
0010
0100
1000
0010
0100
0001
0010
,  // measure 11
0001
0100
0001
0100
0001
1000
0100
0010
,  // measure 12
0001
0010
0001
1000
0001
0010
0100
0100
,  // measure 13
0010
0001
1000
0010
1000
0100
0100
1000
,  // measure 14
0010
1000
0010
1000
0100
1000
0010
0100
,  // measure 15
0001
1000
0010
0100
0001
1000
0100
0000
,  // measure 16
0100
0000
0100
0000
1000
0001
0100
0000
,  // measure 17
0010
1000
1000
1000
,  // measure 18
0010
0100
0001
0000
1000
0000
0100
0000
,  // measure 19
0100
0000
0100
0000
1000
0001
0100
0000
,  // measure 20
0010
0000
1000
0001
0100
0000
0010
0000
,  // measure 21
0100
0001
1000
0000
0001
0000
0010
0001
,  // measure 22
0100
0001
1000
0001
0100
0001
0010
0001
,  // measure 23
1000
0100
0010
0100
1000
1000
0010
1000
,  // measure 24
0100
1000
0001
1000
0100
1000
0010
1000
,  // measure 25
0001
0100
0010
0100
0002
0003
0010
0100
,  // measure 26
0010
0001
0010
0100
2000
3000
0010
0100
,  // measure 27
0010
1000
0010
0100
0002
0003
1000
0001
,  // measure 28
0100
0010
0001
0010
1000
0001
0100
0010
,  // measure 29
1000
0001
1000
0100
0010
0001
1000
0100
,  // measure 30
1000
0001
1000
0010
0100
0001
0100
0010
,  // measure 31
1000
0010
1000
0100
1000
0001
0010
0001
,  // measure 32
1000
0010
1000
0100
1000
0001
0010
0001
,  // measure 33
0010
0000
0100
0000
1000
0000
0001
0000
0010
0000
0100
0000
2000
3000
0002
0003
,  // measure 34
2000
3000
0002
0003
0200
0300
0002
0003
0020
0030
0002
0003
2000
3000
0200
0300
,  // measure 35
0020
0030
0200
0300
2000
3000
0020
0030
0200
0300
0020
0030
2000
3000
0002
0003
,  // measure 36
2000
3000
0200
0300
0020
0030
0002
0003
0020
0030
0002
0003
0200
0300
0020
0030
,  // measure 37
0200
0300
0002
0003
0020
0030
0200
0300
0020
0030
0002
0003
2000
3000
0002
0003
,  // measure 38
0200
0300
0020
0030
2000
3000
0002
0003
2000
3000
0200
0300
0020
0030
0200
0300
,  // measure 39
2000
3000
0020
0030
0200
0300
0020
0030
2000
3000
0002
0003
2000
3000
0200
0300
,  // measure 40
0020
0030
0200
0300
2000
3000
0002
0003
0200
0300
0020
0030
2000
3000
0002
0003
,  // measure 41
0020
0000
0000
0030
0000
0000
0200
0000
0000
0300
0000
0000
2000
0000
0000
3000
0000
0000
0002
0000
0000
0003
0000
0000
0020
0000
0000
0030
0000
0000
0200
0000
0000
0300
0000
0000
2000
0000
0000
0000
3000
0000
0002
0000
0000
0000
0003
0000
,  // measure 42
1000
0000
0100
0000
1000
0000
0001
0000
0100
0000
0001
0000
0200
0000
0300
0002
0000
0003
1000
0000
0010
0000
1000
0000
,  // measure 43
0001
0000
0000
0000
0010
0000
0000
0000
0001
0000
0000
0000
0020
0000
0000
0000
0030
0000
0002
0000
0000
0000
0003
0000
1000
0000
0000
0000
0100
0000
0000
0000
1000
0000
0000
0000
0002
0000
0000
0000
0000
0000
0000
0000
0000
0003
0000
0000
,  // measure 44
0010
0000
0000
0100
0000
0000
1000
0000
0200
0000
0000
0300
2000
0000
0000
3000
,  // measure 45
0002
0000
0003
2000
0000
3000
0001
0000
0100
0000
0001
0000
1000
0000
0100
0000
1000
0000
0200
0000
0300
2000
0000
3000
,  // measure 46
0001
0000
0010
0000
0001
0000
1000
0000
0010
0000
1000
0000
0020
0000
0030
2000
0000
3000
0001
0000
0100
0000
0001
0000
,  // measure 47
2000
0000
0000
0000
0000
0000
0000
0000
0000
3000
0000
0000
0100
0000
0020
0000
0000
0000
0000
0000
0030
0000
0000
0000
0200
0000
0000
0000
0000
0000
0000
0000
0300
0000
0000
0000
1000
0000
0002
0000
0000
0000
0000
0000
0000
0000
0000
0000
,  // measure 48
2000
0000
0000
0000
3003
0000
0001
0000
0000
0100
0000
0000
0001
0000
0000
1000
0000
0000
0001
0000
0000
0100
0000
0000
,  // measure 49
0001
0010
0001
1000
0100
1000
0001
1000
,  // measure 50
0010
1000
0001
0100
0010
1000
0100
0010
,  // measure 51
0001
0100
0010
1000
0100
0010
0001
1000
,  // measure 52
0100
0010
0001
0000
1000
0000
0001
0000
,  // measure 53
1001
1000
0000
0001
0000
0010
0000
1001
,  // measure 54
0010
1000
0100
1000
0010
0100
0001
0010
,  // measure 55
0001
1000
0001
0100
0001
0010
0001
0010
,  // measure 56
0100
0010
0100
0010
0001
0010
1000
0010
,  // measure 57
0100
1000
0001
0100
0010
1000
0100
0010
,  // measure 58
0100
1000
0001
1000
0100
1000
0010
0100
,  // measure 59
0001
1000
0010
1000
0100
0010
1000
0001
,  // measure 60
0100
1000
0001
1000
0100
1000
0010
0100
,  // measure 61
0010
1000
0001
0100
0010
0100
0001
1000
,  // measure 62
0100
0010
0001
0100
0010
0001
0010
1000
,  // measure 63
0010
0100
0001
1000
0001
0010
0100
1000
,  // measure 64
0000
0000
0000
0000
,  // measure 65
2002
0000
0000
0000
,  // measure 66
0000
0000
0000
3003
,  // measure 67
1001
0000
0000
0000
0000
1001
0000
0000
0000
0000
0000
0000
0000
0000
0000
0000
0000
0000
0000
0000
0000
0000
0000
0000
0000
0000
0000
0000
0000
0000
0000
0000
;

//---------------dance-single - ----------------
#NOTEDATA:;
#CHARTNAME:;
#STEPSTYPE:dance-single;
#DESCRIPTION:;
#CHARTSTYLE:;
#DIFFICULTY:Beginner;
#METER:3;
#RADARVALUES:0.213935,0.279359,0.066557,0.016639,0.004160,180.000000,172.000000,8.000000,2.000000,0.000000,0.000000,0.000000,0.000000,0.000000,0.213935,0.279359,0.066557,0.016639,0.004160,180.000000,172.000000,8.000000,2.000000,0.000000,0.000000,0.000000,0.000000,0.000000;
#CREDIT:;
#NOTES:
// measure 0
0000
0000
0000
0000
,  // measure 1
0000
0000
0000
0000
,  // measure 2
0000
0000
0000
0000
,  // measure 3
0000
0000
0000
0000
,  // measure 4
1000
0000
0001
0000
,  // measure 5
0010
0000
0100
0000
,  // measure 6
1000
0000
0001
0000
,  // measure 7
1001
0000
0000
0000
,  // measure 8
0001
0000
0001
0001
,  // measure 9
0010
0000
0010
0010
,  // measure 10
0100
1000
0001
0100
,  // measure 11
0010
1000
0010
1000
,  // measure 12
0100
0000
0000
0000
0100
0000
1000
1000
,  // measure 13
0000
0000
0000
1000
0000
0001
0001
0000
,  // measure 14
0000
0100
0000
0010
,  // measure 15
1000
0010
1000
0100
,  // measure 16
1000
0000
0001
0100
,  // measure 17
0000
0010
0100
0000
,  // measure 18
0001
1000
0000
0100
,  // measure 19
1000
0000
0001
0100
,  // measure 20
0000
0010
0100
0000
,  // measure 21
0001
1000
0000
0001
,  // measure 22
0100
0001
0100
0001
,  // measure 23
0100
0001
0100
0010
,  // measure 24
1000
0010
1000
0010
,  // measure 25
1000
0010
1010
1000
,  // measure 26
0000
1000
1000
0010
,  // measure 27
0000
0010
0010
0100
,  // measure 28
0001
1000
0100
0010
,  // measure 29
0001
0010
0001
0100
,  // measure 30
0000
0100
0100
0001
,  // measure 31
0000
0001
0001
1000
,  // measure 32
0000
0100
0000
1000
,  // measure 33
0001
1000
0001
0100
,  // measure 34
0000
0010
0000
1000
,  // measure 35
0000
0100
0000
1000
,  // measure 36
0000
0001
0000
0100
,  // measure 37
0000
0010
0000
1000
,  // measure 38
0000
0010
0000
0100
,  // measure 39
0000
0001
0000
1000
,  // measure 40
0000
0100
0000
0010
,  // measure 41
0000
0001
0000
0100
,  // measure 42
0000
0000
0000
0000
0001
0010
0100
0000
,  // measure 43
1000
0001
0000
0000
,  // measure 44
0100
0001
1000
0100
,  // measure 45
0010
0000
0000
0000
0000
0000
0001
0010
,  // measure 46
0100
1000
0001
0000
,  // measure 47
0000
0100
0010
1000
,  // measure 48
1001
0001
0000
0001
,  // measure 49
0001
0010
0000
0010
,  // measure 50
0010
0100
1000
0001
,  // measure 51
0100
0010
1000
0010
,  // measure 52
1000
0100
0000
0100
,  // measure 53
1001
0100
0000
0000
0000
0100
0000
1001
,  // measure 54
0010
0000
1000
0000
,  // measure 55
0001
1000
0001
1000
,  // measure 56
0100
0000
0010
0000
,  // measure 57
0001
0000
0100
0000
,  // measure 58
0001
0000
1000
0000
,  // measure 59
0100
0000
0010
0000
,  // measure 60
0001
0000
0010
0000
,  // measure 61
0100
0000
1000
0000
,  // measure 62
0001
0000
0100
0000
,  // measure 63
0010
0000
1000
0000
,  // measure 64
0000
0000
0000
0000
,  // measure 65
2002
0000
0000
0000
,  // measure 66
0000
0000
0000
3003
,  // measure 67
1001
0000
0000
0000
0000
1001
0000
0000
0000
0000
0000
0000
0000
0000
0000
0000
0000
0000
0000
0000
0000
0000
0000
0000
0000
0000
0000
0000
0000
0000
0000
0000
;

//---------------dance-single - ----------------
#NOTEDATA:;
#CHARTNAME:;
#STEPSTYPE:dance-single;
#DESCRIPTION:;
#CHARTSTYLE:;
#DIFFICULTY:Easy;
#METER:5;
#RADARVALUES:0.445697,0.474910,0.058238,0.124795,0.004160,375.000000,368.000000,7.000000,15.000000,0.000000,0.000000,0.000000,0.000000,0.000000,0.445697,0.474910,0.058238,0.124795,0.004160,375.000000,368.000000,7.000000,15.000000,0.000000,0.000000,0.000000,0.000000,0.000000;
#CREDIT:;
#NOTES:
// measure 0
0000
0000
0000
0000
,  // measure 1
0000
0000
0000
0000
,  // measure 2
0000
0000
0000
0000
,  // measure 3
0000
0000
0000
0000
,  // measure 4
1000
0000
0001
0000
,  // measure 5
0010
0000
0100
0000
,  // measure 6
1000
0001
0010
0100
,  // measure 7
0220
0000
0000
0000
0000
0330
0000
0000
,  // measure 8
0001
0010
0100
1000
0010
1000
0200
0300
,  // measure 9
1000
0010
0100
0001
0010
0001
0200
0300
,  // measure 10
0001
0010
0100
1000
0010
1000
0100
1000
,  // measure 11
0001
0010
0100
1000
0010
1000
0100
1000
,  // measure 12
0001
0010
0100
1000
0010
1000
0001
0001
,  // measure 13
0010
0100
1000
0010
1000
0001
0001
0010
,  // measure 14
0100
1000
0010
1000
0100
1000
0010
0100
,  // measure 15
0001
1000
0010
0100
0001
1000
0100
0000
,  // measure 16
0100
0000
0100
0000
1000
1000
0001
0000
,  // measure 17
0001
0010
0010
0010
,  // measure 18
0001
0001
1000
0000
1000
0000
0100
0000
,  // measure 19
0100
0000
0100
0000
1000
1000
0001
0000
,  // measure 20
0001
0000
0010
0001
1000
0000
0100
0000
,  // measure 21
0010
0100
1000
0000
0001
0000
0100
0001
,  // measure 22
1000
0001
0100
0001
1000
0001
0010
0100
,  // measure 23
1000
0001
1000
0010
0100
0001
1000
0100
,  // measure 24
1000
0001
1000
0100
1000
0001
1000
0010
,  // measure 25
0100
0001
0010
0100
2000
3000
0001
0010
,  // measure 26
0100
1000
0010
1000
0200
0300
1000
0010
,  // measure 27
0100
0001
0010
0001
0200
0300
0001
0010
,  // measure 28
0100
1000
0010
1000
0100
1000
0001
0010
,  // measure 29
0001
0100
0010
1000
0100
1000
0001
0010
,  // measure 30
0100
1000
0010
1000
0100
1000
0001
0010
,  // measure 31
0100
1000
0010
1000
0100
1000
0001
0010
,  // measure 32
0100
1000
0010
1000
0100
1000
0010
0100
,  // measure 33
0001
1000
0010
0100
0001
1000
0100
0000
,  // measure 34
0100
0010
0010
0001
,  // measure 35
0001
0100
0100
0010
,  // measure 36
0010
1000
1000
0100
,  // measure 37
0100
1000
1000
0100
,  // measure 38
0100
0010
0010
0001
,  // measure 39
0001
0100
0100
0010
,  // measure 40
0010
1000
1000
0100
,  // measure 41
0100
1000
1000
0002
,  // measure 42
0100
0103
0200
0010
,  // measure 43
0310
0020
1000
1030
,  // measure 44
1000
0010
0100
0001
,  // measure 45
0200
0010
0310
0020
,  // measure 46
1000
1030
2000
0100
,  // measure 47
3100
0100
1000
0001
,  // measure 48
1001
0000
0100
1000
0010
1000
0010
0100
,  // measure 49
0001
1000
0100
0010
0001
0100
0001
1000
,  // measure 50
0001
0100
0010
1000
0100
1000
0010
1000
,  // measure 51
0001
1000
0100
0010
0100
1000
0001
0100
,  // measure 52
0010
1000
0100
0000
1000
0000
0001
0000
,  // measure 53
1001
0001
0000
0100
0000
0010
0000
0110
,  // measure 54
0010
0100
0001
1000
,  // measure 55
0100
1000
0001
0100
0001
1000
0100
0010
,  // measure 56
0001
0100
0001
1000
0001
0100
0010
1000
,  // measure 57
0010
0100
0001
1000
0100
0010
0100
1000
,  // measure 58
0001
0100
0010
1000
0010
0100
0001
1000
,  // measure 59
0001
0100
0010
1000
0010
1000
0001
0010
,  // measure 60
0100
1000
0001
0100
0010
1000
0100
1000
,  // measure 61
0001
0010
0100
1000
0001
1000
0100
0010
,  // measure 62
0001
0100
0001
1000
0001
0100
0001
1000
,  // measure 63
0001
0010
0100
1000
0001
1000
0100
0010
,  // measure 64
0000
0000
0000
0000
,  // measure 65
2002
0000
0000
0000
,  // measure 66
0000
0000
0000
3003
,  // measure 67
1001
0000
0000
0000
0000
1001
0000
0000
0000
0000
0000
0000
0000
0000
0000
0000
0000
0000
0000
0000
0000
0000
0000
0000
0000
0000
0000
0000
0000
0000
0000
0000
;

//---------------dance-single - ----------------
#NOTEDATA:;
#CHARTNAME:;
#STEPSTYPE:dance-single;
#DESCRIPTION:;
#CHARTSTYLE:;
#DIFFICULTY:Hard;
#METER:12;
#RADARVALUES:0.827213,0.936899,0.024959,1.272910,1.110677,696.000000,693.000000,3.000000,153.000000,0.000000,0.000000,0.000000,0.000000,0.000000,0.827213,0.936899,0.024959,1.272910,1.110677,696.000000,693.000000,3.000000,153.000000,0.000000,0.000000,0.000000,0.000000,0.000000;
#CREDIT:;
#NOTES:
// measure 0
0000
0000
0000
0000
,  // measure 1
0000
0000
0000
0000
,  // measure 2
0000
0000
0000
0000
,  // measure 3
0000
0000
0000
0000
,  // measure 4
0010
0000
0001
0000
1000
0000
0001
0100
,  // measure 5
0001
0000
1000
0001
0000
0010
0000
0000
,  // measure 6
0002
0103
2000
3100
,  // measure 7
2002
0000
0000
3003
,  // measure 8
0010
1000
0100
1000
0001
0010
0001
0100
0001
0010
0100
1000
0001
0100
0002
0003
,  // measure 9
0010
0001
0100
0001
1000
0010
1000
0100
1000
0010
0100
0001
1000
0100
2000
3000
,  // measure 10
0010
1000
0100
1000
0100
0010
0001
0100
0001
0010
0001
0010
0100
1000
0100
1000
,  // measure 11
0001
0010
0100
1000
0010
1000
0001
0100
0001
0010
0100
1000
0001
0100
0020
0030
,  // measure 12
0100
0001
1000
0100
0010
0001
0100
0001
0010
0100
1000
0001
0100
0000
0100
0001
,  // measure 13
1000
0100
0010
0001
0100
0001
0010
0100
1000
0001
0100
0000
0100
0001
1000
0100
,  // measure 14
1000
0010
0100
0001
1000
0100
0010
0100
1000
0001
0100
0010
1000
0100
1000
0001
,  // measure 15
1000
0100
1000
0001
1000
0100
1000
0001
1000
0100
1000
0001
0200
0300
0002
0003
,  // measure 16
2000
0000
0000
3000
0002
0000
0000
0003
0200
0300
0020
0030
0200
0000
0000
0300
,  // measure 17
0002
0000
0000
0003
2000
3000
0020
0030
2000
0000
0000
3000
0200
0000
0000
0300
,  // measure 18
0020
0030
0200
0300
2000
0000
0000
3000
0002
0000
0000
0003
2000
3000
0002
0003
,  // measure 19
0200
0000
0000
0300
0020
0000
0000
0030
0200
0300
0002
0003
2000
0000
0000
3000
,  // measure 20
0002
0000
0000
0003
0200
0300
0002
0003
0020
0000
0000
0030
0200
0000
0000
0300
,  // measure 21
2000
3000
0200
0300
0020
0000
0000
0030
0002
0000
0000
0003
1000
0100
2000
3000
,  // measure 22
0001
0100
0002
0003
1000
0010
2000
3000
0001
0010
0002
0003
0010
0001
0200
0300
,  // measure 23
0010
1000
0200
0300
1000
0001
0020
0030
0001
1000
0020
0030
1000
0010
2000
3000
,  // measure 24
0001
0010
0002
0003
1000
0100
2000
3000
0001
0100
0002
0003
0100
0001
0020
0030
,  // measure 25
0100
1000
0020
0030
1000
0001
0200
0300
0002
0000
0000
0003
0010
0001
0100
0001
,  // measure 26
1000
0010
1000
0100
1000
0010
0100
0001
1000
0100
2000
3000
0010
1000
0100
1000
,  // measure 27
0001
0010
0001
0100
0001
0010
0100
1000
0001
0100
0002
0003
0010
0001
0100
0001
,  // measure 28
0100
0010
1000
0100
1000
0010
1000
0010
0100
0001
0100
0001
1000
0010
0100
0001
,  // measure 29
0010
0001
1000
0100
1000
0010
0100
0001
1000
0100
0020
0030
0100
1000
0001
0100
,  // measure 30
0010
1000
0100
1000
0001
1000
0100
1000
0010
0100
0002
0003
0100
0001
1000
0100
,  // measure 31
0010
0001
0100
0001
1000
0001
0100
0001
0010
0100
2000
3000
0100
1000
0001
0100
,  // measure 32
0001
0010
0100
1000
0001
0100
0010
0100
0001
1000
0100
0010
0001
0100
0001
1000
,  // measure 33
0001
0100
0001
1000
0001
0100
0001
1000
0001
0100
0001
1000
0200
0300
2000
3000
,  // measure 34
0020
0030
0200
0300
0002
0003
2000
3000
0200
0300
0020
0030
0002
0003
2000
3000
,  // measure 35
0200
0300
0020
0030
0200
0300
2000
3000
0020
0030
0200
0300
0020
0030
2000
3000
,  // measure 36
0020
0030
0200
0300
0002
0003
2000
3000
0200
0300
0020
0030
0002
0003
2000
3000
,  // measure 37
0020
0030
0200
0300
0020
0030
2000
3000
0200
0300
0020
0030
0200
0300
2000
3000
,  // measure 38
0002
0003
0200
0300
0020
0030
2000
3000
0200
0300
2000
3000
0020
0030
0200
0300
,  // measure 39
0002
0003
0020
0030
0200
0300
2000
3000
0020
0030
0200
0300
0002
0003
0020
0030
,  // measure 40
0200
0300
2000
3000
0020
0030
0200
0300
0002
0003
2000
3000
0200
0300
0020
0030
,  // measure 41
0002
0003
2000
3000
0002
0003
0200
0300
0020
0030
2000
3000
0200
0300
2000
3000
,  // measure 42
0001
0000
0000
0000
0010
0000
0000
0000
0001
0000
0000
0000
1000
0000
0000
0000
0010
0000
0000
0000
1000
0000
0000
0000
0002
0000
0000
0003
0000
0000
2000
0000
0000
3000
0000
0000
0001
0000
0000
0000
0010
0000
0000
0000
0001
0000
0000
0000
,  // measure 43
1000
0000
0000
0000
0010
0000
0000
0000
1000
0000
0000
0000
0002
0000
0000
0003
0000
0000
2000
0000
0000
3000
0000
0000
0001
0000
0000
0000
0010
0000
0000
0000
0001
0000
0000
0000
2000
0000
0000
0000
0000
0000
0000
0000
0000
3000
0000
0000
,  // measure 44
0002
0000
0003
2000
0000
3000
0200
0300
0020
0000
0000
0000
0002
0030
0000
0003
,  // measure 45
0200
0000
0000
0300
0000
0000
0002
0000
0000
0003
0000
0000
1000
0000
0000
0000
0100
0000
0000
0000
1000
0000
0000
0000
0001
0000
0000
0000
0100
0000
0000
0000
0001
0000
0000
0000
2000
0000
0000
3000
0000
0000
0002
0000
0000
0003
0000
0000
,  // measure 46
1000
0000
0000
0000
0100
0000
0000
0000
1000
0000
0000
0000
0001
0000
0000
0000
0100
0000
0000
0000
0001
0000
0000
0000
2000
0000
0000
3000
0000
0000
0002
0000
0000
0003
0000
0000
1000
0000
0000
0000
0100
0000
0000
0000
1000
0000
0000
0000
,  // measure 47
0002
0000
0000
0000
0000
0000
0000
0000
0000
0003
0000
0000
0100
0000
0002
0000
0000
0000
0000
0000
0000
0003
0000
0000
0020
0000
0000
0000
0000
0000
0000
0000
0000
0030
0000
0000
0100
0000
2000
0000
0000
0000
0000
0000
0000
0000
0000
0000
,  // measure 48
0002
0000
3003
0000
1000
0100
0010
0001
0100
0001
1000
0100
1000
0001
0100
0010
,  // measure 49
1000
0100
2000
3000
0001
0100
0010
1000
0100
1000
0001
0100
0001
1000
0100
0010
,  // measure 50
0001
0100
0002
0003
1000
0100
0010
0001
0010
0001
0010
0100
1000
0010
1000
0100
,  // measure 51
0010
0001
0100
0001
0100
0010
0100
0001
0010
0001
0100
0001
0010
0100
1000
0100
,  // measure 52
0010
0001
0100
0010
1000
0000
0100
1000
0001
0000
0100
0000
0001
0000
1000
0000
,  // measure 53
0100
0000
0100
1000
0000
0001
1000
0000
0100
0000
0010
0000
0001
0000
0100
0000
,  // measure 54
0100
0001
0010
0100
1000
0001
0100
0010
1000
0001
0100
0001
1000
0010
0100
0001
,  // measure 55
1000
0100
0010
0001
0100
0001
0010
0100
1000
0010
1000
0001
0010
0100
1000
0100
,  // measure 56
0010
0001
0100
0001
0010
0100
1000
0100
0010
0001
0010
0001
0010
0100
1000
0001
,  // measure 57
0100
0010
1000
0010
1000
0010
0100
0001
1000
0100
1000
0010
0100
0001
0010
0100
,  // measure 58
1000
0100
1000
0010
0100
0001
1000
0100
0010
0100
1000
0001
0100
0010
1000
0001
,  // measure 59
1000
0010
1000
0100
0010
0001
1000
0001
0100
0001
0010
0100
1000
0010
0100
0001
,  // measure 60
1000
0010
1000
0001
0010
0001
0010
0001
0100
0001
0100
0001
1000
0100
0010
0001
,  // measure 61
0100
0001
0100
0001
0010
0100
1000
0001
0100
0010
0001
0010
1000
0001
0010
1000
,  // measure 62
0010
0100
1000
0001
0100
0010
1000
0100
1000
0010
0100
0001
1000
0100
0010
0001
,  // measure 63
0100
0001
1000
0100
0010
0100
1000
0001
0100
0010
1000
0001
1000
0001
0100
1000
,  // measure 64
0000
0000
0000
0000
,  // measure 65
2200
0000
0000
0000
,  // measure 66
0000
0000
0000
3300
,  // measure 67
0022
0000
0000
0000
,  // measure 68
0000
0033
0000
0000
;

//---------------dance-single - ----------------
#NOTEDATA:;
#CHARTNAME:;
#STEPSTYPE:dance-single;
#DESCRIPTION:;
#CHARTSTYLE:;
#DIFFICULTY:Challenge;
#METER:14;
#RADARVALUES:0.846230,0.936899,0.024959,1.156435,1.177234,712.000000,709.000000,3.000000,139.000000,0.000000,0.000000,0.000000,0.000000,0.000000,0.846230,0.936899,0.024959,1.156435,1.177234,712.000000,709.000000,3.000000,139.000000,0.000000,0.000000,0.000000,0.000000,0.000000;
#CREDIT:;
#NOTES:
0000
0000
0000
0000
,
0000
0000
0000
0000
,
0000
0000
0000
0000
,
0000
0000
0000
0000
,
0010
0000
0001
0000
1000
0000
0100
0010
,
0001
0000
1000
0001
0000
0100
0000
0000
,
0002
1003
0020
0130
,
2002
0000
0000
0000
0000
0000
0000
3003
,
0001
0010
0100
1000
0010
0100
0001
1000
0100
0010
0100
1000
0001
0100
0020
0030
,
1000
0010
0100
0001
0010
0100
1000
0001
0100
0010
0100
0001
1000
0100
0020
0030
,
0001
0010
0100
1000
0010
0100
0001
1000
0100
0010
1000
0001
1000
0010
0001
1000
,
0001
0010
1000
0010
0100
1000
0100
0010
0001
0100
0001
0100
0010
1000
0200
0300
,
1000
0100
0010
0001
0100
0010
1000
0100
1000
0010
0100
0001
1000
0000
1000
0100
,
0010
0001
0100
0010
1000
0100
1000
0010
0100
0001
1000
0000
1000
0100
0010
0001
,
0100
0010
1000
0100
1000
0010
0100
0001
0010
0001
0100
0001
1000
0100
0010
0001
,
1000
0100
0010
0001
1000
0100
0010
0001
1000
0100
0010
0001
0200
0000
0302
0000
,
2003
0000
3002
0000
0203
0320
0230
0000
,
0302
0000
2003
3020
2030
0000
3200
0000
,
0320
0230
2300
0000
3002
0000
2003
3002
,
0203
0000
0320
0000
0230
0302
2003
0000
,
3002
0000
0203
0302
0023
0000
0230
0000
,
2300
0000
3200
0000
0320
0000
0000
0000
0032
0000
0000
0000
1003
0100
0010
0100
,
1000
0010
1000
0001
1000
0010
0100
0010
1000
0010
0100
0001
0010
0001
0100
0001
,
1000
0010
0100
0001
0010
0001
0100
0001
1000
0010
0100
0001
0001
0100
0010
0100
,
0001
0010
0001
1000
0001
0010
0100
0010
0001
0010
0100
1000
0010
1000
0100
1000
,
0001
0010
0100
1000
0010
1000
0100
1000
0020
0000
0000
0030
1000
0010
0100
0001
,
0010
0100
1000
0001
0100
0010
0100
0001
1000
0100
0020
0030
0001
0010
0100
1000
,
0010
0100
0001
1000
0100
0010
0100
1000
0001
0100
0020
0030
1000
0010
0100
0001
,
0010
0100
1000
0001
0100
0010
0001
1000
0001
0010
1000
0001
1000
0010
0001
0010
,
0100
0001
0100
0010
1000
0100
1000
0100
0010
0001
0200
0300
0001
0100
0010
1000
,
0100
0010
0001
0100
0001
0010
0100
1000
0010
1000
0002
0003
1000
0100
0010
0001
,
0100
0010
1000
0100
1000
0010
0100
0001
0010
0001
2000
3000
0001
0100
0010
1000
,
0100
0010
0001
0100
0001
0010
0100
1000
0010
1000
0100
1000
0001
0010
0100
1000
,
0001
0010
0100
1000
0001
0010
0100
1000
0001
0010
0100
1000
0200
0300
2000
3000
,
0020
0030
0200
0300
0002
0003
2000
3000
0200
0300
0020
0030
0002
0003
2000
3000
,
0200
0300
0020
0030
0200
0300
2000
3000
0020
0030
0200
0300
0020
0030
2000
3000
,
0020
0030
0200
0300
0002
0003
2000
3000
0200
0300
0020
0030
0002
0003
2000
3000
,
0020
0030
0200
0300
0020
0030
2000
3000
0200
0300
0020
0030
0200
0300
2000
3000
,
0002
0003
0200
0300
0020
0030
2000
3000
0200
0300
2000
3000
0020
0030
0200
0300
,
0002
0003
0020
0030
0200
0300
2000
3000
0020
0030
0200
0300
0002
0003
0020
0030
,
0200
0300
2000
3000
0020
0030
0002
0003
0020
0030
2000
3000
0002
0003
0020
0030
,
0200
0000
0300
0000
2000
0000
3000
0000
0002
0000
0003
0000
0020
0000
0030
0000
0200
0000
0300
0000
2000
0000
3000
0000
0002
0000
0000
0003
2000
0000
0000
3000
,
0100
0000
0000
0000
0000
0000
0000
0000
0000
0000
0000
0000
0000
0000
0000
0000
0100
0000
0000
0000
0000
0000
0000
0000
0000
0000
0000
0000
0000
0000
0000
0000
0100
0000
0000
0000
0000
0000
0000
0000
0000
0000
0000
0000
0000
0000
0000
0000
0010
0000
0000
0000
0000
0000
0000
0000
0000
0000
0000
0000
0000
0000
0000
0000
0010
0000
0000
0000
0000
0000
0000
0000
0000
0000
0000
0000
0000
0000
0000
0000
0010
0000
0000
0000
0000
0000
0000
0000
0000
0000
0000
0000
0000
0000
0000
0000
0200
0000
0000
0000
0000
0000
0000
0000
0000
0000
0000
0000
0000
0000
0000
0000
0000
0000
0300
0000
0000
0000
0000
0000
2000
0000
0000
0000
0000
0000
0000
0000
0000
0000
0000
0000
0000
0000
0000
0000
0000
0000
3000
0000
0000
0000
0000
0000
0010
0000
0000
0000
0000
0000
0000
0000
0000
0000
0000
0000
0000
0000
0000
0000
0010
0000
0000
0000
0000
0000
0000
0000
0000
0000
0000
0000
0000
0000
0000
0000
0010
0000
0000
0000
0000
0000
0000
0000
0000
0000
0000
0000
0000
0000
0000
0000
,
0100
0000
0000
0000
0000
0000
0000
0000
0000
0000
0000
0000
0000
0000
0000
0000
0100
0000
0000
0000
0000
0000
0000
0000
0000
0000
0000
0000
0000
0000
0000
0000
0100
0000
0000
0000
0000
0000
0000
0000
0000
0000
0000
0000
0000
0000
0000
0000
0002
0000
0000
0000
0000
0000
0000
0000
0000
0000
0000
0000
0000
0000
0000
0000
0000
0000
0003
0000
0000
0000
0000
0000
2000
0000
0000
0000
0000
0000
0000
0000
0000
0000
0000
0000
0000
0000
0000
0000
0000
0000
3000
0000
0000
0000
0000
0000
0010
0000
0000
0000
0000
0000
0000
0000
0000
0000
0000
0000
0000
0000
0000
0000
0010
0000
0000
0000
0000
0000
0000
0000
0000
0000
0000
0000
0000
0000
0000
0000
0010
0000
0000
0000
0000
0000
0000
0000
0000
0000
0000
0000
0000
0000
0000
0000
0200
0000
0000
0000
0000
0000
0000
0000
0000
0000
0000
0000
0000
0000
0000
0000
0000
0000
0000
0000
0000
0000
0000
0000
0000
0000
0000
0000
0000
0000
0000
0000
0000
0000
0000
0000
0000
0000
0000
0000
0000
0000
0300
0000
0000
0000
0000
0000
,
0002
0000
0000
0010
0000
0000
0100
0003
2000
0000
0000
0000
0002
0000
3003
0000
,
2000
0000
0000
0000
0000
0000
0000
0000
0000
0000
0000
0000
0000
0000
0000
0000
0000
0000
3000
0000
0000
0000
0000
0000
0002
0000
0000
0000
0000
0000
0000
0000
0000
0000
0000
0000
0000
0000
0000
0000
0000
0000
0003
0000
0000
0000
0000
0000
0010
0000
0000
0000
0000
0000
0000
0000
0000
0000
0000
0000
0000
0000
0000
0000
0010
0000
0000
0000
0000
0000
0000
0000
0000
0000
0000
0000
0000
0000
0000
0000
0010
0000
0000
0000
0000
0000
0000
0000
0000
0000
0000
0000
0000
0000
0000
0000
0100
0000
0000
0000
0000
0000
0000
0000
0000
0000
0000
0000
0000
0000
0000
0000
0100
0000
0000
0000
0000
0000
0000
0000
0000
0000
0000
0000
0000
0000
0000
0000
0100
0000
0000
0000
0000
0000
0000
0000
0000
0000
0000
0000
0000
0000
0000
0000
0020
0000
0000
0000
0000
0000
0000
0000
0000
0000
0000
0000
0000
0000
0000
0000
0000
0000
0030
0000
0000
0000
0000
0000
0002
0000
0000
0000
0000
0000
0000
0000
0000
0000
0000
0000
0000
0000
0000
0000
0000
0000
0003
0000
0000
0000
0000
0000
,
0100
0000
0000
0000
0000
0000
0000
0000
0000
0000
0000
0000
0000
0000
0000
0000
0100
0000
0000
0000
0000
0000
0000
0000
0000
0000
0000
0000
0000
0000
0000
0000
0100
0000
0000
0000
0000
0000
0000
0000
0000
0000
0000
0000
0000
0000
0000
0000
0010
0000
0000
0000
0000
0000
0000
0000
0000
0000
0000
0000
0000
0000
0000
0000
0010
0000
0000
0000
0000
0000
0000
0000
0000
0000
0000
0000
0000
0000
0000
0000
0010
0000
0000
0000
0000
0000
0000
0000
0000
0000
0000
0000
0000
0000
0000
0000
2000
0000
0000
0000
0000
0000
0000
0000
0000
0000
0000
0000
0000
0000
0000
0000
0000
0000
3000
0000
0000
0000
0000
0000
0002
0000
0000
0000
0000
0000
0000
0000
0000
0000
0000
0000
0000
0000
0000
0000
0000
0000
0003
0000
0000
0000
0000
0000
0100
0000
0000
0000
0000
0000
0000
0000
0000
0000
0000
0000
0000
0000
0000
0000
0100
0000
0000
0000
0000
0000
0000
0000
0000
0000
0000
0000
0000
0000
0000
0000
0100
0000
0000
0000
0000
0000
0000
0000
0000
0000
0000
0000
0000
0000
0000
0000
,
0020
0000
0000
0000
0000
0000
0000
0000
0000
0000
0000
0000
0000
0000
0000
0000
0000
0000
0000
0000
0000
0000
0000
0000
0000
0000
0000
0000
0000
0000
0000
0000
0000
0000
0000
0000
0000
0000
0000
0000
0000
0000
0030
0000
0000
0000
0000
0000
2000
0000
0000
0000
0000
0000
0000
0000
0020
0000
0000
0000
0000
0000
0000
0000
0000
0000
0000
0000
0000
0000
0000
0000
3000
0000
0000
0000
0000
0000
0000
0000
0030
0000
0000
0000
0000
0000
0000
0000
0000
0000
0000
0000
0000
0000
0000
0000
2000
0000
0000
0000
0000
0000
0000
0000
0000
0000
0000
0000
0000
0000
0000
0000
0000
0000
0000
0000
0000
0000
0000
0000
0000
0000
0000
0000
0000
0000
0000
0000
3000
0000
0000
0000
0000
0000
0000
0000
0000
0000
0000
0000
0000
0000
0000
0000
0002
0000
0000
0000
0000
0000
0000
0000
0020
0000
0000
0000
0000
0000
0000
0000
0000
0000
0000
0000
0000
0000
0000
0000
0003
0000
0000
0000
0000
0000
0000
0000
0030
0000
0000
0000
0000
0000
0000
0000
0000
0000
0000
0000
0000
0000
0000
0000
,
0002
0000
0000
0000
0000
0000
0000
0000
2000
0000
0000
0000
0000
0000
0000
0000
0000
0000
0000
0000
0000
0000
0000
0000
0000
0000
0000
0000
0000
0000
0003
0000
0000
0000
0000
0000
3000
0000
0000
0000
0000
0000
0000
0000
0000
0000
0000
0000
0001
0000
0000
0000
0000
0000
0000
0000
0000
0000
0000
0000
0010
0000
0000
0000
0000
0000
0000
0000
0000
0000
0000
0000
0100
0000
0000
0000
0000
0000
0000
0000
0000
0000
0000
0000
1000
0000
0000
0000
0000
0000
0000
0000
0000
0000
0000
0000
0010
0000
0000
0000
0000
0000
0000
0000
0000
0000
0000
0000
0100
0000
0000
0000
0000
0000
0000
0000
0000
0000
0000
0000
0001
0000
0000
0000
0000
0000
0000
0000
0000
0000
0000
0000
1000
0000
0000
0000
0000
0000
0000
0000
0000
0000
0000
0000
0100
0000
0000
0000
0000
0000
0000
0000
0000
0000
0000
0000
0010
0000
0000
0000
0000
0000
0000
0000
0000
0000
0000
0000
0100
0000
0000
0000
0000
0000
0000
0000
0000
0000
0000
0000
1000
0000
0000
0000
0000
0000
0000
0000
0000
0000
0000
0000
,
0001
0100
0020
0030
1000
0010
0100
0001
0010
0100
1000
0001
0100
0010
0100
0001
,
1000
0100
0020
0030
0001
0010
0100
1000
0010
0100
0001
1000
0001
0100
0010
1000
,
0100
0010
0100
0010
0001
0100
0010
1000
0100
0010
1000
0010
0001
0010
0100
1000
,
0010
0001
0010
1000
0001
0000
1000
0001
0100
0000
0010
0000
1000
0000
0100
0000
,
1000
0000
1000
0100
0000
0010
0001
0000
0100
0000
0001
0000
1000
0000
0100
0000
,
0100
1000
0001
0100
0001
0010
0100
1000
0100
0010
0001
0010
0001
1000
0010
1000
,
0001
0010
0100
1000
0001
1000
0010
0100
0001
1000
0100
0001
0100
1000
0001
0100
,
0001
0010
0100
1000
0010
0100
0001
0010
1000
0010
0001
1000
0010
0100
0001
0010
,
1000
0010
0001
1000
0001
0100
1000
0100
0001
0010
0100
1000
0001
0100
0010
0001
,
0010
1000
0001
1000
0100
0001
1000
0010
0100
1000
0001
0100
0010
0001
0010
1000
,
0010
0100
0001
0010
0100
1000
0010
0100
0001
1000
0100
0010
0001
0100
0010
1000
,
0001
0100
0010
0100
0001
0010
0100
0010
0001
0100
0010
0100
0001
1000
0001
1000
,
0100
0010
0100
1000
0010
0100
0010
1000
0100
0010
0100
1000
0010
0100
0001
0100
,
0001
0010
0100
1000
0001
0100
0010
1000
0100
0010
1000
0010
0001
1000
0010
0001
,
0010
0100
0001
0010
0100
1000
0001
0100
1000
0001
0010
1000
0100
0010
0001
0100
,
0000
0000
0000
0000
,
2002
0000
0000
0000
,
0000
0000
0000
3003
,
0220
0000
0000
0000
,
0000
0330
0000
0000
;
