#VERSION:0.83;
#TITLE:Street Show Down;
#SUBTITLE:;
#ARTIST:BanYa;
#TITLETRANSLIT:;
#SUBTITLETRANSLIT:;
#ARTISTTRANSLIT:;
#GENRE:;
#ORIGIN:;
#CREDIT:;
#BANNER:Street Show Down-banner.png;
#BACKGROUND:Street Show Down-bg.png;
#PREVIEWVID:;
#JACKET:;
#CDIMAGE:;
#DISCIMAGE:;
#LYRICSPATH:;
#CDTITLE:;
#MUSIC:Street Show Down.ogg;
#OFFSET:-0.722690;
#SAMPLESTART:62.686996;
#SAMPLELENGTH:11.960000;
#SELECTABLE:YES;
#BPMS:0.000=124.000;
#STOPS:;
#DELAYS:;
#WARPS:;
#TIMESIGNATURES:0.000=4=4;
#TICKCOUNTS:0.000=4;
#COMBOS:0.000=1;
#SPEEDS:0.000=1.000=0.000=0;
#SCROLLS:0.000=1.000;
#FAKES:;
#LABELS:0.000=Song Start;
#BGCHANGES:-1.418=Street Show Down.avi=1.000=0=0=0=StretchNoLoop====,
99999=-nosongbg-=1.000=0=0=0 // don't automatically add -songbackground-
;
#KEYSOUNDS:;
#ATTACKS:
;

//---------------pump-halfdouble - Andamiro----------------
#NOTEDATA:;
#CHARTNAME:Andamiro;
#STEPSTYPE:pump-halfdouble;
#DESCRIPTION:Andamiro;
#CHARTSTYLE:;
#DIFFICULTY:Medium;
#METER:7;
#RADARVALUES:0.443174,0.518458,0.237837,0.000000,0.062044,300.000000,277.000000,23.000000,0.000000,0.000000,0.000000,0.000000,0.000000,0.000000,0.443174,0.518458,0.237837,0.000000,0.062044,300.000000,277.000000,23.000000,0.000000,0.000000,0.000000,0.000000,0.000000,0.000000;
#CREDIT:Andamiro;
#NOTES:
000000
000000
000000
000000
,
000000
000000
000000
000000
,
000000
000000
000000
000000
,
000000
000000
000000
000000
,
010000
000010
010010
000000
010000
000010
001000
000100
,
001100
000000
001000
100000
010000
001000
000100
000010
,
000001
000100
001100
000000
010000
001000
000010
000100
,
011000
000000
001000
000010
000100
010000
100000
000100
,
001000
000010
010000
000000
000000
000000
000000
000000
,
100000
001000
010000
000010
001000
000100
000010
000001
,
000100
000000
000000
000000
,
000001
000100
000010
010000
001000
100000
010000
001000
,
000100
000000
000000
000000
,
010000
000010
010000
000010
001000
000100
001000
000100
,
001000
000000
000000
000000
,
010000
000000
000010
000000
100000
000001
001000
000100
,
010000
000000
010000
000000
000000
000000
000100
001000
,
000100
000000
010000
000000
,
000100
001000
000100
000000
000000
000000
010000
000000
,
001100
011000
000110
000000
101000
001000
010100
000000
,
000100
001000
000010
000000
010000
001000
100000
000000
,
001000
100000
001000
010000
000010
001000
000100
010000
,
001000
100000
000100
000000
001000
000010
010000
000000
,
010010
000000
000001
000000
000100
000001
001000
000100
,
010000
001000
100000
000000
000100
001000
000010
000000
,
010000
000010
001000
000100
100000
001000
010000
000100
,
001000
000010
010000
000000
001000
100000
000100
000000
,
100000
100000
000001
000001
100000
000001
100000
000001
001000
000100
001000
000100
001000
000000
000100
000000
,
000100
001000
000010
000000
010000
000010
001000
000000
,
000010
010000
001000
010000
000010
001000
000100
010000
,
000100
001000
000100
000000
001000
000010
010000
000000
,
101000
010000
000011
000100
,
000010
010000
010010
000000
000010
010000
000100
001000
,
001100
000000
001000
100000
010000
001000
000100
000010
,
000001
000100
001100
000000
010000
001000
000010
000100
,
000110
000000
001000
000010
000100
000001
001000
000100
,
100000
010000
001000
000000
010000
001000
000100
001000
,
001100
000000
001000
000010
010000
000100
010000
000001
,
100000
000010
010010
000000
100000
001000
000100
000001
,
000101
000000
001000
000010
010000
000100
100000
001000
,
010000
000010
001010
000000
001000
000010
010000
001000
,
010100
000000
001000
010000
000100
001000
000010
001000
,
000100
001000
101000
000000
001000
000010
000100
001000
,
001100
000000
000010
001000
000100
000010
000001
000100
,
010000
100000
001000
000000
010000
000010
000001
000010
,
010000
000000
000010
000000
,
100000
000001
100000
000000
000100
010000
000100
010000
,
000010
000010
010000
010000
000100
001000
000100
001000
000001
000100
000010
010000
100000
000000
000000
000000
;

//---------------pump-double - Andamiro----------------
#NOTEDATA:;
#CHARTNAME:Andamiro;
#STEPSTYPE:pump-double;
#DESCRIPTION:Andamiro;
#CHARTSTYLE:;
#DIFFICULTY:Medium;
#METER:5;
#RADARVALUES:0.270336,0.370327,0.155111,0.000000,0.000000,183.000000,168.000000,15.000000,0.000000,0.000000,0.000000,0.000000,0.000000,0.000000,0.270336,0.370327,0.155111,0.000000,0.000000,183.000000,168.000000,15.000000,0.000000,0.000000,0.000000,0.000000,0.000000,0.000000;
#CREDIT:Andamiro;
#NOTES:
0000000000
0000000000
0000000000
0000000000
,
0000000000
0000000000
0000000000
0000000000
,
0000000000
0000000000
0000000000
0000000000
,
0000000000
0000000000
0000000000
0000000000
,
0000100000
0010000000
0000110000
0000000000
0000001000
0001000000
0000010000
0000100000
,
0000000100
0000000000
0000000000
0000000000
,
0000010000
0000000100
0000110000
0000000000
0001000000
0000001000
0000100000
0000010000
,
0010000000
0000000000
0000000000
0000000000
,
0000010000
0000100000
0010000000
0000000000
0000000000
0000000000
0000000000
0000000000
,
0100000000
0001000000
0010000000
0000000000
0000000000
0000000000
0000000000
0000000000
,
0000010000
0000100000
0000000100
0000000000
0000000000
0000000000
0000000000
0000000000
,
0000000010
0000000100
0000001000
0000000000
0000000000
0000000000
0000000000
0000000000
,
0000001000
0000010000
0000100000
0000000000
0000000000
0000000000
0000000000
0000000000
,
0000100000
0010000000
0001000000
0000000000
0000000000
0000000000
0000000000
0000000000
,
0010000000
0000010000
0000100000
0000000000
0000000000
0000000000
0000000000
0000000000
,
0000000100
0000000100
0010000000
0010000000
,
0001000000
0000000000
0000000000
0000100000
,
0000010000
0000000000
0000000000
0000000000
,
0000001000
0000000000
0000000000
0000010000
,
0000100000
0000000000
0000010000
0000000000
,
0000001000
0000000100
0000001000
0000000000
0000000010
0000000000
0000000000
0000000000
,
0000010000
0000010000
0000000001
0000000001
,
0000010000
0000000100
0000010000
0000000000
0000000001
0000000000
0000000000
0000000000
,
0000110000
0000000000
0000010000
0000100000
,
0001000000
0010000000
0001000000
0000000000
0100000000
0000000000
0000000000
0000000000
,
0001000000
0001000000
0100000000
0100000000
,
0010000000
0000000000
1000000000
0000000000
,
0000100000
0000100000
1000000000
0010000000
,
1000000000
0010000000
0000100000
0000000000
0010000000
0000100000
0000010000
0000000000
,
0000100000
0000010000
0000000100
0000000000
0000010000
0000000100
0000000001
0000000000
,
0000000001
0000000100
0000000010
0000000000
0000000010
0000000100
0000001000
0000000000
,
0001001000
0001001000
0001000000
0000001000
,
0000010000
0000000100
0000110000
0000000000
0001000000
0000001000
0000100000
0000010000
,
0010000000
0000000000
0000000000
0000000000
,
0000100000
0010000000
0000110000
0000000000
0000001000
0001000000
0000010000
0000100000
,
0000000100
0000000000
0000000000
0000000000
,
0000100000
0010000000
0000110000
0000000000
0000001000
0001000000
0000010000
0000100000
,
0000000100
0000000000
0000000000
0000000000
,
0000010000
0000000100
0000110000
0000000000
0001000000
0000001000
0000100000
0000010000
,
0010000000
0000000000
0000000000
0000000000
,
0000010000
0000000100
0000110000
0000000000
0001000000
0000001000
0000100000
0000010000
,
0010000000
0000000000
0000000000
0000000000
,
0000100000
0010000000
0000110000
0000000000
0000001000
0001000000
0000010000
0000100000
,
0000000100
0000000000
0000000000
0000000000
,
0000010000
0000100000
0000110000
0000000000
0001000000
0000001000
0000100000
0000010000
,
0000001000
0000000100
0000001100
0000000000
0000000000
0000000000
0000000000
0000000000
,
0000100000
0000010000
0000110000
0000000000
0000001000
0001000000
0000010000
0000100000
,
0001000000
0010000000
0011000000
0000000000
0000000000
0000000000
0010000000
0000000000
;

//---------------pump-double - Andamiro----------------
#NOTEDATA:;
#CHARTNAME:Andamiro;
#STEPSTYPE:pump-double;
#DESCRIPTION:Andamiro;
#CHARTSTYLE:;
#DIFFICULTY:Hard;
#METER:10;
#RADARVALUES:0.648511,0.816853,0.403288,0.186133,0.537718,439.000000,400.000000,39.000000,18.000000,0.000000,2.000000,0.000000,0.000000,0.000000,0.648511,0.816853,0.403288,0.186133,0.537718,439.000000,400.000000,39.000000,18.000000,0.000000,2.000000,0.000000,0.000000,0.000000;
#CREDIT:Andamiro;
#NOTES:
0000000000
0000000000
0000000000
0000000000
,
0000000000
0000000000
0000000000
0000000000
,
0002000000
0000000000
0000020000
0003030000
,
0000002000
0000000000
0000200000
0000303000
,
0000000100
0000000000
0000000000
0000000000
0000001001
0000000000
0000000000
0000000000
0000001000
0000000001
0000010000
0000000010
0000000100
0000000000
0000000001
0000000000
,
0000001000
0000000000
0000000000
0000000000
0001010000
0000000000
0000001000
0010000000
0000010000
0001000000
0000100000
0000000000
1000000000
0000000000
0000000000
0000000000
,
0010000000
0000000000
0000000000
0000000000
0100100000
0000000000
0000000000
0000000000
0001000000
1000000000
0000100000
0100000000
0010000000
0000000000
1000000000
0000000000
,
0001000000
0000000000
0000000000
0000000000
0000101000
0000000000
0001000000
0000000100
0000100000
0000001000
0000010000
0000000000
0000000001
0000000000
0000000000
0000000000
,
0000001000
0000000000
0000010000
0000000000
0000001000
0000000000
0000100000
0001000000
0000100000
0010000000
0001000000
0000000000
1000000000
0000000000
0010000000
0000000000
,
0100000000
0000000000
0001000000
0000000000
0010000000
0000000000
0000100000
0000000000
0010000000
0001000000
0100000000
0010000000
1000000000
0000000000
0000000000
0000000000
,
1000000000
0000100000
0100000000
0010000000
0001000000
0010000000
1000100000
0000000000
,
0100000000
0010000000
1000000000
0010000000
0100000000
0010000000
1000000000
0000100000
0010000000
0001000000
0010000000
0000100000
0010000000
0000000000
0000000000
0000000000
,
0001000000
0000000000
0000100000
0000000000
0001000000
0000000000
0000010000
0000001000
0000010000
0000000100
0000001000
0000000000
0000000001
0000000000
0000000100
0000000000
,
0000000010
0000000000
0000001000
0000000000
0000000100
0000000000
0000010000
0000000000
0000000100
0000001000
0000000010
0000000100
0000000001
0000000000
0000000000
0000000000
,
0000000001
0000010000
0000000010
0000000100
0000001000
0000000100
0000010001
0000000000
,
0002000000
0000000000
0003002000
0000003000
0000000200
0000000300
0000000020
0000000030
0000020000
0000000000
0000030002
0000000000
0000002000
0000000000
0000003103
0000000000
,
0000000100
0000000000
0000000010
0000000000
0000001001
0000000000
0000000100
0000000000
0000001000
0000010000
0000100000
0000000000
0000110000
0000000000
0000000000
0000000000
,
0001000000
0010000000
0010100000
0000000000
0000000000
1000000000
1010000000
0000000000
,
0100000000
0000000000
0010000000
0000000000
1010000000
0000000000
0000100000
0000000000
0000000000
0000000000
0100000000
0010000000
0100000000
0000000000
0000000000
0000000000
,
0020000200
0000000000
0000000000
0000000000
0000000000
0000000000
0000000000
0030000300
,
0000010000
0000000100
0000001000
0000000100
0000010000
0000000001
0000000100
0000000010
0000000100
0000000001
0000001000
0000010000
0000100000
0001000000
0010000000
0000100000
,
0010000000
0001000000
0100000000
0010000000
1000000000
0010000000
1000000000
0001000000
0100000000
0010000000
0100000000
0000100000
0010000000
0000100000
1000000000
0010000000
,
0100000000
0001000000
0000100000
0000010000
0000001000
0000000100
0000001000
0000000100
0000010000
0000001000
0001000000
0000100000
0010000000
0000100000
1000000000
0000000000
,
1010000000
0000000000
0000100000
0010000000
0000100000
0000000000
0100000000
0000000000
0000000000
0000000000
0001000000
0000000000
1000000000
0010000000
1000000000
0000000000
,
0001000000
0010000000
0000100000
0010000000
0001000000
0100000000
0010000000
1000000000
0010000000
0100000000
0000100000
0001000000
0000001000
0000010000
0000000100
0000001000
,
0000000100
0000010000
0000000001
0000000100
0000000010
0000000100
0000000010
0000010000
0000000001
0000000100
0000000001
0000001000
0000000100
0000001000
0000000010
0000000100
,
0000000001
0000010000
0000001000
0001000000
0000100000
0010000000
0000100000
0010000000
0001000000
0000100000
0000010000
0000001000
0000000100
0000001000
0000000010
0000000000
,
0000000010
0000000100
0000001000
0000000100
0000000010
0000000100
0000001000
0000000100
0000000010
0000000100
0000000001
0000000000
0000010000
0000000000
0000000001
0000000000
,
0000001000
0000000100
0000000000
0000000100
,
0002000000
0000000000
0000000000
0003000000
0000020000
0000000000
0000000000
0000030000
0020000000
0000000000
0000000000
0030000000
0000200000
0000000000
0000000000
0000300000
,
1000000000
0010000000
0000000000
0010000000
,
0000101000
0001010000
0000101000
0010000100
,
0000001000
0000000000
0000010000
0000000000
0000011000
0000000000
0000000100
0000000010
0000000001
0000000000
0000000010
0000000000
0000000110
0000000000
0000000000
0000000000
,
0000010001
0000000000
0000000100
0000000000
0000001000
0000000000
0000000010
0000000000
0000010000
0000001000
0000000100
0000000010
0000001000
0000000000
0000000000
0000000000
,
0000000100
0000001000
0000000110
0000000000
0000010000
0000000100
0000010100
0000010001
,
0000001000
0000000000
0000010000
0000000000
0000100000
0000000000
0000010000
0010000000
0000100000
0100000000
0010000000
0000000000
1000000000
0000000000
0010000000
0000000000
,
0001000000
0000000000
0000100000
0000000000
0001100000
0000000000
0010000000
0100000000
1000000000
0000000000
0100000000
0000000000
0110000000
0000000000
0000000000
0000000000
,
1000100000
0000000000
0010000000
0000000000
0001000000
0000000000
0100000000
0000000000
0000100000
0001000000
0010000000
0100000000
0001000000
0000000000
0000000000
0000000000
,
0010000000
0001000000
0110000000
0000000000
0000100000
0010000000
0010100000
1000100000
,
0001000000
0000000000
0000100000
0000000000
0000010000
0000000000
0000100000
0000000100
0000010000
0000000010
0000000100
0000000000
0000000001
0000000000
0000000100
0000000000
,
0000001000
0000000000
0000010000
0000000000
0000011000
0000000000
0000000100
0000000010
0000000001
0000000000
0000000010
0000000000
0000000110
0000000000
0000000000
0000000000
,
0000010001
0000000000
0000000100
0000000000
0000001000
0000000000
0000000010
0000000000
0000010000
0000001000
0000000100
0000000010
0000001000
0000000000
0000000000
0000000000
,
0000000100
0000001000
0000000110
0000000000
0000010000
0000000100
0000010100
0000010001
,
0000001000
0000000000
0000010000
0000000000
0000100000
0000000000
0000010000
0010000000
0000100000
0100000000
0010000000
0000000000
1000000000
0000000000
0000100000
0000000000
,
0000000100
0000000000
0000000000
0000000000
0000010010
0000000000
0000000000
0000000000
0000001000
0000000001
0000010000
0000000010
0000000100
0000000000
0000000001
0000000000
,
0000001000
0000000000
0000000000
0000000000
0001010000
0000000000
0000001000
0010000000
0000010000
0001000000
0000100000
0000000000
1000000000
0000000000
0000000000
0000000000
,
0010000000
0000000000
0000000000
0000000000
0100100000
0000000000
0000000000
0000000000
0001000000
1000000000
0000100000
0100000000
0010000000
0000000000
1000000000
0000000000
,
0001000000
0010000000
0000100000
0001000000
0000001000
0000100000
0000010000
0000001000
0000000100
0000010000
0000000100
0000001000
0000000020
0000000000
0000010130
0000000000
;

//---------------dance-single - ----------------
#NOTEDATA:;
#CHARTNAME:;
#STEPSTYPE:dance-single;
#DESCRIPTION:;
#CHARTSTYLE:;
#DIFFICULTY:Challenge;
#METER:11;
#RADARVALUES:0.796236,0.769350,0.816917,0.392948,0.749703,539.000000,460.000000,79.000000,38.000000,0.000000,0.000000,0.000000,0.000000,0.000000,0.796236,0.769350,0.816917,0.392948,0.749703,539.000000,460.000000,79.000000,38.000000,0.000000,0.000000,0.000000,0.000000,0.000000;
#CREDIT:;
#NOTES:
0000
0000
0000
0000
,
2002
0000
0000
0000
0000
0000
0000
0000
0000
0000
0000
0000
0000
3003
0000
0000
,
0110
0001
1010
0000
1001
1100
0110
0011
,
0220
0000
0000
0000
0000
0330
0110
0000
,
1001
0101
0110
0000
0110
0101
1001
0011
,
0110
0000
0000
0000
1001
0000
1000
0100
0010
0001
0010
0100
1000
0000
0000
0000
,
1001
1100
0110
0000
0110
1100
1001
1010
,
0110
0000
0000
0000
1001
0000
0001
0100
0010
1000
0010
0100
0001
0000
0001
1000
,
0200
0310
0200
1300
0002
0013
2000
3010
,
0002
0103
0020
1030
0002
0103
0020
1030
,
0002
0013
0200
1300
0002
0013
2000
3010
,
0100
0000
1000
0010
0001
0010
0100
0000
0001
0010
0100
1000
0001
0000
0011
0000
,
2000
3010
0200
0301
2000
3010
0002
0013
,
2000
3100
0020
0031
2000
3010
0200
0301
,
2000
3010
0200
0301
2000
3010
0002
0013
,
1000
0001
1000
0001
0100
0010
0100
0010
1000
0001
0100
0010
1000
0001
0100
0000
,
0002
0000
0000
0000
1003
0000
0001
1000
0000
1000
0100
0000
0100
1000
0100
0010
,
0001
0000
0000
0000
1010
0000
0010
0100
0000
0100
0001
0000
0001
1000
0100
0000
,
1010
0000
0011
0000
1001
0000
0010
0100
0000
0100
1000
0010
1000
0100
0010
0001
,
0200
0000
0000
0000
0000
0000
0000
0000
0000
0000
0000
0000
0000
0000
0000
0300
,
0001
1000
0100
1000
0001
0100
0010
1000
0001
1000
0010
0100
0001
0100
0001
0010
,
2000
0000
3010
0000
0002
0000
1003
0100
0000
0100
1000
0000
0010
0000
0100
0000
,
1001
0000
0011
1001
0000
1010
1001
0000
,
0011
0000
0000
0000
0100
0000
1001
0000
0000
0000
0100
0000
1000
0001
1000
0000
,
0100
1000
0100
1000
0010
0001
0010
1000
0100
1000
0001
1000
0100
0010
0100
1000
,
0200
0000
0000
0000
0000
0000
0000
0300
1000
0000
0000
0000
1000
0000
0010
0000
0000
0000
0010
0000
0100
0000
0010
0000
0001
0000
0010
0000
0100
0000
0001
0000
,
0010
0100
1000
0001
0010
0100
1000
0010
0100
0001
0100
0010
1000
0000
0100
0000
,
1000
1000
0001
1000
0001
0001
1000
0001
0100
0100
0001
1000
0100
0000
0011
0000
,
0001
0100
0010
1000
0001
0100
0010
1000
0100
1000
0010
0100
0001
0000
0010
0000
,
0100
0000
1000
0000
0010
0100
0000
0100
0001
0000
1000
0000
0100
0010
0001
0000
,
0011
0000
1001
1100
0000
1010
1001
0000
,
0110
1001
0110
1001
,
1001
0000
1100
0000
0110
0000
0100
1000
0010
0001
0010
1000
0001
1000
0100
0010
,
0001
0000
0000
0000
0110
0000
0010
0001
0010
1000
0010
0100
1000
0000
0000
0000
,
1001
0000
0101
0000
0110
0000
0100
0001
0010
1000
0010
0001
1000
0001
0100
0010
,
1000
0000
0000
0000
0110
0000
0010
1000
0010
0001
0010
0100
0001
0000
0000
0000
,
1001
0000
1100
0000
0110
0000
0001
0010
1000
0010
0100
1000
0001
0100
0001
0100
,
1000
0000
0000
0000
0110
0000
1000
0100
0001
1000
0010
0100
0002
0000
0003
0000
,
1001
0000
0101
0000
0110
0000
1000
0010
0001
0010
0100
0001
1000
0100
1000
0100
,
0010
0001
0100
0001
1000
0001
0100
0001
0010
0100
1000
0100
1000
0000
0000
0000
,
1001
0000
1100
0000
0110
0000
0001
1000
0010
0001
0010
1000
0001
1000
0100
0010
,
0001
0000
0000
0000
1001
0000
0001
0100
0010
1000
0001
0100
0020
0000
0030
0000
,
1001
0000
0101
0000
0110
0000
1000
0001
0010
1000
0010
0001
1000
0001
0100
0010
,
1000
0000
0000
0000
1001
0000
1000
0100
0010
0001
1000
0100
0020
0000
0030
0000
,
0101
0000
1001
0000
1100
0000
0100
0001
0100
1000
0001
0100
0010
1000
0100
0010
,
1000
0000
0000
0000
0110
0000
1000
0010
0001
0100
0010
1000
0200
0000
0300
0000
,
1100
0000
1001
0000
0101
0000
0100
1000
0100
0001
1000
0100
0001
0100
1000
0010
,
0001
0010
1000
0010
0001
0010
0100
0001
0010
0100
1000
0001
0200
0000
0000
0000
,
0300
0000
0000
0000
;

//---------------dance-single - ----------------
#NOTEDATA:;
#CHARTNAME:;
#STEPSTYPE:dance-single;
#DESCRIPTION:;
#CHARTSTYLE:;
#DIFFICULTY:Medium;
#METER:5;
#RADARVALUES:0.419538,0.445556,0.186133,0.000000,0.000000,284.000000,266.000000,18.000000,0.000000,0.000000,0.000000,0.000000,0.000000,0.000000,0.419538,0.445556,0.186133,0.000000,0.000000,284.000000,266.000000,18.000000,0.000000,0.000000,0.000000,0.000000,0.000000,0.000000;
#CREDIT:;
#NOTES:
0000
0000
0000
0000
,
0000
0000
0000
0000
,
0000
0000
0000
0000
,
0000
0000
0000
0000
,
1000
0001
1001
0000
0001
0100
1000
0100
,
0101
0000
0100
1000
0010
0100
0001
0010
,
0001
1000
1001
0000
1000
0100
0001
0100
,
1100
0000
0100
0001
0010
0100
1000
0100
,
1000
0001
0100
0000
0000
0000
0000
0000
,
1000
0100
1000
0100
0010
0100
0010
0100
,
1000
0000
0000
0000
,
0010
0100
0010
0100
0001
0100
0001
0100
,
0010
0000
0000
0000
,
0010
0001
0010
0001
1000
0100
1000
0100
,
0010
0000
0000
0000
,
0010
0000
0010
0000
1000
0001
1000
0001
,
0010
0000
0010
0000
0000
0000
0001
0010
,
0001
0000
1000
0000
,
0001
0010
0001
0000
0000
0000
1000
0000
,
0010
1000
0001
0000
0100
0001
1000
0000
,
0010
1000
0100
0000
0010
0001
0100
0000
,
0001
1000
0100
0010
0100
1000
0001
0010
,
0100
1000
0001
0000
0100
0001
1000
0000
,
0011
0000
0100
0000
1000
0001
1000
0001
,
0010
0001
0100
0000
0010
1000
0100
0000
,
1000
0001
0100
0010
0100
0001
1000
0010
,
0100
0001
0100
0000
0100
1000
0001
0000
,
1000
0001
1000
1000
0100
1000
0001
1000
,
0010
0100
0001
0000
0010
0100
1000
0000
,
0001
1000
0100
0010
0100
1000
0001
0010
,
0100
1000
0001
0000
0100
0001
1000
0000
,
0101
0010
1100
0010
,
1000
0001
1001
0000
0001
0100
1000
0100
,
0101
0000
0100
1000
0010
0100
0001
0100
,
0001
1000
1001
0000
1000
0100
0001
0100
,
1100
0000
0100
0001
0010
0100
1000
0100
,
0001
0100
1000
0000
1000
0100
0001
0100
,
0101
0000
0100
0001
1000
0100
0010
0001
,
1000
0001
1001
0000
0100
0010
1000
0001
,
0101
0000
0100
0001
1000
0010
0100
0001
,
1000
0100
0101
0000
0100
0001
0010
0100
,
1100
0000
0100
0010
0001
1000
0001
0100
,
0001
0100
1100
0000
0100
1000
0010
0100
,
1001
0000
0001
0100
0010
0100
0001
1000
,
0001
0100
1000
0000
1000
0100
0001
0100
,
1000
0000
0001
0000
,
1000
0001
1000
0000
0001
0010
0001
0010
,
0100
1000
0001
0001
0100
0001
1000
0010
;

//---------------dance-single - ----------------
#NOTEDATA:;
#CHARTNAME:;
#STEPSTYPE:dance-single;
#DESCRIPTION:;
#CHARTSTYLE:;
#DIFFICULTY:Hard;
#METER:8;
#RADARVALUES:0.514082,0.592524,0.268859,0.000000,0.165452,348.000000,322.000000,26.000000,0.000000,0.000000,0.000000,0.000000,0.000000,0.000000,0.514082,0.592524,0.268859,0.000000,0.165452,348.000000,322.000000,26.000000,0.000000,0.000000,0.000000,0.000000,0.000000,0.000000;
#CREDIT:;
#NOTES:
0000
0000
0000
0000
,
0000
0000
0000
0000
,
0000
0000
0000
0000
,
0000
0000
0000
0000
,
1000
0001
1001
0000
0001
0100
1000
0100
,
0101
0000
0000
0000
0100
0000
1000
0000
0010
0100
0001
0000
1000
0000
0100
0000
,
0001
1000
1001
0000
1000
0100
0001
0100
,
1100
0000
0100
0001
0010
0100
1000
0100
,
1000
0001
0100
0001
0100
0010
1000
0001
,
1000
0100
1000
0100
0010
0100
0010
0100
,
1000
0001
0100
0001
1000
0100
0010
0010
,
0001
0010
0001
0010
0100
0010
0100
0001
,
0010
0100
1000
0010
1000
0001
0100
0010
,
1000
0010
1000
0001
0100
0001
1000
0100
,
0010
0000
0000
0000
,
0100
0001
0100
0001
1000
0100
1000
0100
1000
0000
0001
0000
1000
0000
0001
0000
,
0010
0000
0010
0000
0000
0000
0001
0010
,
0001
0000
1000
0000
,
0001
0010
0001
0000
0000
0000
1000
0000
,
0011
1010
0101
0000
1100
0010
1001
0000
,
0010
0000
1000
0000
0100
0000
0000
0000
1000
0010
1000
0000
0001
0000
0000
0000
,
0001
1000
0100
0010
0100
1000
0001
0010
,
0100
0000
1000
0000
0001
0000
0000
0000
0001
0100
0001
0000
1000
0000
0000
0000
,
0011
0000
0000
0000
0100
0000
0000
0000
0001
0000
1000
0000
0001
1000
0001
0000
,
0010
0000
0001
0000
0100
0000
0000
0000
0001
0010
0001
0000
1000
0000
0000
0000
,
1000
0001
0100
0010
0100
0001
1000
0010
,
0100
0000
0001
0000
1000
0000
0000
0000
0100
1000
0100
0000
0010
0000
0000
0000
,
1000
1000
0001
0001
1000
1001
0000
0001
0100
0001
1000
0100
0010
0000
0010
0000
,
0010
0000
0100
0000
0001
0000
0000
0000
1000
0010
1000
0000
0001
0000
0000
0000
,
0001
1000
0100
0010
0100
1000
0001
0010
,
0100
0000
1000
0000
0001
0000
0000
0000
0100
0001
0100
0000
0010
0000
0000
0000
,
0101
0010
1100
0010
,
1000
0001
1001
0000
0001
0100
1000
0100
,
0101
0000
0100
1000
0010
0100
0001
0100
,
0001
1000
1001
0000
1000
0100
0001
0100
,
1100
0000
0100
0001
0010
0100
1000
0100
,
0001
1000
1001
0000
1000
0100
0001
0100
,
1100
0000
0100
0001
0010
0100
1000
0100
,
0001
1000
1001
0000
0001
0100
1000
0100
,
1000
0001
1000
0001
0100
0001
1000
0100
0010
0100
0010
0100
1000
0000
0001
0000
,
1000
0001
1001
0000
0001
0100
1000
0100
,
0101
0000
0100
1000
0010
0100
0001
0100
,
0001
1000
1001
0000
1000
0100
0001
0100
,
1100
0000
0000
0000
0100
0000
0001
0000
1000
0100
0010
0000
0001
0000
0100
0000
,
0011
0100
1001
0000
1000
0010
0001
0010
,
1000
0000
0001
0000
0100
0000
0000
0000
0001
0010
0001
0000
1000
0000
0000
0000
,
1000
0001
1000
0000
0001
0010
0001
0010
,
0100
0100
1000
1000
0001
1000
0001
1000
0100
1000
0001
0100
0010
0000
0000
0000
;

//---------------dance-single - ----------------
#NOTEDATA:;
#CHARTNAME:;
#STEPSTYPE:dance-single;
#DESCRIPTION:;
#CHARTSTYLE:;
#DIFFICULTY:Easy;
#METER:3;
#RADARVALUES:0.255564,0.296262,0.186133,0.000000,0.000000,173.000000,155.000000,18.000000,0.000000,0.000000,0.000000,0.000000,0.000000,0.000000,0.255564,0.296262,0.186133,0.000000,0.000000,173.000000,155.000000,18.000000,0.000000,0.000000,0.000000,0.000000,0.000000,0.000000;
#CREDIT:;
#NOTES:
0000
0000
0000
0000
,
0000
0000
0000
0000
,
0000
0000
0000
0000
,
0000
0000
0000
0000
,
0010
1001
0001
1000
,
0101
0100
1000
0001
,
0010
1001
1000
0001
,
1100
0100
0001
1000
,
0001
1000
0000
0000
,
1000
0100
0010
0100
,
1000
0000
0000
0000
,
0010
0100
0001
0100
,
0010
0000
0000
0000
,
0010
0001
1000
0100
,
0010
0000
0000
0000
,
0010
0010
1000
0001
,
0010
0010
0000
0001
,
0001
0000
1000
0000
,
0001
0001
1000
0000
,
0100
0000
0100
0000
,
0001
0100
1000
0100
,
0001
1000
0100
0010
,
0001
0100
0010
1000
,
1001
0100
1000
0001
,
1000
0100
0001
0100
,
1000
0001
0100
0010
,
1000
0100
0010
0001
,
1000
1000
0001
0001
,
0001
0100
1000
0100
,
0001
1000
0100
0010
,
0001
0100
0010
1000
,
1001
0000
1001
0000
,
0100
0001
1000
0000
0001
0000
1000
0000
,
1001
0010
1000
0001
,
0100
1000
0001
0000
1000
0000
0001
0000
,
1001
0010
0001
1000
,
1000
1000
1000
0000
0001
0000
1000
0000
,
0101
0100
1000
0001
,
0001
0001
0001
0000
1000
0000
0001
0000
,
1100
0100
0001
1000
,
0010
1001
0001
1000
,
0101
0000
1100
0000
,
0010
1001
1000
0001
,
1100
0000
0101
0000
,
1001
0010
1000
0001
,
0010
0000
0100
0000
,
1000
0001
0100
0010
,
1000
1000
0001
0010
;
