#VERSION:0.81;
#TITLE:Space Fantasy;
#SUBTITLE:;
#ARTIST:이박사;
#TITLETRANSLIT:;
#SUBTITLETRANSLIT:;
#ARTISTTRANSLIT:E-Paksa;
#GENRE:;
#ORIGIN:;
#CREDIT:;
#BANNER:Space Fantasy-bn.jpg;
#BACKGROUND:Space Fantasy.jpg;
#PREVIEWVID:;
#JACKET:;
#CDIMAGE:;
#DISCIMAGE:;
#LYRICSPATH:;
#CDTITLE:;
#MUSIC:Space Fantasy.mp3;
#OFFSET:0.000000;
#SAMPLESTART:14.489170;
#SAMPLELENGTH:12.000000;
#SELECTABLE:YES;
#BPMS:0.000=186.000;
#STOPS:;
#DELAYS:;
#WARPS:;
#TIMESIGNATURES:0.000=4=4;
#TICKCOUNTS:0.000=4;
#COMBOS:0.000=1;
#SPEEDS:0.000=1.000=0.000=0;
#SCROLLS:0.000=1.000;
#FAKES:;
#LABELS:0.000=Song Start;
#BGCHANGES:0.000=Space Fantasy.avi=1.000=0=0=0=StretchNoLoop====,
99999=-nosongbg-=1.000=0=0=0 // don't automatically add -songbackground-
;
#KEYSOUNDS:;
#ATTACKS:
;

//---------------dance-single - ----------------
#NOTEDATA:;
#CHARTNAME:;
#STEPSTYPE:dance-single;
#DESCRIPTION:;
#CHARTSTYLE:;
#DIFFICULTY:Hard;
#METER:7;
#RADARVALUES:0.517541,0.683067,0.485737,0.000000,0.121434,310.000000,48.000000,0.000000,0.000000,0.000000,0.000000,0.000000,0.000000,0.517541,0.683067,0.485737,0.000000,0.121434,310.000000,48.000000,0.000000,0.000000,0.000000,0.000000,0.000000,0.000000;
#CREDIT:;
#NOTES:
// measure 0
0000
0000
0000
0000
,  // measure 1
0000
0000
0000
0000
,  // measure 2
0000
0000
0000
0000
,  // measure 3
0000
0000
0000
0000
,  // measure 4
0000
0000
0000
0000
,  // measure 5
0000
0000
0000
0000
,  // measure 6
0000
0000
0000
0000
,  // measure 7
0000
0000
0000
0000
,  // measure 8
0000
0000
0000
0000
,  // measure 9
0000
0000
0000
0000
,  // measure 10
0000
0000
0000
0000
,  // measure 11
0000
0000
1000
0000
0001
0000
1000
0010
,  // measure 12
0001
0000
0011
0000
1010
0000
1000
0100
,  // measure 13
0001
0000
0010
0001
0100
0001
0100
0000
,  // measure 14
0010
1001
1001
1001
,  // measure 15
1001
0000
0010
1000
0001
0010
1000
0000
,  // measure 16
0010
0000
0010
0001
1000
0001
0100
0000
,  // measure 17
1001
0000
1000
0010
0001
0010
1000
0001
,  // measure 18
1000
0100
0010
0000
0000
0001
1000
0100
,  // measure 19
0001
0100
1000
0000
0001
0000
1000
0000
,  // measure 20
0001
1001
0100
0011
,  // measure 21
0100
1000
0001
1000
,  // measure 22
0001
1100
0000
0000
,  // measure 23
0000
0011
0000
1100
,  // measure 24
0000
0000
0001
0000
1000
0000
0001
0100
,  // measure 25
0010
1001
0000
1001
,  // measure 26
0000
0000
1000
0100
0000
0010
0000
0000
,  // measure 27
0000
0000
0010
0001
1000
0001
0100
0010
,  // measure 28
0001
0010
1000
0100
0001
0100
1000
0001
,  // measure 29
1000
0010
0001
0010
1000
1000
0001
0100
,  // measure 30
0001
1001
0000
0000
,  // measure 31
0000
0000
0100
1000
0001
0000
0100
0000
,  // measure 32
0010
0000
0100
1000
0001
0010
0100
1000
,  // measure 33
0001
0100
1000
0100
0001
0100
1000
0000
,  // measure 34
0100
1001
0000
0000
,  // measure 35
0000
0000
1000
0001
1000
0001
0010
0100
,  // measure 36
1000
0000
0001
1000
0001
1000
0010
0100
,  // measure 37
0001
0000
0100
0001
1000
0100
0010
0001
,  // measure 38
1000
0001
0000
0000
0100
0000
0000
0000
,  // measure 39
0100
0011
1100
1001
,  // measure 40
0110
0000
1000
0100
0001
0100
1000
0000
,  // measure 41
1001
0010
1000
0001
,  // measure 42
0100
1000
0000
0000
,  // measure 43
0000
0000
1000
0000
0001
0000
1000
0001
,  // measure 44
0000
0000
0010
0000
0100
0000
0010
0100
,  // measure 45
0000
0000
0010
0001
1000
0100
0010
0001
,  // measure 46
0000
0100
0000
0000
0000
0000
1001
0000
,  // measure 47
1001
0100
0100
0000
,  // measure 48
0000
0100
0100
0100
,  // measure 49
0100
1000
0001
1000
,  // measure 50
0001
1100
0000
0011
,  // measure 51
0000
0000
1001
0100
0011
1000
0110
0001
,  // measure 52
1100
0010
1001
0000
0000
0000
0000
0000
,  // measure 53
0000
0000
0000
0000
1000
0001
1000
0001
0010
0100
0010
0100
1000
0001
0010
0100
,  // measure 54
1000
1001
0000
1001
,  // measure 55
0000
0000
0000
0000
0010
0001
0010
0001
0100
0001
0100
0001
0010
0001
0100
0001
,  // measure 56
0010
0011
1000
0110
,  // measure 57
0000
0000
0000
0000
0001
1000
0001
1000
0010
0100
0010
0100
0001
0010
0100
1000
,  // measure 58
0001
0110
0000
0110
,  // measure 59
0000
0000
0000
0000
0010
1000
0100
1000
0010
1000
0100
1000
0001
0010
0100
1000
,  // measure 60
0001
0000
1001
0000
1001
1001
0000
0000
,  // measure 61
0000
0000
0010
0001
0100
0010
1000
0100
,  // measure 62
0010
1001
0000
1001
,  // measure 63
0000
0000
0010
0001
0100
0001
0010
0100
,  // measure 64
1000
0110
0000
0110
,  // measure 65
0000
0000
0100
1000
0001
0100
1000
0001
,  // measure 66
0100
1001
0000
0110
,  // measure 67
0000
0000
0010
1000
0001
0010
1000
0001
,  // measure 68
0010
1001
0000
0000
,  // measure 69
0100
0000
1000
0001
0000
0000
1000
0001
,  // measure 70
1000
0001
0010
0000
1000
0001
0000
0000
,  // measure 71
0000
0000
0001
1000
0000
0000
1001
0000
,  // measure 72
0000
0000
0001
0100
1000
0100
0001
0000
,  // measure 73
1000
0001
0000
0000
0000
0000
0000
0000
,  // measure 74
0000
0000
0000
0000
,  // measure 75
1001
0000
0000
0000
;

//---------------dance-single - ----------------
#NOTEDATA:;
#CHARTNAME:;
#STEPSTYPE:dance-single;
#DESCRIPTION:;
#CHARTSTYLE:;
#DIFFICULTY:Medium;
#METER:5;
#RADARVALUES:0.361411,0.455378,0.273227,0.000000,0.000000,223.000000,27.000000,0.000000,0.000000,0.000000,0.000000,0.000000,0.000000,0.361411,0.455378,0.273227,0.000000,0.000000,223.000000,27.000000,0.000000,0.000000,0.000000,0.000000,0.000000,0.000000;
#CREDIT:;
#NOTES:
// measure 0
0000
0000
0000
0000
,  // measure 1
0000
0000
0000
0000
,  // measure 2
0000
0000
0000
0000
,  // measure 3
0000
0000
0000
0000
,  // measure 4
0000
0000
0000
0000
,  // measure 5
0000
0000
0000
0000
,  // measure 6
0000
0000
0000
0000
,  // measure 7
0000
0000
0000
0000
,  // measure 8
0000
0000
0000
0000
,  // measure 9
0000
0000
0000
0000
,  // measure 10
0000
0000
0000
0000
,  // measure 11
0000
1000
0001
1000
,  // measure 12
0001
0010
0010
1000
,  // measure 13
0001
0000
0010
0001
0100
0000
0001
0000
,  // measure 14
0000
1000
0001
1000
,  // measure 15
0001
0000
0010
1000
0100
0000
1000
0000
,  // measure 16
0000
0000
0010
0001
0100
0000
0001
0000
,  // measure 17
1001
1000
0001
0100
,  // measure 18
0010
1000
0100
0100
,  // measure 19
0000
0010
0000
0000
,  // measure 20
1100
0010
0000
0000
,  // measure 21
0101
0010
0100
0010
,  // measure 22
0100
1001
0000
0000
,  // measure 23
0000
0011
0000
1100
,  // measure 24
0000
0000
0001
0000
1000
0000
0001
1000
,  // measure 25
0010
1001
0000
1001
,  // measure 26
0000
0000
1000
0100
0000
0010
0000
0000
,  // measure 27
0000
0000
0010
0100
1000
0001
0100
0000
,  // measure 28
0010
0000
0010
0100
0001
1000
0100
0000
,  // measure 29
0010
0000
0001
1000
0010
1000
0100
0000
,  // measure 30
1000
1001
0000
0000
,  // measure 31
0000
0000
0100
1000
0001
0000
1000
0000
,  // measure 32
0001
0000
0010
1000
0001
0000
0010
0000
,  // measure 33
0100
0000
1000
0100
0001
0100
1000
0000
,  // measure 34
0100
1001
0000
0000
,  // measure 35
0000
0000
0100
0000
0000
0000
0001
0100
,  // measure 36
1000
0000
0100
0000
0000
0000
1000
0100
,  // measure 37
0001
0000
0100
0000
1000
0000
0010
1000
,  // measure 38
0100
0000
0100
0000
,  // measure 39
0100
0010
0100
1000
,  // measure 40
0001
0000
1000
0001
0100
0000
1000
0000
,  // measure 41
0000
0010
1000
0001
,  // measure 42
0100
1000
0000
0000
,  // measure 43
0000
0000
1000
0000
0001
0000
1000
0001
,  // measure 44
0000
0000
0010
0000
0100
0000
0010
0100
,  // measure 45
0000
0000
1000
0010
0100
0000
0001
0000
,  // measure 46
0000
0000
0000
1001
,  // measure 47
1001
0100
0100
0000
,  // measure 48
0000
0100
0100
0100
,  // measure 49
0100
1000
0001
1000
,  // measure 50
0001
1100
0000
0011
,  // measure 51
0000
1001
0000
0000
,  // measure 52
0000
0000
0000
0000
,  // measure 53
0000
0000
0010
0001
0100
0000
0001
0000
,  // measure 54
0000
1100
0000
1100
,  // measure 55
0000
0000
0010
1000
0100
0000
1000
0000
,  // measure 56
0000
0011
0000
0011
,  // measure 57
0000
0000
0010
1000
0001
0000
0100
0000
,  // measure 58
0000
1001
0000
0110
,  // measure 59
0000
0000
0100
1000
0001
0000
0010
0000
,  // measure 60
0000
0110
0000
0000
,  // measure 61
0000
1000
0001
0100
,  // measure 62
0010
1000
0001
0100
,  // measure 63
0010
1000
0010
0100
,  // measure 64
0001
1001
0000
1001
,  // measure 65
0000
0001
1000
0100
,  // measure 66
0010
0001
1000
0100
,  // measure 67
1000
0010
0100
0001
,  // measure 68
1000
1001
0000
0000
,  // measure 69
0100
0000
1000
0001
0000
0000
1000
0001
,  // measure 70
1000
0001
0100
0000
0100
0000
0100
0000
,  // measure 71
0100
0000
0001
1000
0000
0000
1001
0000
,  // measure 72
0000
0000
0001
0100
0001
0100
1000
0000
,  // measure 73
0100
0001
1000
0000
0001
0000
0100
0000
,  // measure 74
0001
1000
0100
0010
,  // measure 75
0110
0000
0000
0000
;

//---------------dance-single - ----------------
#NOTEDATA:;
#CHARTNAME:;
#STEPSTYPE:dance-single;
#DESCRIPTION:;
#CHARTSTYLE:;
#DIFFICULTY:Easy;
#METER:3;
#RADARVALUES:0.268890,0.303585,0.070837,0.000000,0.000000,179.000000,7.000000,0.000000,0.000000,0.000000,0.000000,0.000000,0.000000,0.268890,0.303585,0.070837,0.000000,0.000000,179.000000,7.000000,0.000000,0.000000,0.000000,0.000000,0.000000,0.000000;
#CREDIT:;
#NOTES:
// measure 0
0000
0000
0000
0000
,  // measure 1
0000
0000
0000
0000
,  // measure 2
0000
0000
0000
0000
,  // measure 3
0000
0000
0000
0000
,  // measure 4
0000
0000
0000
0000
,  // measure 5
0000
0000
0000
0000
,  // measure 6
0000
0000
0000
0000
,  // measure 7
0000
0000
0000
0000
,  // measure 8
0000
0000
0000
0000
,  // measure 9
0000
0000
0000
0000
,  // measure 10
0000
0000
0000
0000
,  // measure 11
0000
1000
0001
1000
,  // measure 12
0000
0001
1000
0001
,  // measure 13
0000
0100
0100
0001
,  // measure 14
1000
0001
0000
0000
,  // measure 15
0000
0010
0100
0010
,  // measure 16
0000
0100
0010
0100
,  // measure 17
0000
1000
1000
1000
,  // measure 18
0100
0010
0000
0000
,  // measure 19
0000
1000
0000
1000
,  // measure 20
0000
0010
0100
0000
,  // measure 21
0000
0001
0001
0001
,  // measure 22
0100
0010
0000
0000
,  // measure 23
0000
1000
0000
1000
,  // measure 24
0000
0010
0100
0000
,  // measure 25
0000
0001
0001
0001
,  // measure 26
0100
0010
1000
0001
,  // measure 27
0000
1000
1000
0001
,  // measure 28
1000
0001
0001
1000
,  // measure 29
0001
0100
0100
0001
,  // measure 30
1000
0100
0000
0000
,  // measure 31
0000
0001
0001
1000
,  // measure 32
0000
1000
1000
0001
,  // measure 33
0000
0010
0010
0001
,  // measure 34
1000
0010
0000
0000
,  // measure 35
0000
0001
1000
0001
,  // measure 36
0000
1000
0001
1000
,  // measure 37
0000
0100
0100
1000
,  // measure 38
0001
0100
0000
0000
,  // measure 39
0000
0010
0100
0010
,  // measure 40
0000
0100
0010
0100
,  // measure 41
0000
0001
0001
0100
,  // measure 42
0010
1000
0000
0000
,  // measure 43
0000
0010
0100
0010
,  // measure 44
0100
1000
0001
1000
,  // measure 45
0001
0010
0100
0010
,  // measure 46
0100
1000
0001
0100
,  // measure 47
0100
1000
1000
0000
,  // measure 48
0000
0001
0001
0001
,  // measure 49
0001
1000
0000
1000
,  // measure 50
0000
0001
0001
0100
,  // measure 51
0100
0000
0000
0000
,  // measure 52
0000
0000
0000
0000
,  // measure 53
0000
0001
0000
0001
,  // measure 54
0000
1010
0000
1010
,  // measure 55
0000
0001
0000
0001
,  // measure 56
0000
0110
0000
0110
,  // measure 57
0000
0001
0000
0001
,  // measure 58
0000
1010
0000
1010
,  // measure 59
0000
0001
0000
0001
,  // measure 60
0000
0110
0000
0000
,  // measure 61
0000
1000
0001
0100
,  // measure 62
0010
1000
0001
1000
,  // measure 63
0100
0010
0001
1000
,  // measure 64
0001
1000
0000
0001
,  // measure 65
0000
1000
0001
0100
,  // measure 66
0010
1000
0001
1000
,  // measure 67
0100
0010
0001
1000
,  // measure 68
0001
1000
0000
0001
,  // measure 69
0000
1000
0000
0001
,  // measure 70
0000
0100
0100
0001
,  // measure 71
1000
0001
0000
1000
,  // measure 72
0000
0001
0001
0100
,  // measure 73
0100
0010
1000
0100
,  // measure 74
1000
0001
0100
0010
,  // measure 75
1000
0000
0000
0000
;
