#VERSION:0.82;
#TITLE:She Likes Pizza;
#SUBTITLE:;
#ARTIST:BanYa;
#TITLETRANSLIT:;
#SUBTITLETRANSLIT:;
#ARTISTTRANSLIT:;
#GENRE:;
#ORIGIN:;
#CREDIT:;
#BANNER:She Likes Pizza-banner.png;
#BACKGROUND:She Likes Pizza.png;
#PREVIEWVID:;
#JACKET:;
#CDIMAGE:;
#DISCIMAGE:;
#LYRICSPATH:;
#CDTITLE:;
#MUSIC:She Likes Pizza.mp3;
#OFFSET:0.448653;
#SAMPLESTART:20.215582;
#SAMPLELENGTH:11.860000;
#SELECTABLE:YES;
#BPMS:0.000=229.600;
#STOPS:;
#DELAYS:;
#WARPS:;
#TIMESIGNATURES:0.000=4=4;
#TICKCOUNTS:0.000=4;
#COMBOS:0.000=1;
#SPEEDS:0.000=1.000=0.000=0;
#SCROLLS:0.000=1.000;
#FAKES:;
#LABELS:0.000=Song Start;
#BGCHANGES:2.750=She Likes Pizza.avi=1.000=0=0=0=StretchNoLoop====,
99999=-nosongbg-=1.000=0=0=0 // don't automatically add -songbackground-
;
#KEYSOUNDS:;
#ATTACKS:
;

//---------------dance-single - ----------------
#NOTEDATA:;
#CHARTNAME:;
#STEPSTYPE:dance-single;
#DESCRIPTION:;
#CHARTSTYLE:;
#DIFFICULTY:Medium;
#METER:6;
#RADARVALUES:0.514695,0.649901,0.753830,0.000000,0.000000,257.000000,68.000000,0.000000,0.000000,0.000000,0.000000,0.000000,0.000000,0.514695,0.649901,0.753830,0.000000,0.000000,257.000000,68.000000,0.000000,0.000000,0.000000,0.000000,0.000000,0.000000;
#CREDIT:;
#NOTES:
0000
0000
0000
0000
,
0000
0000
0000
0000
,
0000
0000
0000
0000
,
1000
0010
0000
0001
0100
0000
1001
0000
,
0000
0000
0000
0000
,
0000
0000
0000
0000
,
0000
0000
0000
0000
,
0001
0010
0000
1000
0100
0000
1001
0000
,
0000
0000
0000
0000
,
0000
0000
0000
0000
,
0000
0000
0000
0000
,
1000
0010
0000
0001
0010
0000
1000
0000
,
1000
0010
0100
0001
,
0001
0010
0100
1001
,
0001
0100
0000
1010
,
0101
1010
0101
0001
,
0001
0010
0100
1000
,
1000
0010
0100
1001
,
1000
0100
0000
0011
,
1100
0011
1100
0000
,
1000
0010
0100
0000
0001
0000
1010
0000
,
1001
0000
0000
0000
0001
0010
0000
0000
,
1001
0000
0000
1010
,
0101
1010
0101
0000
,
0001
0010
0100
0000
1000
0000
0011
0000
,
1001
0000
0000
0000
1000
0010
0000
0000
,
1001
0000
0000
0011
,
1100
0011
1100
0000
,
0010
0100
0010
0000
0001
0000
0110
0000
,
1001
0000
0000
0000
0010
0001
0000
0000
,
1001
0000
0000
1010
,
0100
1001
0100
0000
,
0010
0100
0010
0000
1000
0000
0110
0000
,
1001
0000
0000
0000
0010
1000
0000
0000
,
1001
0000
0000
0011
,
0100
1001
0100
1000
,
0100
0010
0001
1001
,
0100
1000
0001
1000
,
0100
0001
0100
1001
,
0100
1000
0100
0010
,
0001
1000
0100
1001
,
0100
0001
1000
0001
,
0100
1000
0100
1001
,
0100
0001
1000
0100
,
0010
0000
0100
0001
1000
0000
0100
0000
,
1000
0000
0010
1000
0001
0000
0100
0000
,
0010
0000
0100
0010
0001
0000
0010
0000
,
1000
0000
0100
0010
1000
0000
1010
0000
,
0010
0001
0010
1001
,
0100
0000
1000
0000
0001
0000
0100
0001
,
0000
0000
0100
1000
0000
0000
1000
0001
,
0100
0001
1000
0100
1000
0000
1001
0000
,
0000
0000
0000
0100
,
0000
1000
0000
0100
,
0000
0001
0000
1001
,
0000
0000
0000
1000
,
0000
0010
0000
0001
,
0000
0100
0000
0001
,
0000
1000
0000
1001
,
0000
0000
0000
1000
,
0000
0100
0000
0001
,
0000
0010
0000
0001
,
0000
1000
0000
1001
,
0000
0000
0000
1000
,
0000
0100
0000
0010
,
0000
0001
0000
0100
,
0100
0100
0100
1010
,
0100
1001
0000
0010
,
0010
0000
1000
0001
1000
0000
0100
0000
,
0100
0000
1000
0001
1000
0000
1001
0000
,
0010
1100
0000
0110
,
0001
1001
0000
0010
,
0010
0000
0001
1000
0001
0000
0100
0000
,
0100
0000
0001
1000
0001
0000
1001
0000
,
0010
0101
0000
0110
,
1000
1001
0000
1001
,
0100
0000
1000
0001
1000
0000
1001
0000
,
0010
0000
0001
1000
0001
0000
1001
0000
,
0000
0011
0000
1100
,
0000
1001
0000
0000
,
0001
1000
0100
0000
0010
0000
0101
0000
,
1001
0000
0000
0000
1000
0100
0000
0000
,
1001
0000
0000
0011
,
0100
1001
0000
0110
;

//---------------dance-single - ----------------
#NOTEDATA:;
#CHARTNAME:;
#STEPSTYPE:dance-single;
#DESCRIPTION:;
#CHARTSTYLE:;
#DIFFICULTY:Hard;
#METER:7;
#RADARVALUES:0.552703,0.742744,0.764916,0.000000,0.000000,280.000000,69.000000,0.000000,0.000000,0.000000,0.000000,0.000000,0.000000,0.552703,0.742744,0.764916,0.000000,0.000000,280.000000,69.000000,0.000000,0.000000,0.000000,0.000000,0.000000,0.000000;
#CREDIT:;
#NOTES:
// measure 0
0000
0000
0000
0000
,  // measure 1
0000
0000
0000
0000
,  // measure 2
0000
0000
0000
0000
,  // measure 3
1000
0010
0000
0001
0100
0000
1001
0000
,  // measure 4
0000
0000
0000
0000
,  // measure 5
0000
0000
0000
0000
,  // measure 6
0000
0000
0000
0000
,  // measure 7
0001
0010
0000
1000
0100
0000
1001
0000
,  // measure 8
0000
0000
0000
0000
,  // measure 9
0000
0000
0000
0000
,  // measure 10
0000
0000
0000
0000
,  // measure 11
1000
0010
0000
0001
0010
0000
1000
0000
,  // measure 12
1000
0000
0010
1000
0100
0000
0001
0000
,  // measure 13
0001
0000
0010
0001
0100
0000
1001
0000
,  // measure 14
0001
0000
0100
0001
0100
0000
1010
0000
,  // measure 15
0101
1010
0101
0001
,  // measure 16
0001
0000
0010
0001
0100
0000
1000
0000
,  // measure 17
1000
0000
0010
1000
0100
0000
1001
0000
,  // measure 18
1000
0000
0100
1000
0100
0000
0011
0000
,  // measure 19
1100
0011
1100
0000
,  // measure 20
1000
0010
0100
0000
0001
0000
1010
0000
,  // measure 21
1001
0000
0000
0000
0001
0010
0000
0000
,  // measure 22
1001
0000
0000
1010
,  // measure 23
0101
0000
0010
0100
0001
0000
0000
0000
,  // measure 24
0001
0010
0100
0000
1000
0000
0011
0000
,  // measure 25
1001
0000
0000
0000
1000
0010
0000
0000
,  // measure 26
1001
0000
0000
0011
,  // measure 27
1100
0000
0010
0100
1000
0000
0000
0000
,  // measure 28
0010
0100
0010
0000
0001
0000
0110
0000
,  // measure 29
1001
0000
0000
0000
0010
0001
0000
0000
,  // measure 30
1001
0000
0000
1001
,  // measure 31
0110
1001
0110
0000
,  // measure 32
0010
0100
0010
0000
1000
0000
0110
0000
,  // measure 33
1001
0000
0000
0000
0010
1000
0000
0000
,  // measure 34
1001
0000
0000
1001
,  // measure 35
0110
1001
0110
1000
,  // measure 36
0100
0000
0000
0000
,  // measure 37
0100
0000
0000
1000
0001
0000
0010
0100
,  // measure 38
0000
1000
0001
0000
1000
0010
0100
0000
,  // measure 39
0001
0000
0000
0000
0000
0000
0010
0001
,  // measure 40
0100
0001
0010
0000
0001
0000
0010
0100
,  // measure 41
0000
1000
0000
0100
1000
0000
0010
0000
,  // measure 42
0001
0010
0100
1000
0100
0000
1100
0000
,  // measure 43
0011
1100
0011
1100
,  // measure 44
0000
0100
1000
0000
,  // measure 45
0001
0000
1000
0100
0000
0000
0001
0000
,  // measure 46
1000
0010
0100
0010
0001
0000
1000
0000
,  // measure 47
0001
0010
0100
0010
1000
0000
0001
1000
,  // measure 48
0100
1000
0010
0000
0001
0000
1000
0001
,  // measure 49
0100
0001
0010
0000
1000
0000
0001
0000
,  // measure 50
1000
0000
0001
0010
0001
0010
0001
0010
,  // measure 51
0100
1000
0001
0000
0100
0000
1001
0000
,  // measure 52
0000
0000
0000
0100
,  // measure 53
0000
1000
0000
0100
,  // measure 54
0000
0001
0000
1001
,  // measure 55
0000
0000
0000
1000
,  // measure 56
0000
0010
0000
0001
,  // measure 57
0000
0100
0000
0001
,  // measure 58
0000
1000
0000
1001
,  // measure 59
0000
0000
0000
1000
,  // measure 60
0000
0100
0000
0001
,  // measure 61
0000
0010
0000
0001
,  // measure 62
0000
1000
0000
1001
,  // measure 63
0000
0000
0000
1000
,  // measure 64
0000
0100
0000
0010
,  // measure 65
0000
0001
0000
0100
,  // measure 66
0100
0100
0100
1010
,  // measure 67
0100
1001
0100
0010
,  // measure 68
0010
0000
1000
0001
1000
0000
0100
0000
,  // measure 69
0100
0000
1000
0001
1000
0000
1001
0000
,  // measure 70
0010
1100
0001
0110
,  // measure 71
0001
1001
0100
0010
,  // measure 72
0010
0000
0001
1000
0001
0000
0100
0000
,  // measure 73
0100
0000
0001
1000
0001
0000
1001
0000
,  // measure 74
0010
0101
1000
0110
,  // measure 75
1000
1001
0100
1001
,  // measure 76
1001
0000
1000
0001
1000
0000
1001
0000
,  // measure 77
1001
0000
0001
1000
0001
0000
1001
0000
,  // measure 78
0001
0011
0010
1100
,  // measure 79
1000
1001
0000
0000
,  // measure 80
0001
1000
0100
0000
0010
0000
0101
0000
,  // measure 81
1001
0000
0000
0000
1000
0100
0000
0000
,  // measure 82
1001
0000
0000
0011
,  // measure 83
0100
1001
0000
0110
;
