#VERSION:0.82;
#TITLE:Rolling Christmas;
#SUBTITLE:;
#ARTIST:BanYa;
#TITLETRANSLIT:;
#SUBTITLETRANSLIT:;
#ARTISTTRANSLIT:;
#GENRE:;
#ORIGIN:;
#CREDIT:;
#BANNER:Rolling Christmas-banner.png;
#BACKGROUND:Rolling Christmas-bg.png;
#PREVIEWVID:;
#JACKET:;
#CDIMAGE:;
#DISCIMAGE:;
#LYRICSPATH:;
#CDTITLE:;
#MUSIC:Rolling Christmas.ogg;
#OFFSET:-0.085000;
#SAMPLESTART:55.859997;
#SAMPLELENGTH:12.000000;
#SELECTABLE:YES;
#BPMS:0.000=142.000,
132.000=284.000,
196.000=142.000;
#STOPS:;
#DELAYS:;
#WARPS:;
#TIMESIGNATURES:0.000=4=4;
#TICKCOUNTS:0.000=4;
#COMBOS:0.000=1;
#SPEEDS:0.000=1.000=0.000=0;
#SCROLLS:0.000=1.000;
#FAKES:;
#LABELS:0.000=Song Start;
#BGCHANGES:0.000=Rolling Christmas.avi=1.000=0=0=0=StretchNoLoop====,
99999=-nosongbg-=1.000=0=0=0 // don't automatically add -songbackground-
;
#KEYSOUNDS:;
#ATTACKS:
;

//---------------dance-single - ----------------
#NOTEDATA:;
#CHARTNAME:;
#STEPSTYPE:dance-single;
#DESCRIPTION:;
#CHARTSTYLE:;
#DIFFICULTY:Easy;
#METER:4;
#RADARVALUES:0.395263,0.652580,0.393820,0.282743,0.000000,207.000000,39.000000,28.000000,0.000000,0.000000,0.000000,0.000000,0.000000,0.395263,0.652580,0.393820,0.282743,0.000000,207.000000,39.000000,28.000000,0.000000,0.000000,0.000000,0.000000,0.000000;
#CREDIT:;
#NOTES:
0000
0000
0000
0000
,
0000
0000
0000
0000
,
0000
0000
0000
0000
,
0000
0000
0000
0000
,
0000
0000
2000
3000
0002
0003
2000
3000
,
0002
0000
0000
0000
0000
0003
1000
0000
,
0010
0000
0100
0000
,
0100
0001
1000
0001
,
0010
0100
0010
0100
,
1000
0010
0100
0001
,
0010
0002
0000
0000
,
0010
0000
0010
0000
0010
0003
1000
0000
,
0001
0011
1000
1010
,
0010
1000
0100
1000
0010
0000
1001
0000
,
1000
1100
0001
0101
,
0100
0001
0010
0001
0100
0000
1001
0000
,
0001
0001
1000
1000
,
0100
1000
0010
1001
,
1000
1000
0001
0001
,
0010
0000
0001
0000
0100
0000
0001
1000
,
0001
2002
3003
1001
,
2002
3003
1001
1001
,
0101
0101
1100
1100
,
0101
1100
0101
1100
,
2002
0000
0000
3003
,
1000
0100
2000
3000
,
0001
0100
0002
0003
,
1000
0010
2000
3000
,
0001
0010
0001
0001
,
1000
0010
2000
3000
,
0001
0010
0002
0003
,
1000
0100
1000
1000
,
0001
0100
0001
1000
,
0001
0100
0001
0000
,
1000
0100
1000
0000
,
0001
0010
0001
0010
,
0001
0000
0000
0000
,
1000
0100
1000
0000
,
0001
0100
0001
0001
,
1000
0010
1000
0010
,
1000
0000
1001
0000
,
0001
0010
0001
0000
,
1000
0010
1000
0000
,
0001
0100
0001
0100
,
0001
0000
0000
0000
,
1000
0010
1000
0000
,
0001
0010
0001
0001
,
1000
0100
1000
0100
,
1000
0001
0100
0000
,
1001
0000
0000
0000
,
0000
0000
0000
0000
,
0001
0011
1000
1010
,
0010
1000
0100
1000
0010
0000
1001
0000
,
1000
1100
0001
0101
,
0100
0001
0010
0001
0100
0000
1001
0000
,
0001
0001
1000
1000
,
0100
1000
0010
1001
,
1000
1000
0001
0001
,
0010
0000
0001
0000
0100
0000
0001
1000
,
0001
2002
3003
1001
,
2002
3003
1001
1001
,
2200
3300
0202
0303
,
2002
0000
0000
3003
,
0001
0000
1000
0000
0001
1000
0001
1000
,
2002
0000
0000
0000
0000
3003
0000
0000
;

//---------------dance-single - ----------------
#NOTEDATA:;
#CHARTNAME:;
#STEPSTYPE:dance-single;
#DESCRIPTION:;
#CHARTSTYLE:;
#DIFFICULTY:Hard;
#METER:10;
#RADARVALUES:0.647711,1.000000,0.626073,0.474604,0.252449,340.000000,62.000000,47.000000,0.000000,0.000000,0.000000,0.000000,0.000000,0.647711,1.000000,0.626073,0.474604,0.252449,340.000000,62.000000,47.000000,0.000000,0.000000,0.000000,0.000000,0.000000;
#CREDIT:;
#NOTES:
// measure 0
0000
0000
0000
0000
,  // measure 1
0000
0000
0000
0000
,  // measure 2
0000
0000
0000
0000
,  // measure 3
0010
0000
0010
0000
1000
0001
1000
0001
,  // measure 4
1001
0011
1010
0011
,  // measure 5
2001
0000
0000
0000
0100
0100
3001
0000
,  // measure 6
0010
0001
0100
0010
1000
0001
0100
0010
,  // measure 7
1010
0001
0100
0010
1000
0100
0011
0000
,  // measure 8
2010
0001
0100
3010
,  // measure 9
0012
1000
0100
0013
,  // measure 10
2010
3001
0012
1003
,  // measure 11
2100
3001
0102
1003
,  // measure 12
1010
0001
0100
0000
1010
0001
0100
0000
,  // measure 13
1010
0001
0100
0010
1000
0000
1001
0000
,  // measure 14
0011
1000
0100
0000
0011
1000
0100
0000
,  // measure 15
0011
1000
0100
0010
0001
0000
1001
0000
,  // measure 16
1010
0001
0100
0000
0101
0001
0010
0000
,  // measure 17
1010
0000
0001
0000
0100
0000
0010
0000
1000
0000
0100
1000
0010
0000
1000
0000
,  // measure 18
0011
1000
0100
0000
1100
1000
0010
0100
,  // measure 19
0002
0000
0000
0000
0000
0003
1000
0100
,  // measure 20
0011
0000
0000
0000
0220
0000
0000
0000
0000
0000
0330
0000
0002
0000
0000
0003
,  // measure 21
0200
0000
0000
0000
0000
0300
0002
0003
0020
0000
0000
0030
0200
0000
0000
0300
,  // measure 22
2000
0000
0100
3000
0002
0000
0100
0003
,  // measure 23
2000
0000
0000
3000
0100
1000
0010
0100
0001
1000
0010
0100
0001
1000
0100
0010
,  // measure 24
0001
0100
0001
0100
0010
1000
0010
1000
0100
0010
0001
1000
0100
0000
0000
0000
,  // measure 25
1000
0010
1000
0000
0010
0000
0100
0000
0002
0000
0000
0000
0003
0000
0000
0000
,  // measure 26
1000
0010
1000
0000
0010
0000
0100
0000
0002
0000
0000
0000
0003
0000
0000
0000
,  // measure 27
1000
0010
1000
0000
0010
0000
0100
0000
0002
0000
0000
0000
0003
0000
0000
0000
,  // measure 28
1010
1010
0010
0100
0001
1000
1001
0000
,  // measure 29
0001
0010
0001
0000
0010
0000
0100
0000
2000
0000
0000
0000
3100
0000
0000
0000
,  // measure 30
0001
0010
0001
0000
0010
0000
0100
0000
2000
0000
0000
0000
3100
0000
0000
0000
,  // measure 31
0001
0010
0001
0000
0010
0000
0100
0000
2000
0000
0000
0000
3100
0000
0100
0000
,  // measure 32
0010
0100
1000
0100
0001
0100
1001
0000
,  // measure 33
0011
0100
1000
0000
,  // measure 34
0011
0100
1000
0000
,  // measure 35
0011
0000
0100
0000
1000
0000
0000
0002
,  // measure 36
0020
0000
0000
0033
0011
0000
0000
0000
,  // measure 37
0011
0100
1000
0000
,  // measure 38
0011
0100
1000
0100
,  // measure 39
0011
0100
1000
0100
,  // measure 40
0011
0000
1001
0000
,  // measure 41
1010
0100
0001
0000
,  // measure 42
1010
0100
0001
0000
,  // measure 43
1010
0000
0100
0000
0001
0000
0000
2000
,  // measure 44
0020
0000
0000
3030
1010
0000
0000
0000
,  // measure 45
1010
0100
0001
0000
,  // measure 46
1010
0100
0001
0100
,  // measure 47
1010
0100
0001
0100
,  // measure 48
1010
0000
1001
0000
,  // measure 49
0100
0000
0000
0000
,  // measure 50
0000
0000
0000
0000
0000
0000
2002
3003
,  // measure 51
0001
0010
0001
0010
0001
0000
0000
0000
1000
0010
1000
0010
1000
0000
0000
0000
,  // measure 52
0001
0010
0001
0010
0001
1000
0010
0100
0001
0000
0000
0000
2002
0000
3003
0000
,  // measure 53
0001
0100
0001
0100
0001
0000
0000
0000
1000
0100
1000
0100
1000
0000
0000
0000
,  // measure 54
0001
0100
0001
0100
0001
1000
0100
0010
0001
0000
0000
0000
1001
0000
0000
0000
,  // measure 55
0011
0100
1000
0000
0011
0100
1000
0100
,  // measure 56
0022
0000
0000
0000
0000
0000
0000
0000
0033
0000
0010
0001
0100
0000
0001
0000
,  // measure 57
1010
0100
0001
0000
1010
0100
0001
0100
,  // measure 58
2020
0000
0000
0000
0000
3030
1010
0001
,  // measure 59
0110
0000
0000
0000
1002
0000
0000
0000
0000
0000
0000
0003
0200
0000
0000
0300
,  // measure 60
0020
0000
0000
0000
0000
0030
2000
3000
0002
0000
0000
0003
2000
0000
0000
3000
,  // measure 61
0002
0000
0100
0003
2000
0000
0100
3000
,  // measure 62
0002
0000
0000
0003
1000
0100
1000
0001
0100
0001
1000
0100
0010
0001
0100
0010
,  // measure 63
1000
0010
0100
0001
1000
0001
1000
0010
0100
0001
1000
0100
1000
0001
0010
0200
,  // measure 64
2000
0000
0000
0000
0000
0000
0000
0300
3000
0000
0000
0000
0000
0000
0000
0000
;

//---------------dance-single - ----------------
#NOTEDATA:;
#CHARTNAME:;
#STEPSTYPE:dance-single;
#DESCRIPTION:;
#CHARTSTYLE:;
#DIFFICULTY:Medium;
#METER:6;
#RADARVALUES:0.509225,0.618752,0.454408,0.302939,0.000000,278.000000,45.000000,30.000000,0.000000,0.000000,0.000000,0.000000,0.000000,0.509225,0.618752,0.454408,0.302939,0.000000,278.000000,45.000000,30.000000,0.000000,0.000000,0.000000,0.000000,0.000000;
#CREDIT:;
#NOTES:
0000
0000
0000
0000
,
0000
0000
0000
0000
,
0000
0000
0000
0000
,
0000
0000
0000
0000
,
0000
0000
2000
3000
0002
0003
2000
3000
,
0002
0000
0000
0003
1000
0001
1000
0000
,
0100
0010
0001
1000
,
1001
0010
0100
0001
,
0101
0001
1000
0010
,
1010
0010
0100
0001
,
2000
0000
0100
3000
0002
0000
0100
0003
,
2000
0000
0010
3000
0002
0000
0010
0003
,
1100
1010
1100
1010
,
0010
1000
0100
1000
0010
0000
1001
0000
,
0101
0011
0101
0011
,
0010
0001
0100
0001
0010
0000
1001
0000
,
0010
1000
0100
0000
1000
0001
0010
0000
,
0001
1000
0100
0010
0001
0000
1001
0000
,
0010
0001
0100
0000
0001
1000
0010
0000
,
1000
0001
0100
0010
1000
0000
1001
0000
,
0101
2002
3003
1100
,
2002
3003
0101
1001
,
1000
0010
0100
0001
1000
0001
0100
0001
,
1000
0001
0010
0100
1000
0100
1000
0001
,
0020
0000
0030
0000
0001
1000
1001
0000
,
1000
0100
1000
0100
2000
0000
3000
0000
,
0001
0100
0001
0100
0002
0000
0003
0000
,
1000
0010
1000
0010
2000
0000
3000
0000
,
0001
0001
0010
0100
2000
0000
3001
0000
,
0001
0100
0001
0100
0002
0000
0003
0000
,
1000
0100
1000
0100
2000
0000
3000
0000
,
0001
0010
0001
0010
0100
0000
0100
1000
,
0001
0010
0100
1000
0001
0100
0001
0000
,
1000
0100
0001
0000
,
0001
0100
1000
0000
,
1000
0100
0001
0100
,
1000
0000
1100
0000
,
1000
0100
1000
0100
,
0001
0100
0001
0100
,
1000
0100
0001
0100
,
1000
0000
1001
0000
,
0001
0100
1000
0000
,
1000
0100
0001
0000
,
0001
0100
1000
0100
,
0001
0000
0101
0000
,
0001
0100
0001
0100
,
1000
0100
1000
0100
,
0001
0100
1000
0100
,
0001
0000
1001
0000
,
0002
0000
0010
0003
2000
0000
0010
3000
,
0002
0000
0100
0003
2000
0000
0100
3000
,
0101
0011
0101
0011
,
0010
0001
0100
0001
0010
0000
1001
0000
,
1100
1010
1100
1010
,
0010
1000
0100
1000
0010
0000
1001
0000
,
0010
0001
0100
0000
0001
1000
0010
0000
,
1000
0001
0100
0010
1000
0000
1001
0000
,
0010
1000
0100
0000
1000
0001
0010
0000
,
0001
1000
0100
0010
0001
0000
1001
0000
,
1100
2002
3003
0101
,
2002
3003
1100
1001
,
0001
0010
0100
1000
0001
1000
0100
1000
,
0001
1000
0010
0100
0001
0100
0001
1000
,
0020
0000
0030
0000
1000
1000
0001
0001
,
2002
0000
3003
0000
;
