#TITLE:Requiem;
#SUBTITLE:;
#ARTIST:MAX;
#TITLETRANSLIT:;
#SUBTITLETRANSLIT:;
#ARTISTTRANSLIT:;
#GENRE:Classical Crossover;
#CREDIT:;
#BANNER:Requiem-banner.png;
#BACKGROUND:Requiem-bg.png;
#LYRICSPATH:;
#CDTITLE:;
#MUSIC:Requiem.mp3;
#OFFSET:2.437968;
#SAMPLESTART:5.827165;
#SAMPLELENGTH:12.000000;
#LASTBEATHINT:3.703472;
#SELECTABLE:YES;
#BPMS:0.000000=160.000000
,86.000000=80.000000
,98.000000=160.000000
,138.000000=80.000000
,142.000000=160.000000
;
#STOPS:
;
#BGCHANGES:
;
#KEYSOUNDS:;
#ATTACKS:;

//---------------dance-single - ----------------
#NOTES:
     dance-single:
     :
     Challenge:
     14:
     0.959794,1.046265,0.290428,0.493727,1.263360,694.000000,664.000000,30.000000,51.000000,0.000000,0.000000,0.959794,1.046265,0.290428,0.493727,1.263360,694.000000,664.000000,30.000000,51.000000,0.000000,0.000000:
0000
0000
0000
0000
,
0000
0000
0000
0000
,
0000
0000
0000
0000
,
0000
0000
1001
0000
,
0011
0000
0110
0000
,
1100
0000
0000
0000
0000
0000
0000
0000
1000
0000
0001
0100
0001
0000
1000
0000
,
0100
1000
0010
0100
0001
0000
1000
0000
0001
0000
1000
0010
1000
0000
0001
0000
,
0100
0001
1000
0100
0010
0000
0001
0000
1000
0100
1000
0100
1000
0001
1000
0001
,
0100
0001
0100
0001
1000
0001
1000
0001
0100
0010
0100
0010
1000
0010
1000
0010
,
1000
0001
1000
0001
1000
0010
1000
0010
0100
0001
0010
0100
1000
0010
0100
0001
,
0100
0010
1000
0001
0010
1000
0010
0100
1000
0000
0000
0000
0000
0000
0000
0000
,
0000
0000
0000
0000
0000
0000
0000
0000
0002
0003
0010
0001
1000
0010
1000
0010
,
1000
0100
1000
0100
1000
0001
1000
0001
0100
0010
1000
0010
1000
0010
0100
0001
,
0010
0100
1000
0010
0100
0001
0010
0100
2000
0000
0000
0000
3100
0000
0000
0000
,
0200
0310
0020
0031
,
0002
0000
0000
0000
1003
0000
0000
0000
0001
0000
1000
0010
1000
0000
0001
0000
,
0010
0001
0100
0010
1000
0000
0001
0000
1000
0000
0001
0100
0001
0000
1000
0000
,
0010
1000
0001
0010
0100
0000
1000
0000
0001
0010
0001
0010
0001
1000
0001
1000
,
0010
1000
0010
1000
0001
1000
0001
1000
0010
0100
0010
0100
0001
0100
0001
0100
,
0001
1000
0001
1000
0001
0010
0001
0010
0100
1000
0010
0100
0001
0010
0100
1000
,
0100
0010
0001
1000
0010
0001
0010
0100
0001
0000
0000
0000
0000
0000
0000
0000
,
0000
0000
0000
0000
0000
0000
0000
0000
0000
0000
0000
0000
2000
0000
0000
0000
0000
0000
3002
0000
0003
0010
0100
0010
,
0002
0000
0000
0000
0003
0000
0200
0000
0000
0000
0300
0000
0010
0000
0000
1000
0000
0000
0001
0000
0000
1000
0000
0000
0200
0000
0000
0000
0000
0000
0000
0000
0000
0300
0000
0000
1000
0000
0010
0000
1000
0000
0001
0000
0010
0000
0001
0000
,
1000
0000
0000
0001
0000
0000
0010
0000
0011
0000
0000
0000
1010
0000
0000
0000
2002
0000
0000
0000
3003
0000
0000
0000
0200
0000
0300
0000
0200
0000
0300
0000
,
1000
0000
0001
0000
0010
0000
0100
0000
0000
0000
0000
0000
0110
0000
0000
0000
0000
0000
1001
0000
0000
0000
0000
0000
0120
0000
0000
0030
0000
0000
0100
0000
0000
0010
0000
0000
0001
0000
0000
0010
0000
0000
0001
0000
0000
0010
0000
0000
,
0001
0100
0001
0100
0001
1000
0001
1000
0100
0010
0001
0100
0001
0010
0100
1000
,
0010
0100
0001
0010
0100
1000
0100
1000
0001
0010
0001
0010
0100
0010
0100
0010
,
0100
1000
0010
0100
0002
0000
0003
0000
1000
0010
1000
0010
0100
0010
0100
0010
,
0100
0001
0010
0100
2000
0000
3000
0000
1001
0000
0000
0000
0110
0000
0000
0000
,
1010
0000
0000
0000
1000
0010
0100
0001
2000
0000
3000
0000
0010
0000
0100
0000
,
0001
0010
0100
1000
0100
0000
0010
0000
0001
0010
0001
0010
0100
0010
0100
0010
,
0100
1000
0010
0100
0002
0000
0003
0000
1000
0010
1000
0010
0100
0010
0100
0010
,
0100
0001
0010
0100
2000
0000
3000
0000
1001
0000
0001
1000
0100
0000
1000
0001
,
0100
0000
0001
0010
0100
1000
0001
0100
0010
0000
1000
0000
0010
0000
1000
0000
,
0001
1000
0010
0100
0001
1000
0100
0010
0002
0000
0000
0003
2000
3000
0200
0300
,
0020
0000
0000
0030
0002
0000
0000
0003
1000
0000
0010
0000
1000
0000
0010
0100
,
0001
0000
0010
0000
0001
0100
0010
1000
0100
1000
0010
1000
0100
1000
0001
1000
,
0001
0100
0001
0010
0001
0100
0001
1000
0100
0000
0010
0000
0001
0000
0010
0100
,
1000
0000
0010
0000
1000
0100
0010
0001
0100
0001
0010
0001
0100
0001
1000
0001
,
1000
0100
1000
0010
1000
0100
1000
0001
0100
0010
0100
0010
1000
0010
1000
0010
,
1000
0100
1000
0100
1000
0010
1000
0010
0100
0001
0000
0000
0001
0100
0000
0000
,
0100
0010
0000
0000
1000
0010
1000
0010
1000
0000
0010
0000
0100
0000
0001
0000
,
0100
0010
1000
0001
0100
0000
1010
0000
,
0000
0000
0000
0000
0101
0000
0000
0000
1001
0000
0001
0010
0001
0010
0001
0010
,
0200
0000
0020
0330
0110
0000
0100
0000
,
0020
0000
0002
0033
0011
0000
0010
0000
,
0002
0000
2000
3003
1001
0000
0000
0000
,
0110
1001
1100
0011
,
0001
0000
0001
0000
1000
0000
1000
0000
0100
0000
0100
0000
0010
0001
0010
0001
,
1000
0100
1000
0100
0010
0100
0010
0100
0010
0001
0010
0100
1000
0100
0010
0001
,
0010
0100
1000
0100
0010
0001
0010
0100
1000
0100
1000
0100
1000
0001
1000
0001
,
0100
0010
1000
0100
1000
0010
0100
0001
1000
0001
0010
0100
1000
0010
0100
0001
,
1000
0000
1001
0000
0001
1000
0100
0010
0001
0100
0001
0100
0001
1000
0001
1000
,
0100
0010
0001
0100
0001
0010
0100
1000
0001
1000
0010
0100
0001
0010
0100
1000
,
0001
0000
1001
0000
1000
0001
0100
0010
1000
0010
1000
0010
0100
0010
0100
0010
,
0100
0010
0001
1000
0001
0010
0100
0010
1000
0010
0001
0010
0100
0010
1000
0100
,
1000
0000
1100
0000
0100
1000
0010
0100
0001
0010
0001
0010
0100
0010
0100
0010
,
0100
0010
1000
0001
1000
0010
0100
0010
0001
0010
1000
0010
0100
0010
0001
0100
,
0001
0000
0101
0000
0001
1000
0100
0010
0002
0000
0000
0003
2000
3000
0200
0300
,
0010
0000
0000
0000
0002
0003
0200
0300
0010
0000
0000
0000
2000
3000
0200
0300
,
0020
0000
0000
0000
0030
0000
0000
0000
0001
0010
0100
1000
0020
0030
0002
0003
,
0010
1000
0010
0100
0002
0003
0020
0030
0200
0300
2000
3000
0020
0030
0100
0001
,
0010
1000
0020
0030
0001
0010
0200
0300
1000
0010
0200
0300
0001
0010
0001
0010
,
0100
1000
0010
0001
0010
1000
0100
0010
0001
0000
0000
0000
0000
0000
0000
0000
,
0000
1001
0000
0220
0000
0000
0000
0000
,
0000
0000
0330
0000
;

//---------------dance-single - ----------------
#NOTES:
     dance-single:
     :
     Hard:
     12:
     0.832559,0.997135,0.116171,0.396918,0.890644,602.000000,590.000000,12.000000,41.000000,0.000000,0.000000,0.832559,0.997135,0.116171,0.396918,0.890644,602.000000,590.000000,12.000000,41.000000,0.000000,0.000000:
0000
0000
0000
0000
,
0000
0000
0000
0000
,
0000
0000
0000
0000
,
0000
0000
0101
0000
,
1010
0000
1001
0000
,
0110
0000
0000
0000
0000
0000
0000
0000
0001
0000
0100
0000
0010
0100
0001
0000
,
1000
0100
0010
0100
1000
0000
0001
0000
0100
0010
0100
0001
1000
0000
0100
0000
,
0010
0100
1000
0001
0100
0000
0010
0000
0100
0000
0100
0000
0001
0000
0100
0001
,
1000
0000
1000
0000
0100
0000
1000
0001
0010
0000
0010
0000
0001
0000
0010
0001
,
1000
0000
1000
0000
0010
0000
1000
0010
0100
0001
0100
0001
1000
0100
1000
0100
,
0010
0100
1000
0001
0100
0010
1000
0100
2000
0000
0000
0000
0000
0000
0000
0000
,
0000
0000
0000
0000
0000
0000
3000
0000
0001
0000
0100
0010
1000
0100
1000
0010
,
1000
0100
1000
0001
1000
0100
1000
0001
0100
0001
0010
0001
0100
0001
1000
0001
,
0100
0010
1000
0100
1000
0010
0100
0001
1000
0000
0000
0000
1100
0000
0000
0000
,
0001
0101
1000
1010
,
0001
0000
0000
0000
0011
0000
0000
0000
1000
0000
0100
0000
0010
0100
1000
0000
,
0001
0100
0010
0100
0001
0000
1000
0000
0100
0010
0100
1000
0001
0000
0100
0000
,
0010
0100
0001
1000
0100
0000
0010
0000
0100
0000
0100
0000
1000
0000
0100
1000
,
0001
0000
0001
0000
0100
0000
0001
1000
0010
0000
0010
0000
1000
0000
0010
1000
,
0001
0000
0001
0000
0010
0000
0001
0010
0100
1000
0100
1000
0001
0100
0001
0100
,
0010
0100
0001
1000
0100
0010
0001
0100
0002
0000
0000
0000
0000
0000
0000
0000
,
0000
0000
0000
0000
0000
0000
0000
0000
0000
0003
0000
0000
2000
0000
3000
0200
0000
0300
0020
0000
0030
0001
0010
0100
,
2000
0000
0000
0000
3000
0000
0002
0000
0000
0000
0003
0000
0100
0000
0000
0010
0000
0000
1000
0000
0000
0001
0000
0000
2000
0000
0000
0000
3000
0000
0020
0000
0000
0000
0030
0000
1000
0000
0100
0000
1000
0000
0001
0000
0100
0000
0001
0000
,
0020
0000
0030
0200
0000
0300
2000
0000
3010
0000
0100
0000
0001
0000
1000
0000
0100
0000
0000
0000
0000
0000
0000
0000
0010
0000
0000
0000
0010
0000
0000
0000
,
0100
0000
0010
0000
0001
0000
0100
0000
0000
0000
0000
0000
0001
0000
0000
0000
0000
0000
0001
0000
0000
0000
0000
0000
1000
0000
0000
0000
0000
0000
0100
0000
0000
0010
0000
0000
0001
0000
0000
0100
0000
0000
0001
0000
0000
0010
0000
0000
,
0001
0100
0001
1000
0001
0100
0001
1000
0100
1000
0010
1000
0100
1000
0001
1000
,
0100
0010
0001
0100
0001
1000
0001
1000
0001
0000
0100
0010
1000
0010
0100
0010
,
1000
0010
0100
0010
2000
0000
3000
0000
0001
0000
0100
0010
1000
0010
0100
0010
,
1000
0010
0100
0010
2000
3000
0001
0100
0010
0000
1000
0010
0100
0000
0001
0000
,
1000
0000
1000
0000
0001
1000
0001
1000
0100
0000
0100
0000
0010
0000
0010
0000
,
0001
0010
0001
0010
0001
0000
0100
0000
0001
0000
0100
0001
1000
0010
0100
0001
,
1000
0010
0100
0001
2000
0000
3000
0000
0001
0000
0100
0001
1000
0010
0100
0001
,
1000
0010
0100
0001
2000
3000
0100
0010
0001
0000
0100
0001
1000
0000
0100
1000
,
0001
0000
0100
0001
1000
0100
1000
0100
0010
0000
0001
0000
0010
0000
0001
0000
,
0100
0001
0100
0001
0020
0030
0100
1000
0002
0000
0000
0003
2000
3000
0200
0300
,
0020
0000
0000
0030
0002
0000
0103
0000
0001
0000
0001
0000
0010
0000
0010
0000
,
0100
0000
0010
0001
0100
0000
0001
0010
0100
0000
1000
0000
0001
0100
0001
1000
,
0100
0010
0001
0100
0001
0010
0100
1000
0001
0000
0001
0000
1000
0000
1000
0000
,
0100
0000
0100
0000
1000
0001
1000
0001
0010
0000
0001
0010
0100
1000
0001
0100
,
0001
1000
0100
0010
0001
0100
0001
1000
0100
1000
0100
1000
0100
1000
0100
1000
,
0001
1000
0001
1000
0001
0100
0001
0100
0010
0000
0000
0000
1000
0000
0000
0000
,
0001
0000
0100
0000
0010
0010
0010
0010
,
0010
0010
0010
0010
2000
3000
0020
0000
,
0000
0000
0030
0000
0200
0000
0300
0000
0001
0000
0100
0001
0100
0001
0100
0001
,
2000
3000
0200
0300
0020
0000
0000
0000
,
0000
0030
0002
0000
,
0000
0003
2000
3100
,
0002
0000
0103
0000
2000
3000
0020
0030
,
1000
0000
1000
0000
0001
0000
0001
0000
0100
0000
0100
0000
0001
0010
0001
0010
,
0100
0010
0100
0010
0100
1000
0100
1000
0001
1000
0001
1000
0001
1000
0001
1000
,
0001
1000
0001
1000
0001
1000
0001
1000
0100
0000
0010
0000
0001
0000
0100
0001
,
1000
0000
0010
1000
0001
0000
0100
0000
0001
0000
1000
0000
0010
0000
1000
0000
,
0100
0000
1100
0000
1000
0010
0100
0001
1000
0000
0001
0000
0010
0000
0100
1000
,
0001
0000
0010
0001
1000
0000
0100
0000
1000
0000
0010
0000
1000
0000
0001
0000
,
0100
0000
0101
0000
0001
0010
0100
1000
0001
0000
0100
0000
0010
0000
1000
0001
,
0100
0000
0001
1000
0100
0000
0010
0000
0100
0000
1000
0000
0010
0000
0100
0000
,
0001
0000
1001
0000
1000
0001
0100
0010
1000
0000
0100
0000
1000
0000
0001
1000
,
0100
0000
1000
0001
0100
0000
0001
0000
0100
0000
0010
0000
1000
0000
0100
0000
,
1000
0001
0100
0100
0020
0030
0100
0001
,
2000
3000
0100
1000
0020
0030
0100
0001
,
2000
3000
0001
0010
0200
0300
1000
0010
,
0200
0000
0300
0000
0001
0000
0010
0000
0100
0000
1000
0000
0001
0000
0100
0010
,
0100
0000
0010
0100
0010
1000
0010
0100
0001
0000
1000
0000
0100
1000
0100
1000
,
0020
0030
0100
0001
0010
0100
1000
0001
0200
0000
0300
0000
0000
0000
0000
0000
,
0000
0000
0000
0001
0100
1000
0000
0000
0000
0000
0000
0000
1001
0000
0000
0000
0000
0000
0000
0000
0000
0000
0000
0000
0000
0000
0000
0000
0000
0000
0000
0000
;

//---------------dance-single - ----------------
#NOTES:
     dance-single:
     :
     Medium:
     8:
     0.582238,0.810172,0.309789,0.300108,0.101650,421.000000,389.000000,32.000000,31.000000,0.000000,0.000000,0.582238,0.810172,0.309789,0.300108,0.101650,421.000000,389.000000,32.000000,31.000000,0.000000,0.000000:
0000
0000
0000
0000
,
0000
0000
0000
0000
,
0000
0000
0000
0000
,
0000
0000
1100
0000
,
0011
0000
1001
0000
,
0110
0000
0000
0000
0000
0000
0000
0000
1001
0000
0100
0000
0010
0100
1000
0000
,
0001
0000
0100
0000
0101
0000
0000
0000
0001
0000
0100
0000
0001
1000
0100
0000
,
0010
0001
0011
0000
0001
0010
0001
0010
,
0001
0100
0001
0100
0001
1000
0001
1000
,
0100
1000
0100
1000
0010
0100
0001
1000
,
0001
0010
1000
0001
0100
0000
0000
0000
,
0000
0000
0000
0000
1000
0100
0010
1000
,
0010
0100
1000
0010
0001
1000
0100
0001
,
1000
0100
0010
0001
0011
0000
0100
0000
,
1001
0100
0110
1000
,
0101
0000
0000
0000
0010
0000
0000
0000
1001
0000
0010
0000
0100
0010
0001
0000
,
1000
0000
0010
0000
1010
0000
0000
0000
1000
0000
0010
0000
1000
0010
0100
0000
,
0001
1000
1001
0000
1000
0100
1000
0100
,
1000
0010
1000
0010
1000
0001
1000
0001
,
0010
0001
0010
0001
0100
0010
1000
0001
,
1000
0010
0001
1000
0100
0000
0000
0000
,
0000
0000
0000
0000
0000
0000
0000
0000
0000
0000
0000
0000
0000
0000
0000
0000
0000
0000
0000
0000
0000
0000
0000
0000
0020
0000
0000
0000
0000
0000
0000
0000
0000
0030
0000
0000
0200
0000
0000
0000
0300
0000
0001
0000
1000
0000
0100
0000
,
0010
0000
0000
0000
0000
0000
0010
0000
0000
0000
0000
0000
0100
0000
0000
1000
0000
0000
0001
0000
0000
0100
0000
0000
0020
0000
0000
0000
0000
0000
0000
0000
0000
0030
0000
0000
1000
0000
0010
0000
1000
0000
0001
0000
0010
0000
0001
0000
,
1000
0000
0000
1000
0000
0000
1000
0000
0100
0000
0010
0000
0001
0000
1000
0000
0001
0000
0000
0000
0000
0000
0000
0000
0100
0000
0000
0000
0100
0000
0000
0000
,
0001
0100
0001
1000
0000
0000
0100
0000
0000
0100
0000
0000
1000
0000
0000
0010
0000
0000
0001
0000
0000
1000
0000
0000
,
0001
0010
1000
0001
0010
1000
0010
0001
,
0010
0000
0100
0000
1000
0100
1000
0100
1000
0000
0001
0000
0100
0000
0010
0000
,
1000
0010
1010
0000
1000
0010
0100
0001
,
1000
0100
1100
1000
1001
0000
0011
0000
,
0110
0010
0011
0001
1000
0001
1000
0001
,
1000
0100
0020
0030
0001
0100
0001
1000
,
0100
0010
0110
0000
0010
0100
1000
0001
,
0100
0010
0110
0100
0101
0001
1001
1000
,
1100
1000
0001
0100
0010
0100
0010
0100
,
1000
0001
0010
1000
0001
0000
0000
0000
,
0000
0000
0000
0000
1000
1000
0100
0010
,
0100
0001
0100
0010
0200
0000
1000
0000
,
0000
0000
1300
0000
0001
0001
0010
0100
,
0010
1000
0010
0100
0020
0000
0001
0000
,
0000
0000
0031
0000
1000
0100
0010
1000
,
0010
0001
0010
0100
2000
3000
0020
0030
,
0200
0000
0300
0000
0002
0000
0003
0000
0200
0300
0002
0003
2000
3000
0200
0300
,
2000
3000
0020
0030
0200
0300
0002
0000
1003
0000
0000
0000
1001
0000
0000
0000
,
0000
0000
0010
0000
0001
0100
0001
0100
,
0020
0030
2000
3000
0200
0000
0000
0000
,
0300
0000
0200
0000
,
0300
0000
0200
0300
,
0200
0300
0000
0000
1000
0000
1000
0000
,
0010
0010
0100
0001
,
0100
0000
0020
0030
1000
0100
0010
0001
,
1000
0010
0100
0001
0100
0100
0010
0001
,
0010
1000
0010
0001
0010
0010
0100
0001
,
1000
1001
1000
0100
0010
0010
0100
0010
,
1000
0010
0001
0010
1000
1000
0010
0100
,
1000
1100
1000
0001
0100
0100
0010
0001
,
0010
1000
0010
0001
0010
0010
0100
0001
,
1000
1001
1000
0100
0010
0010
1000
0010
,
0001
0010
1000
0010
0100
0100
0010
1000
,
0010
0001
1000
0010
2000
0000
3100
0000
,
0200
0310
0020
0031
,
0002
0103
0200
0301
,
0002
0000
1003
0000
1000
0100
1100
0100
,
0001
0100
1000
0010
0001
1000
1001
0001
,
0010
1000
0100
0010
0001
0000
0000
0000
,
0000
0000
0000
1000
0001
0000
0000
0000
0000
0000
0000
0000
1001
0000
0000
0000
0000
0000
0000
0000
0000
0000
0000
0000
0000
0000
0000
0000
0000
0000
0000
0000
;

//---------------dance-single - ----------------
#NOTES:
     dance-single:
     :
     Easy:
     5:
     0.528301,0.592049,0.242023,0.193618,0.019362,382.000000,357.000000,25.000000,20.000000,0.000000,0.000000,0.528301,0.592049,0.242023,0.193618,0.019362,382.000000,357.000000,25.000000,20.000000,0.000000,0.000000:
// measure 0
0000
0000
0000
0000
,  // measure 1
0000
0000
0000
0000
,  // measure 2
0000
0000
0000
0000
,  // measure 3
0000
0000
1001
0000
,  // measure 4
1001
0000
1001
0000
,  // measure 5
1001
0000
0000
0000
0001
0100
0010
1000
,  // measure 6
0100
1000
1100
0000
0100
1000
0010
0100
,  // measure 7
0001
1000
1001
0000
0001
0010
0001
0010
,  // measure 8
0001
0100
0001
0100
0001
1000
0001
1000
,  // measure 9
0100
1000
0100
1000
0001
0100
0010
1000
,  // measure 10
0100
1000
0010
0100
0001
0000
0000
0000
,  // measure 11
0000
0000
0000
0000
0010
0100
1000
0001
,  // measure 12
0100
0001
0100
0001
1000
0100
0010
0001
,  // measure 13
0010
0001
0010
0001
1000
0000
1010
0000
,  // measure 14
0001
0011
1000
1100
,  // measure 15
0001
0000
0101
0000
0010
0100
1000
0001
,  // measure 16
0100
0001
0101
0000
0100
0001
1000
0100
,  // measure 17
0010
0001
1001
0000
1000
0100
1000
0100
,  // measure 18
0010
0100
0010
0100
0010
0001
0010
0001
,  // measure 19
0100
0001
0100
0001
0010
0100
1000
0001
,  // measure 20
0100
0001
1000
0100
0010
0000
0000
0000
,  // measure 21
0000
0000
0000
0000
0000
0000
0000
0000
0002
0000
0000
0003
0200
0300
0002
0003
,  // measure 22
1000
0000
0100
0000
0010
0001
1000
0001
0200
0000
0000
0300
0020
0030
2000
3000
,  // measure 23
0100
0000
1000
0000
0001
0100
0010
1000
0100
0000
0000
0000
1000
0000
1000
0000
,  // measure 24
0010
0100
0001
0001
0010
0100
1000
0001
,  // measure 25
0100
0001
0100
0001
1000
0100
0010
0001
,  // measure 26
0100
0001
0100
0100
0001
0010
0100
1000
,  // measure 27
0010
0100
0001
0000
0001
0010
0100
1000
,  // measure 28
0010
0100
0001
1000
0100
0000
1100
0000
,  // measure 29
0001
0011
0010
0010
,  // measure 30
0001
0010
0100
1000
0100
0010
0100
1000
,  // measure 31
0010
0100
0001
0010
0100
0010
0100
1000
,  // measure 32
0010
0100
0001
1000
0100
0000
1100
0000
,  // measure 33
0001
0000
0101
0000
1000
0010
1000
0010
,  // measure 34
0100
0010
1000
0001
0100
0000
0000
0000
,  // measure 35
0000
0000
0000
0000
0010
0010
1000
0001
,  // measure 36
0010
0010
0001
1000
0001
0000
0101
0000
,  // measure 37
1000
0000
1100
0000
0100
0100
1000
0001
,  // measure 38
0100
0100
0001
1000
0001
0000
0011
0000
,  // measure 39
1000
0000
1010
0000
0010
1000
0100
0010
,  // measure 40
0001
0000
1000
0000
0001
0000
0010
0000
0002
0003
0000
0000
0002
0003
0000
0000
,  // measure 41
0002
0003
0000
0000
0002
0003
0000
0000
0100
0000
0001
0000
1000
0000
0100
0000
,  // measure 42
1000
0010
0100
0001
1000
0000
1001
0000
,  // measure 43
0000
0100
0011
0100
,  // measure 44
1001
0110
0020
0000
,  // measure 45
0030
0000
0200
0000
,  // measure 46
0300
0000
0002
0003
,  // measure 47
2000
3000
0100
0010
,  // measure 48
0001
0100
0001
1000
,  // measure 49
0010
0000
1000
0000
0001
0100
0010
1000
,  // measure 50
0100
1000
0010
0100
0001
0100
0001
0100
,  // measure 51
0001
1000
0100
0000
1000
0100
1000
0100
,  // measure 52
1000
0001
0100
0001
1000
0010
1000
0010
,  // measure 53
1000
0001
0010
0000
0001
0010
0001
0010
,  // measure 54
0001
1000
0010
0100
0001
0010
0001
0010
,  // measure 55
0001
1000
0100
0000
0010
0100
0010
0100
,  // measure 56
1000
0001
0100
0010
1000
0010
1000
0010
,  // measure 57
0100
0001
1000
0000
0100
1000
0100
1000
,  // measure 58
0001
0100
0010
1000
0200
0000
0300
0000
,  // measure 59
2000
3000
0020
0030
,  // measure 60
0200
0300
0002
0003
,  // measure 61
2000
0000
3000
0000
0010
1000
0001
0010
,  // measure 62
0010
0001
0010
0100
1000
0001
0100
0100
,  // measure 63
0001
1000
0010
0100
0010
0000
0000
0000
,  // measure 64
0000
0100
0000
1001
0000
0000
0000
0000
;

//---------------dance-single - ----------------
#NOTES:
     dance-single:
     :
     Beginner:
     3:
     0.240640,0.342765,0.116171,0.029043,0.000000,174.000000,162.000000,12.000000,3.000000,0.000000,0.000000,0.240640,0.342765,0.116171,0.029043,0.000000,174.000000,162.000000,12.000000,3.000000,0.000000,0.000000:
// measure 0
0000
0000
0000
0000
,  // measure 1
0000
0000
0000
0000
,  // measure 2
0000
0000
0000
0000
,  // measure 3
0000
0000
1001
0000
,  // measure 4
1001
0000
1001
0000
,  // measure 5
1001
0000
0001
0100
,  // measure 6
0010
0000
1000
0010
,  // measure 7
0100
0000
0001
0000
,  // measure 8
0001
0000
0100
0000
,  // measure 9
0100
0000
0010
1000
,  // measure 10
0001
0100
0001
0000
,  // measure 11
0000
0000
1000
0001
,  // measure 12
0100
0010
1000
0100
,  // measure 13
1000
0100
0010
0000
,  // measure 14
0001
0000
1000
0000
,  // measure 15
0100
0000
0010
0100
,  // measure 16
1000
0000
0001
0100
,  // measure 17
0010
0000
1000
0000
,  // measure 18
1000
0000
0010
0000
,  // measure 19
0010
0000
0100
0001
,  // measure 20
1000
0010
0100
0000
,  // measure 21
0000
0000
0000
0000
0001
0000
0100
0100
,  // measure 22
0001
0000
1000
0000
0001
0000
0010
0010
,  // measure 23
0100
1000
0001
0100
,  // measure 24
0100
0010
1000
0010
,  // measure 25
0100
0001
1000
0100
,  // measure 26
0010
0001
0010
0000
,  // measure 27
0010
0000
0001
0000
,  // measure 28
0001
0000
1000
0100
,  // measure 29
0010
0001
1000
0000
,  // measure 30
1000
0000
0001
0000
,  // measure 31
0001
0000
0100
0000
,  // measure 32
0100
0000
0010
1000
,  // measure 33
0001
0100
0010
0000
,  // measure 34
0010
0000
1001
0000
,  // measure 35
0000
0000
0010
0000
,  // measure 36
0001
0000
1000
1100
,  // measure 37
0000
0101
0010
0000
,  // measure 38
0001
0000
1000
1100
,  // measure 39
0000
0101
1000
0010
,  // measure 40
0100
0001
0010
0000
,  // measure 41
0010
0000
2002
0000
,  // measure 42
3003
0000
0010
0001
,  // measure 43
0000
1000
0100
0000
,  // measure 44
0010
0000
0001
0000
,  // measure 45
0000
0000
0001
0000
,  // measure 46
0000
0000
0001
0000
,  // measure 47
0001
0000
1000
0000
,  // measure 48
0100
0000
0010
0000
,  // measure 49
0001
0000
0200
0000
,  // measure 50
0000
0300
0010
0100
,  // measure 51
0001
0000
1000
0100
,  // measure 52
0010
0000
0001
0010
,  // measure 53
0100
0000
1000
0001
,  // measure 54
0100
0000
0010
0100
,  // measure 55
0001
0000
1000
0100
,  // measure 56
0010
0000
0001
0010
,  // measure 57
0100
0000
1000
0001
,  // measure 58
0100
0010
1000
0000
,  // measure 59
1000
0000
0100
0000
,  // measure 60
0100
0000
0010
0000
,  // measure 61
0010
0000
0001
0100
,  // measure 62
0001
0001
1000
0100
,  // measure 63
0010
0001
0011
0000
,  // measure 64
0000
0100
0000
1001
0000
0000
0000
0000
;
