#TITLE:Radezky Can Can;
#SUBTITLE:;
#ARTIST:F2 Systems;
#TITLETRANSLIT:;
#SUBTITLETRANSLIT:;
#ARTISTTRANSLIT:;
#GENRE:Classical Crossover;
#CREDIT:;
#BANNER:Radezky Can Can-bn.jpg;
#BACKGROUND:Radezky Can Can.jpg;
#LYRICSPATH:;
#CDTITLE:;
#MUSIC:Can Can ver4.ogg;
#OFFSET:-0.078091;
#SAMPLESTART:22.097000;
#SAMPLELENGTH:12.000000;
#SELECTABLE:YES;
#DISPLAYBPM:197.000000;
#BPMS:0.000000=196.350006
,110.000000=197.500000
,194.000000=197.199997
;
#STOPS:
;
#BGCHANGES:0.000=Can Can ver4.avi=1.000=0=0=0=StretchNoLoop====,
99999=-nosongbg-=1.000=0=0=0 // don't automatically add -songbackground-
;
#KEYSOUNDS:;
#ATTACKS:;

//---------------dance-single - ----------------
#NOTES:
     dance-single:
     :
     Challenge:
     15:
     0.829201,1.000000,0.798248,0.159650,0.153948,425.000000,70.000000,14.000000,0.000000,0.000000,0.000000,0.829201,1.000000,0.798248,0.159650,0.153948,425.000000,70.000000,14.000000,0.000000,0.000000,0.000000:
0000
0000
0000
0000
,
0000
0000
0000
0000
,
0002
0000
0003
0000
1000
0010
0100
0001
,
1000
0000
1010
0000
1000
0001
0010
0100
,
1000
0000
1100
0000
1000
0010
0100
0001
,
0000
0010
0001
0010
0100
1000
0100
0010
,
0002
0000
0003
0000
0100
0010
0100
0001
,
0010
0000
0011
0000
1000
0001
0010
0001
,
1010
0000
0001
0000
1010
0001
0100
0001
,
1010
0001
1100
0001
0010
0000
1001
0000
,
2000
0000
3000
0000
0001
0010
0100
1000
,
0001
0000
0011
0000
0001
1000
0010
0100
,
0001
0000
0101
0000
0001
0010
0100
1000
,
0000
0100
1000
0100
0010
0001
0010
0100
,
2000
0000
3000
0000
0100
0010
0100
1000
,
0010
0000
1010
0000
0001
1000
0010
1000
,
0011
0000
1000
0000
0011
1000
0100
1000
,
0011
1000
0101
1000
0010
0000
1001
0000
,
0010
1000
0001
0010
1000
0010
0001
1000
,
0010
0000
1010
0000
1000
0011
0011
0000
,
1000
0000
0001
0000
0100
0010
0100
0001
,
1000
0100
0010
0001
0010
0100
1000
0100
,
0010
0001
1000
0010
0001
0010
1000
0001
,
0010
0000
0011
0000
0001
1010
1010
0000
,
0001
0000
1000
0000
0100
0010
0100
1000
,
0001
0010
0100
1000
0100
0000
1001
0000
,
0001
0000
0011
0000
,
0101
0000
1001
0000
,
0100
0000
0110
0000
,
0001
0011
0101
1001
,
0002
0000
0000
0003
1000
0010
0100
0001
,
1000
0000
1100
0000
0100
1000
0001
0010
,
0100
0000
0110
0000
0100
0010
0001
0010
,
0100
1000
0100
0010
0001
0010
0100
1000
,
0002
0000
0000
0003
1000
0100
0001
0100
,
1000
0000
1001
0000
0001
1100
1100
0001
,
0010
0000
0011
0000
0010
0001
0010
0100
,
1000
0101
1000
0011
1000
0000
0101
0000
,
2000
0000
0000
3000
0001
0010
0100
1000
,
0001
0000
0101
0000
0100
0001
1000
0010
,
0100
0000
0110
0000
0010
0100
1000
0100
,
0010
0001
0010
0100
1000
0100
0010
0001
,
2000
0000
0000
3000
0001
0100
1000
0100
,
0001
0000
1001
0000
1000
0101
0101
1000
,
0010
0000
1010
0000
0010
1000
0010
0100
,
0001
1100
0001
1010
0001
0000
1100
0000
,
0011
0100
0001
0000
1100
0010
1000
0000
,
0011
0100
0001
0000
1100
0010
1000
0000
,
0010
1000
0001
0100
0010
1000
0001
0100
,
1001
0000
0000
0000
1001
0000
0000
0000
1001
0000
0000
0000
1001
0000
1000
0010
,
1000
0000
1000
0100
1000
0000
1000
0010
1000
0000
0001
0000
0001
0000
1000
0100
,
0010
0000
0001
0100
0001
0000
1000
0100
0010
0000
0001
0000
1000
0000
0000
0000
,
0002
0000
0000
0003
2000
0000
0000
3000
,
0100
0000
0010
0000
0100
0000
1000
0000
0001
0000
0011
0000
0101
0000
0100
0010
,
0100
0000
0010
0100
0010
0000
1000
0100
1000
0000
0010
0000
0010
0000
1000
0100
,
1000
0000
1000
0010
1000
0000
0100
0010
0100
0000
1000
0000
1000
0000
0100
0000
,
0010
0100
0010
0000
0001
0010
0001
0000
,
0001
0100
0001
0000
0100
0000
0000
0000
1001
0000
1001
0000
1001
0000
0001
0010
,
0001
0000
0001
0100
0001
0000
0001
0010
0001
0000
1000
0000
1000
0000
0001
0100
,
0010
0000
1000
0100
1000
0000
0001
0100
0010
0000
1000
0000
0001
0000
0000
0000
,
2000
0000
0000
3000
0002
0000
0000
0003
,
0100
0000
0010
0000
0100
0000
0001
0000
1000
0000
1010
0000
1100
0000
0100
0010
,
0100
0000
0010
0100
0010
0000
0001
0100
0001
0000
0010
0000
0010
0000
0001
0100
,
0001
0000
0001
0010
0001
0000
0100
0010
0100
0000
0001
0000
0001
0000
0100
0000
,
0010
0100
0010
0000
1000
0010
1000
0000
,
1000
0100
1000
0000
0100
0000
0000
0000
1001
0000
1001
0000
1001
0000
0100
0000
,
0010
0100
0010
0000
0001
0010
0001
0000
,
0001
0100
0001
0000
0100
0000
0000
0000
1001
0000
1001
0000
1001
0000
0000
0000
,
0220
0000
0330
0000
;

//---------------dance-single - ----------------
#NOTES:
     dance-single:
     :
     Hard:
     13:
     0.726569,0.738023,0.239475,0.034211,0.045614,422.000000,21.000000,3.000000,0.000000,0.000000,0.000000,0.726569,0.738023,0.239475,0.034211,0.045614,422.000000,21.000000,3.000000,0.000000,0.000000,0.000000:
0000
0000
0000
0000
,
0000
0000
0000
0000
,
1000
0000
0001
0000
1000
0010
1000
0010
,
1000
0000
0100
0000
0010
0001
0010
0001
,
0010
0000
0100
0000
1000
0100
0010
0001
,
0010
0100
1000
0100
0010
0001
0010
0100
,
1000
0000
0010
0000
0100
0001
0100
0001
,
0100
0000
0010
0000
1000
0100
1000
0100
,
1000
0000
0010
0000
0100
0010
1000
0001
,
0100
0010
1000
0100
0010
0001
1000
0100
,
0001
0100
1000
0001
0010
1000
0010
0100
,
1000
0001
0100
0010
0100
0001
0100
0010
,
1000
0001
0100
0001
1000
0100
1000
0001
,
1000
0100
0010
0001
0010
0100
1000
0100
,
0010
0100
0010
0001
0100
1000
0100
0010
,
1000
0001
0100
0001
0010
0001
0100
0010
,
1000
0001
1000
0100
0010
0001
0100
0010
,
1000
0100
0010
0001
0010
0100
1000
0000
,
2001
0010
0100
0010
,
0100
0000
3001
0000
0100
0010
0100
0010
,
0100
0000
0100
0000
0001
0010
0100
1000
,
0100
0010
0001
0010
0100
1000
0100
0010
,
1002
0100
0010
1000
,
0100
0000
1003
0000
0001
1000
0001
1000
,
0001
0000
0100
0000
0001
0010
0100
1000
,
0100
0010
0001
0010
0100
1000
0100
0000
,
0001
0000
1100
0000
,
0011
0000
1001
0000
,
0100
0000
0010
0000
,
1100
0001
1001
0110
,
0010
1000
0100
0001
0100
1000
0010
0100
,
0001
1000
0100
0010
0001
0100
0010
1000
,
0001
0100
1000
0100
0010
1000
0100
0010
,
0001
0010
0100
1000
0100
0010
0001
0010
,
0100
0010
0001
1000
0010
0100
0001
1000
,
0100
0000
1001
0000
0001
0010
0001
0010
,
0001
0000
0110
0000
0010
0100
1000
0000
,
0200
1000
0001
1300
,
0010
0100
0001
1000
0100
0010
0001
0100
,
1000
0100
0010
1000
0100
0010
1000
0010
,
0001
0100
1000
0100
0001
0010
0100
1000
,
0100
0010
0001
0010
0100
1000
0100
0010
,
0001
0000
0110
0000
1000
0010
0100
0001
,
0010
0100
1000
0000
0001
0100
0010
1000
,
0100
0010
0001
0000
0100
0010
1000
0100
,
1000
0100
0010
0001
0010
0100
1000
0000
,
0101
0000
1100
0000
,
0011
0100
1001
0000
,
0010
0000
0100
0000
,
0000
0000
0000
0000
,
0001
0100
0001
1000
0100
1000
0001
0000
,
1000
0010
1000
0001
0010
0001
1000
0000
,
1000
0100
0001
0000
0001
0100
1000
0000
,
0001
0010
1000
0010
0001
0010
1000
0000
,
0010
0001
0100
0001
0010
0100
1000
0000
,
0010
1000
0100
1000
0010
0100
0001
0000
,
1000
0100
0010
0000
0001
0100
0010
0000
,
1000
0001
1000
0010
0100
0100
0100
0000
,
0010
0000
1000
0000
0010
0000
1000
0000
0100
1000
0100
1000
0100
0000
0000
0000
,
0010
0000
0001
0000
0010
0000
0001
0000
0100
0001
0100
0001
0100
0000
0000
0000
,
0001
1000
0100
0000
1000
0001
0100
0000
,
0010
0100
0001
1000
0001
0100
0010
0000
,
1000
0000
0100
0000
1000
0000
0100
0000
0010
0001
0010
0001
0010
0000
0000
0000
,
0001
0000
0100
0000
0001
0000
0100
0000
0010
1000
0010
1000
0010
0000
0000
0000
,
1000
0001
0010
0000
0100
1000
0001
0000
,
0100
0010
1000
0100
0010
0010
0010
0000
,
0011
0101
1010
1100
,
1000
0100
0010
0001
1000
0100
0011
0000
,
1000
0110
0000
0000
0000
0000
0000
0000
;

//---------------dance-single - ----------------
#NOTES:
     dance-single:
     :
     Medium:
     12:
     0.697246,0.695331,0.250878,0.022807,0.000000,404.000000,22.000000,2.000000,0.000000,0.000000,0.000000,0.697246,0.695331,0.250878,0.022807,0.000000,404.000000,22.000000,2.000000,0.000000,0.000000,0.000000:
// measure 0
0000
0000
0000
0000
,  // measure 1
0000
0000
0000
0000
,  // measure 2
1000
0000
0001
0000
1000
0010
1000
0010
,  // measure 3
1000
0000
0100
0000
0001
0010
0001
0010
,  // measure 4
0001
0000
0100
0000
0001
0010
0100
1000
,  // measure 5
0100
0010
0001
0010
0100
1000
0100
0010
,  // measure 6
0001
0010
0001
1000
0001
1000
0100
1000
,  // measure 7
0000
1000
0000
0001
0000
0001
0010
1000
,  // measure 8
0010
0001
0100
0001
1000
0100
0010
1000
,  // measure 9
0010
0001
0010
0100
0010
1000
0100
0001
,  // measure 10
0100
1000
0000
0100
0010
0001
1000
0100
,  // measure 11
0010
0001
1000
0001
0100
0010
1001
0100
,  // measure 12
0010
0100
1000
0100
0010
0100
0010
0001
,  // measure 13
0010
0100
1000
0100
0010
0001
0010
0100
,  // measure 14
1000
0010
0001
1000
0100
0001
1000
0001
,  // measure 15
1000
0100
0010
1000
0010
0100
1001
0100
,  // measure 16
0001
0010
0100
1000
0010
0001
1000
0001
,  // measure 17
0010
0100
1000
0100
0010
0001
0010
0000
,  // measure 18
2001
0100
0010
0001
,  // measure 19
0100
0000
3010
0000
1000
0001
1000
0001
,  // measure 20
1000
0000
1000
0000
0100
0001
0010
0100
,  // measure 21
1000
0100
0010
0001
0010
0100
1000
0100
,  // measure 22
1002
0100
0010
1000
,  // measure 23
0100
0000
0013
0000
0001
1000
0001
1000
,  // measure 24
0000
1000
0000
0000
0001
0010
0100
1000
,  // measure 25
0100
0010
0001
0010
0100
1000
0100
0000
,  // measure 26
1000
0000
0110
0000
,  // measure 27
1010
0000
0000
0000
,  // measure 28
0000
0000
0000
0000
,  // measure 29
1010
0100
0011
1001
,  // measure 30
0100
0001
1000
0010
0001
0100
0001
0010
,  // measure 31
1000
0010
0001
0100
1000
0100
0001
0010
,  // measure 32
1000
0010
0001
0010
0100
0010
0001
0010
,  // measure 33
0100
1000
0100
0010
0001
0010
0100
1000
,  // measure 34
0100
0001
0100
1000
0001
0100
0010
1000
,  // measure 35
0000
0001
0000
1000
0010
1000
0010
0000
,  // measure 36
0001
0000
0100
0001
0010
0100
1000
0000
,  // measure 37
0100
0010
0001
0100
,  // measure 38
0100
1000
0001
0010
1000
0001
1000
0010
,  // measure 39
0001
0010
1000
0100
0010
0100
1000
0010
,  // measure 40
0001
0010
1000
0010
0001
0010
0100
1000
,  // measure 41
0100
0010
0001
0010
0100
1000
0100
0010
,  // measure 42
0000
0100
0001
0010
0001
0000
0010
0000
,  // measure 43
1000
0100
1001
0010
,  // measure 44
1000
0001
0010
0100
1000
0100
0010
0001
,  // measure 45
0010
0100
1000
0000
0010
0000
0100
0000
,  // measure 46
1010
0000
0101
0000
,  // measure 47
1010
0001
0110
0000
,  // measure 48
0011
0000
1100
0000
,  // measure 49
0000
0000
0000
0000
,  // measure 50
0100
0010
0100
0010
0100
1000
0000
0100
,  // measure 51
0010
0100
0010
0100
0001
0000
1000
0010
,  // measure 52
0001
0000
0001
0010
1000
0000
1000
0010
,  // measure 53
0001
1000
0100
0001
1000
0010
0001
1000
,  // measure 54
0010
1000
0010
1000
0010
0100
0000
0001
,  // measure 55
0010
0001
0010
0001
0010
0100
0000
1000
,  // measure 56
0100
0001
0000
0001
0100
1000
0000
0000
,  // measure 57
1000
0100
0001
0000
0100
0100
0100
0000
,  // measure 58
1000
0001
1000
0001
1000
0001
0010
0000
,  // measure 59
0001
1000
0001
1000
0001
1000
0001
0010
,  // measure 60
1000
0000
0000
1000
0010
0001
1000
0001
,  // measure 61
0010
1000
0010
0001
0100
0010
1000
0000
,  // measure 62
0100
0010
0100
0010
0100
1000
0000
0100
,  // measure 63
0010
0100
0010
0100
0001
0000
0100
0010
,  // measure 64
1000
0010
0100
0001
0100
0010
1000
0000
,  // measure 65
1000
0100
0001
0000
0100
0100
0100
0000
,  // measure 66
0101
1010
1100
0011
,  // measure 67
0100
1000
0001
0000
0100
0011
1100
0000
;
