#TITLE:Poseidon;
#SUBTITLE:;
#ARTIST:Quree;
#TITLETRANSLIT:;
#SUBTITLETRANSLIT:;
#ARTISTTRANSLIT:;
#GENRE:;
#CREDIT:;
#BANNER:Poseidon-banner.png;
#BACKGROUND:Poseidon-background.png;
#LYRICSPATH:;
#CDTITLE:;
#MUSIC:Poseidon.ogg;
#OFFSET:0.172000;
#SAMPLESTART:15.188336;
#SAMPLELENGTH:12.000000;
#SELECTABLE:YES;
#BPMS:0.000000=160.000000
,129.000000=80.000000
,145.000000=120.000000
,169.000000=160.000000
;
#STOPS:
;
#BGCHANGES:0.000=Poseidon.avi=1.000=0=0=0=StretchNoLoop====,
99999=-nosongbg-=1.000=0=0=0 // don't automatically add -songbackground-
;
#KEYSOUNDS:;
#ATTACKS:;

//---------------dance-single - ----------------
#NOTES:
     dance-single:
     :
     Hard:
     11:
     0.698856,0.866627,0.144633,0.986906,0.438152,575.000000,558.000000,17.000000,116.000000,0.000000,0.000000,0.698856,0.866627,0.144633,0.986906,0.438152,575.000000,558.000000,17.000000,116.000000,0.000000,0.000000:
0000
0000
0000
0000
,
0000
0000
0000
0000
,
0000
2000
0100
0000
,
3100
0002
0100
0000
,
0103
2000
0010
0000
,
3010
0002
0010
0000
,
0013
2001
0100
0010
,
3100
0002
0100
0010
,
0103
0000
0000
0000
0010
0000
0100
0000
1000
0100
1000
0000
0010
0000
0100
0000
,
0001
0100
0001
0000
2000
0000
3010
0000
0002
0000
0013
0000
1000
0000
0010
0000
,
1000
0001
0100
0001
1000
0000
0100
0000
0010
0000
0100
0000
1000
0000
0010
0000
,
0100
0001
0010
0100
1000
0001
1000
0100
,
0010
0001
0100
0001
0010
0100
1000
0010
,
0100
0001
1000
0001
0100
0010
1000
0100
,
1000
0001
0100
0010
0001
0010
0100
0001
,
1000
0100
0010
1000
0010
0100
1000
0010
,
0100
0001
1000
0100
0002
0003
0100
1000
,
0010
0100
0001
0010
1000
0010
0001
1000
,
0001
0010
0100
1000
0001
0000
0100
0000
0010
0000
0100
0000
0001
0000
0010
0000
,
0100
1000
0010
0100
0001
1000
0001
0100
,
0010
1000
0100
1000
0010
0100
0001
0010
,
0100
1000
0001
1000
0100
0010
0001
0100
,
0001
1000
0100
0010
1000
0010
0100
1000
,
0001
0100
0010
0001
0010
0100
0001
0100
,
0010
0000
1000
0000
0200
0300
2000
3000
0002
0003
0200
0300
0020
0030
0002
0003
,
0020
0030
0200
0300
0002
0003
0020
0030
0200
0300
2000
3000
0001
0010
0001
0010
,
0001
0010
0001
0010
0002
0003
2000
3000
0200
0300
0020
0030
2000
3000
0020
0030
,
0200
0300
2000
3000
0020
0030
0200
0300
0002
0003
0200
0300
0001
1000
0001
1000
,
0001
1000
0001
1000
0200
0300
0020
0030
0002
0003
2000
3000
0020
0030
0002
0003
,
0020
0030
2000
3000
0002
0003
0200
0300
0020
0030
2000
3000
0010
1000
0010
1000
,
0010
1000
0010
1000
0002
0003
0200
0300
0002
0003
0020
0030
2000
3000
0020
0030
,
0002
0003
1000
0000
1001
0000
0000
0100
0000
0000
0011
0000
0000
0100
0000
0000
,
1000
0010
0100
0001
2000
0000
0000
3000
0002
0000
0000
0003
0200
0000
0000
0300
,
0020
0030
2000
3000
0002
0000
0000
0003
2000
0000
0000
3000
0200
0000
0000
0300
,
0020
0030
0002
0003
2000
0000
0100
0000
0000
0000
3100
0000
0002
0000
0100
0000
,
0000
0000
0103
0000
2000
0000
3010
0000
0002
0000
0013
0000
1000
1000
0010
0010
,
0100
0001
0100
0001
0100
0001
0100
0001
1000
0000
0000
0000
0000
0000
0010
0000
0000
0000
0000
0000
1010
0000
0000
0000
0000
0000
0001
0000
0000
0000
0000
0000
,
1000
0000
0000
0100
0000
0000
0010
0000
0000
0100
0000
0000
1000
0000
0000
0000
0000
0000
1100
0000
0000
0000
0000
0000
0001
0000
0000
0000
0000
0000
0010
0000
,
0000
0000
0000
0000
0011
0000
0000
0000
0000
0000
1000
0000
0000
0000
0000
0000
0001
0000
0000
0100
0000
0000
0010
0000
0000
0100
0000
0000
0001
0000
0000
0000
,
0000
0101
0000
0000
1000
0000
0000
0100
0000
0000
1100
0000
0000
1000
0000
0000
,
0010
0000
0000
1000
0000
0000
0001
0000
0000
0100
0000
0000
0001
0000
0000
1000
0000
0000
0010
0000
0000
0100
0000
0000
0001
0000
0000
0000
0000
0000
0101
0000
,
0000
0000
0000
0000
1000
0000
0000
0000
0000
0000
1100
0000
0000
0000
0000
0000
0001
0000
0000
0010
0000
0000
0100
0000
0000
1000
0000
0000
0001
0000
0000
1000
,
0000
0000
0000
0000
0001
0000
0000
0010
0000
0000
0100
0000
0000
1000
0000
0000
0001
0000
0000
0000
0000
0000
0000
0000
0100
0000
0000
0000
0000
0000
0000
0000
0010
0000
0000
0000
0000
0000
0000
0000
0100
0000
0000
0000
0000
0000
0000
0000
0001
0000
0000
0000
0000
0000
0000
0000
0010
0000
0000
0000
0000
0000
0000
0000
,
0100
1000
0010
0100
0001
1000
0001
0100
,
0010
1000
0100
1000
0010
0100
0001
0010
,
0100
1000
0001
1000
0100
0010
0001
0100
,
0001
1000
0100
0010
1000
0010
0100
1000
,
0001
0100
0010
0001
0010
0100
0001
0010
,
0100
1000
0001
0100
2000
3000
0100
0001
,
0010
0100
1000
0010
0001
0010
1000
0001
,
1000
0010
0100
0001
1000
0000
0100
0000
0010
0000
0100
0000
1000
0000
0010
0000
,
0100
0001
0010
0100
1000
0001
1000
0100
,
0010
0001
0100
0001
0010
0100
1000
0010
,
0100
0001
1000
0001
0100
0010
1000
0100
,
1000
0001
0100
0010
0001
0010
0100
0001
,
1000
0100
0010
1000
0010
0100
1000
0001
,
1000
0000
0010
0000
0200
0300
0002
0003
2000
3000
0200
0300
0020
0030
2000
3000
,
0002
0003
2000
3000
0020
0030
0200
0300
2000
3000
0002
0003
1000
0010
1000
0010
,
1000
0010
1000
0010
2000
3000
0002
0003
0200
0300
0020
0030
0002
0003
2000
3000
,
0002
0003
0020
0030
0200
0300
0002
0003
2000
3000
0200
0300
1000
0001
1000
0001
,
1000
0001
1000
0001
0200
0300
0002
0003
2000
3000
0020
0030
0002
0003
2000
3000
,
0002
0003
0020
0030
2000
3000
0200
0300
0020
0030
0002
0003
0010
0001
0010
0001
,
0010
0001
0010
0001
2000
3000
0002
0003
0020
0030
2000
3000
0002
0003
2000
3000
,
0020
0030
0002
0003
1000
0100
1000
0100
1000
0100
1000
0001
0100
0001
0100
0001
,
0100
0001
1000
0001
0010
0000
0000
0011
0000
0000
1010
0000
0000
1001
0000
0000
,
1000
0000
0010
0100
0001
0100
0000
0100
0001
0000
1000
0100
0000
0100
1000
0000
,
0001
0010
0100
1000
0001
0000
0101
0000
0001
1000
0100
0000
1000
0000
1100
0000
,
1000
0001
0100
0000
0001
0010
0100
1000
0001
0100
0010
1000
0100
1000
0010
0100
,
0001
0010
0100
1000
0002
0000
0003
0000
1001
0000
0100
2000
0002
3000
0003
0000
,
1001
0000
1000
0200
0020
0000
0000
0000
0000
0000
0000
0000
0000
0000
0000
0000
,
0000
0000
0000
0300
0030
0000
0000
0000
0000
0000
0000
0000
0000
0000
0000
0000
;

//---------------dance-single - ----------------
#NOTES:
     dance-single:
     :
     Challenge:
     15:
     1.103585,1.075813,0.102094,0.340313,1.799403,908.000000,896.000000,12.000000,40.000000,0.000000,0.000000,1.103585,1.075813,0.102094,0.340313,1.799403,908.000000,896.000000,12.000000,40.000000,0.000000,0.000000:
0000
0000
0000
0000
,
0000
0000
0000
0000
,
0000
0000
2000
0000
0010
0100
0000
0100
,
3010
0000
0002
0000
0010
0100
0000
0100
,
0013
0000
2000
0000
0100
0010
0000
0010
,
3100
0000
0002
0000
0100
0010
0000
0010
,
0103
0000
0021
0000
0100
1000
0000
1000
,
0130
0000
0020
0000
0100
0001
0000
0001
,
0130
0000
0000
0000
1010
0000
0100
0000
0001
0100
0010
1000
0001
1000
0100
0010
,
0001
0010
0100
1000
0002
0003
1000
0010
0002
0003
0010
1000
0001
0100
0010
0100
,
0001
1000
0001
0010
0100
1000
0001
0100
0010
1000
0100
1000
0001
0100
0010
0100
,
0001
1000
0100
0010
0001
0100
0001
1000
0001
0010
0100
1000
0001
0100
0010
1000
,
0100
1000
0001
1000
0010
0100
0001
1000
0100
0010
0001
0100
0001
1000
0100
0010
,
0100
1000
0001
0100
0010
1000
0100
1000
0001
1000
0010
0100
0001
1000
0100
0010
,
0001
0100
0001
1000
0001
0010
0100
1000
0001
1000
0100
0010
0001
0100
0001
0010
,
0100
1000
0010
0100
0001
1000
0001
0100
0010
1000
0100
1000
0010
0100
0001
0010
,
0100
1000
0001
0100
0020
0030
2000
3000
0002
0003
0020
0030
2000
3000
0020
0030
,
0002
0003
2000
3000
0002
0000
0013
0000
2000
0000
3010
0000
1000
0010
0100
0001
,
1000
0010
0100
0001
0100
0001
1000
0100
0010
0001
0100
0001
1000
0100
0010
0100
,
1000
0001
0100
0010
1000
0100
1000
0001
1000
0010
0100
0001
1000
0100
0010
0001
,
0100
0001
1000
0001
0010
0100
1000
0001
0100
0010
1000
0100
1000
0001
0100
0010
,
0100
0001
1000
0100
0010
0001
0100
0001
1000
0001
0010
0100
1000
0001
0100
0010
,
1000
0100
1000
0001
1000
0100
1000
0001
0100
0010
1000
0100
1000
0010
0100
0001
,
0010
0100
1000
0001
0100
0010
1000
0100
0010
0001
0100
0010
0100
0001
0010
0100
,
1000
0010
0100
0001
0010
0100
1000
0001
0100
0010
0001
0010
0100
0001
0010
0100
,
1000
0010
0100
0001
1000
0100
1000
0001
0100
0010
1000
0100
1000
0001
0100
0001
,
1000
0100
0010
0001
0100
0001
1000
0100
0010
1000
0010
0100
1000
0010
0100
0001
,
0010
0100
1000
0001
0100
0001
1000
0100
0010
0001
0100
0001
1000
0100
1000
0001
,
0100
0010
1000
0001
0100
0010
1000
0010
0100
0001
1000
0100
0010
1000
0010
0001
,
1000
0100
0010
0001
0100
0001
1000
0100
0010
0001
0100
0001
0010
0100
1000
0001
,
0100
0010
1000
0100
1000
0010
0100
0001
0100
0010
0001
0010
1000
0010
0100
0001
,
0100
0001
0010
0100
1000
0010
0001
0010
0100
0001
0010
1000
0010
0100
1000
0010
,
0100
0001
0010
0100
2000
0000
0100
0000
0000
0000
0100
0000
0000
0000
0100
0000
,
0000
3100
0002
0100
0000
0100
0000
0100
,
0000
0103
2000
0010
0000
3010
0002
0010
,
0000
0000
0013
0000
2000
0000
3001
0000
0002
0000
1003
0000
1000
1000
0010
0010
,
0100
0001
0100
0001
0100
0001
0100
0001
1000
0000
0000
0000
0000
0000
0010
0000
0000
0000
0000
0000
1010
0000
0000
0000
0000
0000
0010
0000
0000
1000
0000
0000
,
0001
0000
0000
0010
0000
0000
1000
0000
0000
0010
0000
0000
0001
0000
0000
1000
0000
0000
0100
0000
0000
0010
0000
0000
0001
0000
0000
0000
0000
0000
0010
0000
,
0000
0000
0000
0000
0011
0000
0000
0000
0000
0000
0010
0000
0000
0001
0000
0000
1000
0000
0000
0010
0000
0000
0001
0000
0000
0010
0000
0000
1000
0000
0000
0001
,
0000
0000
1000
0000
0000
0010
0000
0000
0100
0000
0000
0000
0000
0000
0001
0000
0000
0000
0000
0000
0101
0000
0000
0000
0000
0000
1000
0000
0000
0100
0000
0000
,
0010
0000
0000
1000
0000
0000
0010
0000
0000
0001
0000
0000
0010
0000
0000
0100
0000
0000
1000
0000
0000
0100
0000
0000
1000
0000
0000
0001
0000
0000
1001
0000
,
0000
0000
1000
0000
0000
0000
0000
0000
0100
0000
0000
0000
0000
0000
0010
0000
0000
0000
0000
0000
0110
0000
0000
0000
0000
0000
0100
0000
0000
0000
0000
0000
1000
0000
0000
0000
0000
0000
0001
0000
0000
0000
0000
0000
1000
0000
0000
0010
0000
0000
0100
0000
0000
0001
0000
0000
1000
0000
0000
0100
0000
0000
0010
0000
,
0000
0100
0000
0000
1000
0000
0000
0010
0000
0000
0100
0000
0000
0001
0000
0000
0010
0000
0000
0000
0100
0000
0000
0000
1000
0000
0000
0000
0001
0000
0000
0000
0100
0000
0000
0000
0010
0000
0000
0000
1000
0000
0000
0000
0100
0000
0000
0000
0001
0000
0000
0000
0100
0000
0000
0000
1000
0000
0000
0000
0010
0000
0000
0000
,
0100
0001
1000
0100
0010
0001
0100
0001
1000
0010
0001
0010
1000
0001
0100
0010
,
1000
0100
1000
0010
0100
0001
1000
0100
0010
0001
0100
1000
0100
0001
0010
0100
,
1000
0001
0100
0010
1000
0100
1000
0001
0010
1000
0010
0001
1000
0100
0010
0001
,
0100
0001
0010
0100
1000
0010
1000
0100
0010
1000
0010
0100
1000
0010
0100
0001
,
1000
0100
0010
0001
0100
0010
0001
0010
0100
0001
0010
0100
1000
0010
0100
0001
,
1000
0100
0010
0001
2000
3000
0020
0030
0002
0003
0020
0030
2000
3000
0002
0003
,
0200
0300
0020
0030
2000
0000
3010
0000
0002
0000
0013
0000
0001
0010
0100
1000
,
0001
0010
0100
1000
0010
0100
0001
1000
0100
0010
0001
0100
1000
0100
0001
0010
,
0100
1000
0001
0100
0010
1000
0100
1000
0001
0010
1000
0010
0001
1000
0100
0010
,
0001
0100
0001
0010
0100
1000
0001
0100
0010
1000
0100
0001
0100
1000
0010
0100
,
0001
1000
0100
0010
0001
0100
0001
1000
0010
0001
0010
1000
0001
0100
0010
1000
,
0100
1000
0010
0100
0001
0010
0001
0100
0010
0001
0010
0100
0001
0010
0100
1000
,
0001
0100
0010
1000
0100
0010
1000
0010
0100
1000
0010
0100
0001
0010
0100
1000
,
0100
0010
0001
1000
0001
0100
0010
0001
1000
0001
0010
0100
0001
0010
0100
0010
,
0001
0100
0010
0001
1000
0001
0010
0100
0001
0010
0100
1000
0010
0100
0001
1000
,
0100
0010
0001
1000
0100
0010
1000
0001
1000
0010
0100
1000
0010
0100
0010
1000
,
0100
0010
1000
0001
1000
0010
0100
1000
0010
0100
0001
0010
0100
1000
0001
0100
,
0010
1000
0001
1000
0010
0100
0001
0010
0100
0010
0001
0100
0010
0001
1000
0001
,
0010
0100
0001
0010
0100
0010
0001
0100
0010
0001
0010
1000
0001
0100
0010
1000
,
0100
1000
0001
0010
0100
1000
0010
0100
0010
1000
0100
0010
1000
0001
1000
0010
,
0100
1000
0010
0100
0001
0010
0100
1000
0001
0100
0010
0001
0010
1000
0010
0100
,
0001
0010
0100
1000
0100
0000
0000
1001
0000
0000
0110
0000
0000
1010
0000
0000
,
1000
0010
0100
0001
1000
0010
0001
0010
0100
0010
1000
0100
0010
0001
1000
0001
,
0010
1000
0010
0100
0010
0001
1000
0100
0010
1000
0010
0100
1000
0001
0100
0010
,
0001
0010
0100
0001
1000
0010
0001
1000
0001
0010
1000
0001
0010
1000
0001
1000
,
0010
0001
0100
0020
2000
0030
3000
0000
0110
0000
0100
0002
2000
0003
3000
0000
,
1001
0000
0001
0200
0020
0000
0000
0000
0000
0000
0000
0000
0000
0000
0000
0000
,
0000
0000
0000
0300
0030
0000
0000
0000
0000
0000
0000
0000
0000
0000
0000
0000
;

//---------------dance-single - ----------------
#NOTES:
     dance-single:
     :
     Medium:
     7:
     0.546931,0.597674,0.187172,0.051047,0.140379,450.000000,428.000000,22.000000,6.000000,0.000000,0.000000,0.546931,0.597674,0.187172,0.051047,0.140379,450.000000,428.000000,22.000000,6.000000,0.000000,0.000000:
0000
0000
0000
0000
,
0000
0000
0000
0000
,
0000
0000
1000
0000
,
1000
0000
0100
0000
,
0100
0000
0010
0000
,
0010
0000
0001
0000
,
0001
0011
0100
0000
,
0100
1100
0010
0000
,
0010
0000
1000
0010
0002
0003
0010
1000
,
0002
0003
1000
0100
0010
0001
1000
0001
,
0100
0010
1000
0010
1000
0000
0001
0010
,
0001
0000
1000
0100
0010
0100
1000
0100
,
0010
0000
0001
0010
0001
0000
1000
0010
,
1000
0000
0001
0100
0010
0100
0001
0100
,
0010
0000
1000
0010
0001
0000
0001
0010
,
1000
0000
1000
0001
0100
0010
1000
0100
,
1000
0001
0100
0010
0002
0003
0010
0100
,
0001
0010
0100
1000
0010
0100
0001
1000
,
0100
0010
0001
0010
0001
0000
1000
0010
,
1000
0000
0001
0100
0010
0100
0001
0100
,
0010
0000
1000
0010
1000
0000
0001
0010
,
0001
0000
1000
0100
0010
0100
1000
0100
,
0010
0000
0001
0010
1000
0000
1000
0010
,
0001
0000
1000
0100
0010
0100
1000
0001
,
0100
0010
1000
0100
0001
0100
1000
0010
,
0001
0010
1000
0010
0100
0001
0010
0000
,
1001
0000
0001
0100
1000
0100
0001
0010
,
1000
0010
0001
0010
0100
1000
0010
0000
,
1001
0000
0001
0010
1000
0010
0001
0100
,
1000
0100
0001
1000
0100
0010
0001
0000
,
1001
0000
1000
0010
0001
0010
1000
0100
,
0001
0100
1000
0001
0010
0100
1000
0010
,
0100
0001
0100
0000
0000
0000
0100
0000
,
0000
0001
0000
1000
,
0000
0100
0000
0100
,
0000
1000
1000
0001
,
1001
0000
0000
0000
0000
0000
0000
0000
1000
0000
0000
0000
0000
0000
0010
0000
0000
0000
0000
0000
1100
0000
0000
0000
0000
0000
0010
0000
0000
0100
0000
0000
,
1000
0000
0000
0010
0000
0000
0100
0000
0000
0001
0000
0000
1000
0000
0000
0000
0000
0000
1001
0000
0000
0000
0000
0000
0001
0000
0000
0000
0000
0000
0010
0000
,
0000
0000
0000
0000
0101
0000
0000
0000
0000
0000
0010
0000
0000
0100
0000
0000
0001
0000
0000
0010
0000
0000
0100
0000
0000
1000
0000
0000
0001
0000
0000
0000
,
0000
0000
1001
0000
0000
0000
0000
0000
1000
0000
0000
0000
0000
0000
0100
0000
0000
0000
0000
0000
1100
0000
0000
0000
0000
0000
1000
0000
0000
0100
0000
0000
,
0010
0000
0000
1000
0000
0000
0010
0000
0000
0001
0000
0000
1000
0000
0000
0100
0000
0000
0010
0000
0000
0100
0000
0000
1000
0000
0000
0000
0000
0000
1100
0000
,
0000
0000
0000
0000
0001
0000
0000
0000
0000
0000
0101
0000
0000
0000
0000
0000
0001
0000
0000
0100
0000
0000
0010
0000
0000
0001
0000
0000
0010
0000
0000
1000
,
0000
0000
0100
0000
0000
0010
0000
0000
0001
0000
0000
0000
0010
0000
0000
0000
0001
0000
0000
0000
0000
0000
0000
0000
1000
0000
0000
0000
0010
0000
0000
0000
,
1000
0000
0001
0100
0010
0100
0001
0100
,
0010
0000
1000
0010
1000
0000
0001
0010
,
0001
0000
1000
0100
0010
0100
1000
0100
,
0010
0000
0001
0010
1000
0000
1000
0010
,
0001
0000
0001
1000
0100
0010
0001
0100
,
0001
1000
0100
0010
2000
3000
0010
0100
,
1000
0010
0100
0001
0010
0100
1000
0001
,
0100
0010
1000
0010
1000
0000
0001
0010
,
0001
0000
1000
0100
0010
0100
1000
0100
,
0010
0000
0001
0010
0001
0000
1000
0010
,
1000
0000
0001
0100
0010
0100
0001
0100
,
0010
0000
1000
0010
0001
0000
0001
0010
,
1000
0000
0001
0100
0010
0100
0001
1000
,
0100
0010
0001
0100
1000
0100
0001
0010
,
1000
0010
0001
0010
0100
1000
0010
0000
,
1001
0000
1000
0100
0001
0100
1000
0010
,
0001
0010
1000
0010
0100
0001
0010
0000
,
1001
0000
1000
0010
0001
0010
1000
0100
,
0001
0100
1000
0001
0100
0010
1000
0000
,
1001
0000
0001
0010
1000
0010
0001
0100
,
1000
0100
0001
1000
0010
0100
0001
0010
,
0100
0000
1000
0000
1100
0000
0000
0100
0000
0000
0011
0000
0000
0010
0000
0000
,
1000
0001
0010
1000
0010
0001
1000
0010
,
0001
0010
1000
0010
0100
0001
0010
0100
,
1000
0010
0100
0001
0010
0100
1000
0010
,
0100
0001
1000
0000
1010
0100
1001
0000
,
1001
0100
0022
0000
0000
0000
0000
0000
,
0000
0033
0000
0000
;

//---------------dance-single - ----------------
#NOTES:
     dance-single:
     :
     Easy:
     4:
     0.336666,0.476438,0.297774,0.068063,0.068063,277.000000,242.000000,35.000000,8.000000,0.000000,0.000000,0.336666,0.476438,0.297774,0.068063,0.068063,277.000000,242.000000,35.000000,8.000000,0.000000,0.000000:
// measure 0
0000
0000
0000
0000
,  // measure 1
0000
0000
0000
0000
,  // measure 2
0000
0000
0000
0000
,  // measure 3
0000
0000
0000
0000
,  // measure 4
0000
0000
0000
0000
,  // measure 5
0000
0000
0000
0000
,  // measure 6
0000
0000
1000
0000
,  // measure 7
1000
0000
0100
0000
,  // measure 8
0100
1100
0000
0011
,  // measure 9
0000
0100
1000
0001
,  // measure 10
0100
0010
0000
0110
,  // measure 11
0000
0100
0001
1000
,  // measure 12
0100
0010
0000
0110
,  // measure 13
0000
0100
1000
0100
,  // measure 14
0010
0001
0000
0011
,  // measure 15
0000
0100
1000
0001
,  // measure 16
0100
0000
0001
0010
0001
0000
1000
0010
,  // measure 17
1000
0001
0100
0202
,  // measure 18
0303
0010
0000
0110
,  // measure 19
0000
0100
1000
0001
,  // measure 20
0100
0010
0000
0110
,  // measure 21
0000
0100
0001
0100
,  // measure 22
0010
1000
0000
1010
,  // measure 23
0000
0100
1000
0001
,  // measure 24
0100
0010
0100
0001
,  // measure 25
1000
0000
0100
0000
0010
0000
0001
0010
,  // measure 26
0001
0010
0100
1000
,  // measure 27
0001
0000
0100
0000
0010
0000
1000
0010
,  // measure 28
1000
0001
1000
0100
,  // measure 29
0010
0000
0001
0000
0100
0000
0001
0010
,  // measure 30
0100
1000
0100
0010
,  // measure 31
0001
0011
0100
1001
,  // measure 32
0100
1010
0000
1000
,  // measure 33
0000
0010
0000
0010
,  // measure 34
0000
0100
0001
0100
,  // measure 35
0100
0010
1000
2020
,  // measure 36
3030
0000
0000
0000
1000
0000
0000
0100
0000
0000
1100
0000
0000
1000
0000
0000
,  // measure 37
0001
0000
0000
0100
0000
0000
0101
0000
0000
0001
0000
0000
1000
0000
0000
0010
,  // measure 38
0000
0000
1010
0000
0000
1000
0000
0000
0001
0000
0000
0010
0000
0000
0011
0000
,  // measure 39
0000
0001
0000
0000
1000
0000
0000
0001
0000
0000
1001
0000
0000
0100
0000
0000
,  // measure 40
0010
0000
0000
1000
0000
0000
1010
0000
0000
0100
0000
0000
1000
0000
0000
1100
,  // measure 41
0000
0000
0001
0000
0000
0101
0000
0000
1000
0000
0000
0001
0000
0000
1000
0000
,  // measure 42
0000
0100
0000
0000
0010
0000
0000
0000
0000
0000
0000
0000
0110
0000
0000
0000
,  // measure 43
0000
0100
1000
0001
,  // measure 44
0100
0010
0000
0110
,  // measure 45
0000
0100
0001
0100
,  // measure 46
0010
1000
0000
1010
,  // measure 47
0000
0100
0001
1000
,  // measure 48
0100
0000
1000
0010
1000
0000
0001
0010
,  // measure 49
0001
1000
0100
2200
,  // measure 50
3300
0010
0000
0110
,  // measure 51
0000
0100
0001
1000
,  // measure 52
0100
0010
0000
0110
,  // measure 53
0000
0100
1000
0100
,  // measure 54
0010
0001
0000
0011
,  // measure 55
0000
0100
0001
1000
,  // measure 56
0100
0010
0100
1000
,  // measure 57
0001
0000
0100
0000
0010
0000
1000
0010
,  // measure 58
1000
0010
0100
0001
,  // measure 59
1000
0000
0100
0000
0010
0000
0001
0010
,  // measure 60
0001
1000
0001
0100
,  // measure 61
0010
0000
1000
0000
0100
0000
1000
0010
,  // measure 62
0100
0001
1000
0100
,  // measure 63
0010
0000
0001
0000
0100
0000
0001
0010
,  // measure 64
0100
1000
0001
0000
0101
0000
1000
0000
,  // measure 65
1100
1010
0100
1001
,  // measure 66
0100
0000
1000
0010
1000
0000
0001
0010
,  // measure 67
0001
0000
1000
0100
1000
0100
1000
0100
,  // measure 68
1000
0100
1100
0000
0010
0000
1001
0000
,  // measure 69
0010
0202
0000
0000
,  // measure 70
0303
0000
0000
0000
;

//---------------dance-single - ----------------
#NOTES:
     dance-single:
     :
     Beginner:
     2:
     0.175018,0.239070,0.212695,0.136125,0.000000,144.000000,119.000000,25.000000,16.000000,0.000000,0.000000,0.175018,0.239070,0.212695,0.136125,0.000000,144.000000,119.000000,25.000000,16.000000,0.000000,0.000000:
// measure 0
0000
0000
0000
0000
,  // measure 1
0000
0000
0000
0000
,  // measure 2
0000
0000
0000
0000
,  // measure 3
0000
0000
0000
0000
,  // measure 4
0000
0000
0000
0000
,  // measure 5
0000
0000
0000
0000
,  // measure 6
0000
1000
0000
1000
,  // measure 7
0000
0100
0000
0100
,  // measure 8
0000
1100
0000
0000
,  // measure 9
0000
0011
0000
0000
,  // measure 10
0000
1000
0000
0100
,  // measure 11
0000
1000
0000
1100
,  // measure 12
0000
0001
0000
0100
,  // measure 13
0000
0001
0000
0101
,  // measure 14
0000
1000
0000
0010
,  // measure 15
0000
1000
0000
1010
,  // measure 16
0000
0001
0000
1000
,  // measure 17
0000
2002
0000
3003
,  // measure 18
0000
0001
0000
0100
,  // measure 19
0000
0001
0000
0101
,  // measure 20
0000
1000
0000
0100
,  // measure 21
0000
1000
0000
1100
,  // measure 22
0000
0001
0000
0010
,  // measure 23
0000
0001
0000
0011
,  // measure 24
0000
0001
0000
1000
,  // measure 25
0000
0200
0000
0300
,  // measure 26
0000
1000
0000
0001
,  // measure 27
0000
0200
0000
0300
,  // measure 28
0000
0001
0000
1000
,  // measure 29
0000
0020
0000
0030
,  // measure 30
0000
1000
0000
0010
,  // measure 31
0000
0100
0000
0001
,  // measure 32
0000
1001
0000
1000
,  // measure 33
0000
0001
0000
0100
,  // measure 34
0000
0010
0000
1000
,  // measure 35
0000
0001
1000
2002
,  // measure 36
3003
0000
1000
0000
0000
0100
0000
0000
,  // measure 37
0010
0000
0000
0110
0000
0000
0001
0000
,  // measure 38
0000
0100
0000
0000
0010
0000
0000
0110
,  // measure 39
0000
0000
1000
0000
0000
0010
0000
0000
,  // measure 40
0100
0000
0000
0001
0000
0000
1000
0000
,  // measure 41
0000
0010
0000
0000
2020
0000
0000
3030
,  // measure 42
0000
0001
0000
0100
,  // measure 43
0000
0001
0000
0101
,  // measure 44
0000
1000
0000
0100
,  // measure 45
0000
1000
0000
1100
,  // measure 46
0000
0001
0000
0010
,  // measure 47
0000
0001
0000
0011
,  // measure 48
0000
1000
0000
0001
,  // measure 49
0000
2002
0000
3003
,  // measure 50
0000
1000
0000
0100
,  // measure 51
0000
1000
0000
1100
,  // measure 52
0000
0001
0000
0100
,  // measure 53
0000
0001
0000
0101
,  // measure 54
0000
1000
0000
0010
,  // measure 55
0000
1000
0000
1010
,  // measure 56
0000
0001
0000
1000
,  // measure 57
0000
0200
0000
0300
,  // measure 58
0000
1000
0000
0001
,  // measure 59
0000
0200
0000
0300
,  // measure 60
0000
0001
0000
1000
,  // measure 61
0000
0020
0000
0030
,  // measure 62
0000
1000
0000
0010
,  // measure 63
0000
0100
0000
0001
,  // measure 64
0000
1001
0000
0000
,  // measure 65
0000
1001
0000
0000
,  // measure 66
0000
1000
0000
0001
,  // measure 67
0000
0100
0000
0010
,  // measure 68
0000
1000
0000
1010
,  // measure 69
0000
0202
0000
0000
,  // measure 70
0000
0303
0000
0000
;
