#TITLE:Point Break;
#SUBTITLE:;
#ARTIST:BanYa;
#TITLETRANSLIT:;
#SUBTITLETRANSLIT:;
#ARTISTTRANSLIT:;
#GENRE:Classical Crossover;
#CREDIT:;
#BANNER:Point Break.png;
#BACKGROUND:Point Break-bg.png;
#LYRICSPATH:;
#CDTITLE:;
#MUSIC:Point Break.ogg;
#OFFSET:-0.700000;
#SAMPLESTART:5.577000;
#SAMPLELENGTH:11.660000;
#SELECTABLE:YES;
#BPMS:0.000000=92.000000
;
#STOPS:
;
#BGCHANGES:0.000=Point Break.avi=1.000=0=0=0=StretchNoLoop====,
99999=-nosongbg-=1.000=0=0=0 // don't automatically add -songbackground-
;
#KEYSOUNDS:;
#ATTACKS:;

//---------------dance-single - ----------------
#NOTES:
     dance-single:
     :
     Medium:
     4:
     0.271766,0.259502,0.263404,0.000000,0.000000,168.000000,27.000000,0.000000,0.000000,0.000000,0.000000,0.271766,0.259502,0.263404,0.000000,0.000000,168.000000,27.000000,0.000000,0.000000,0.000000,0.000000:
// measure 0
0000
0000
0000
0000
,  // measure 1
0000
0000
0000
0000
1001
0100
0001
0000
,  // measure 2
0110
0010
0001
0001
,  // measure 3
1000
0100
1000
0000
0001
0000
0001
0000
,  // measure 4
0100
0000
1000
0010
1000
0100
1000
0001
,  // measure 5
0100
0000
0100
0000
1000
0001
0000
0000
,  // measure 6
1001
1000
1001
0001
,  // measure 7
0100
1000
0001
0100
0001
0010
0001
1000
,  // measure 8
0100
0001
0001
1000
,  // measure 9
0100
0001
1000
0100
1000
0010
1000
0001
,  // measure 10
0100
0100
0001
1000
,  // measure 11
0110
1000
0001
1001
,  // measure 12
1000
0000
0001
0100
0001
0000
1000
0000
,  // measure 13
0010
0000
0000
0000
0000
0000
0010
0010
,  // measure 14
1001
0000
0100
0000
1000
0000
0010
0010
,  // measure 15
1001
0100
1000
0001
,  // measure 16
0101
1000
0010
0000
1000
0001
0100
0000
,  // measure 17
0001
1000
0100
1001
,  // measure 18
0100
0001
0010
0000
0001
0000
0100
0000
,  // measure 19
0010
1000
0001
0000
,  // measure 20
1010
1001
0110
0101
,  // measure 21
1001
0000
0000
0000
0000
0001
1000
0001
,  // measure 22
1001
0000
0000
0000
0100
0010
1000
0100
,  // measure 23
0010
0000
0010
0000
0000
0000
0010
0001
,  // measure 24
0100
0100
0001
0000
0010
0000
0010
0000
,  // measure 25
1000
1001
0001
1001
,  // measure 26
0100
0000
0001
1000
0100
0000
1001
0100
,  // measure 27
1000
0000
1000
0000
1000
0000
0010
1000
,  // measure 28
0001
0001
0001
1000
,  // measure 29
1000
0000
1001
0100
1000
0000
1000
0000
,  // measure 30
0100
0000
0000
0000
1000
0100
1000
0001
,  // measure 31
0010
0001
0100
0100
,  // measure 32
1000
0000
0000
0000
1000
0001
0100
0010
,  // measure 33
1010
0001
0000
1000
,  // measure 34
0100
1000
0010
0000
0001
0000
1000
0000
,  // measure 35
1010
1001
0110
0101
,  // measure 36
1001
0000
0000
0000
1000
0010
1000
0000
,  // measure 37
1001
0000
0000
0000
,  // measure 38
0100
0000
0000
0000
;
