#TITLE:Pierrot;
#SUBTITLE:;
#ARTIST:Lee Hyun Do;
#TITLETRANSLIT:;
#SUBTITLETRANSLIT:;
#ARTISTTRANSLIT:;
#GENRE:;
#CREDIT:;
#BANNER:Pierrot-banner.png;
#BACKGROUND:Pierrot-bg.png;
#LYRICSPATH:;
#CDTITLE:;
#MUSIC:Pierrot.ogg;
#OFFSET:-0.050000;
#SAMPLESTART:26.479996;
#SAMPLELENGTH:11.980000;
#SELECTABLE:YES;
#BPMS:0.000000=100.000000
;
#STOPS:
;
#BGCHANGES:0.000=921.AVI=1.000=0=0=0=StretchNoLoop====,
99999=-nosongbg-=1.000=0=0=0 // don't automatically add -songbackground-
;
#KEYSOUNDS:;
#ATTACKS:;

//---------------dance-single - ----------------
#NOTES:
     dance-single:
     :
     Medium:
     5:
     0.325066,0.329468,0.167314,0.055771,0.000000,184.000000,15.000000,5.000000,0.000000,0.000000,0.000000,0.325066,0.329468,0.167314,0.055771,0.000000,184.000000,15.000000,5.000000,0.000000,0.000000,0.000000:
0000
0000
0000
0000
,
1010
0100
0011
0000
0000
1000
0001
0000
,
1000
0000
0100
0000
1000
0001
0100
0000
,
0001
0000
0100
0000
0001
1000
0100
0000
,
0010
0001
0100
0000
0010
1000
0100
0000
,
0001
1000
0100
0010
0001
1000
0100
0000
,
0021
0100
1000
0130
,
1020
0100
0001
0130
,
0010
1000
0010
0001
,
1000
0001
0100
1000
0100
0001
1000
0100
,
0010
0000
0000
0000
,
0010
0001
0100
1000
0100
0010
1000
0000
,
0001
0000
0100
0000
1000
1000
0100
0000
,
0010
1000
0100
0001
0100
0010
0001
0000
,
1000
0000
0100
0000
0001
0001
0100
0000
,
0010
0100
0001
1000
0010
0100
0001
0000
,
1000
1010
0001
0011
,
1000
0010
0100
0001
1000
0001
0010
0000
,
0011
0100
1010
0000
0000
0001
1000
0000
,
0001
1000
0100
0000
1000
0001
0100
0010
,
2000
0010
0100
3001
,
1000
0000
0001
0000
0000
0100
1001
0000
,
0002
1000
0100
0013
,
0200
0000
0300
0000
1000
0001
1000
0001
,
0100
0001
0010
1000
0010
0100
1000
0000
,
0001
0000
0010
0000
1000
1000
0010
0000
,
0100
1000
0010
0001
0010
0100
0001
0000
,
1000
0000
0010
0000
0001
0001
0010
0000
,
0100
0010
0001
1000
0100
0010
0001
0000
,
1000
1100
0001
0101
,
1000
0100
0010
0001
1000
0001
0100
0000
,
0101
0010
1100
0000
0000
0001
1000
0000
,
1000
0001
0100
0001
1000
0000
0100
0000
,
0010
0100
1000
0010
0100
0001
0010
0000
,
1001
0000
1001
0000
0000
1000
0001
0000
;

//---------------dance-single - ----------------
#NOTES:
     dance-single:
     :
     Easy:
     2:
     0.159346,0.193805,0.011154,0.000000,0.000000,99.000000,1.000000,0.000000,0.000000,0.000000,0.000000,0.159346,0.193805,0.011154,0.000000,0.000000,99.000000,1.000000,0.000000,0.000000,0.000000,0.000000:
0000
0000
0000
0000
,
1000
0000
0001
0000
0000
1000
0001
0000
,
1000
0010
0100
0001
,
1000
0100
0010
0001
,
0001
0010
0100
1000
,
0001
0100
0010
1000
,
1001
0000
0010
0000
,
0100
0000
0010
0000
,
1000
0100
1000
0001
,
0010
0001
1000
0010
,
1000
0000
0000
0000
,
1000
0001
1000
0001
,
0100
0000
0100
0000
,
0001
1000
0001
1000
,
0010
0000
0010
0000
,
1000
0010
0100
0001
,
1000
0000
0001
0000
,
1000
0100
0010
0001
,
1000
0000
0001
0000
0000
1000
0001
0000
,
0000
0000
0000
0000
,
1000
0000
0010
0000
,
0100
0000
0001
0000
,
0010
0000
0100
0000
,
1000
0000
0001
0000
,
1000
0010
1000
0010
,
1000
0000
1000
0000
,
0001
0100
0001
0100
,
0001
0000
0001
0000
,
0010
0100
0010
0100
,
1000
0000
0001
0000
,
0100
0000
0010
0000
,
1000
0000
0001
0000
0000
1000
0001
0000
,
0000
0000
0000
0000
,
1000
0001
0100
0001
,
1000
0000
0001
0000
0000
1000
0001
0000
;

//---------------dance-single - ----------------
#NOTES:
     dance-single:
     :
     Hard:
     9:
     0.602329,0.639556,0.858877,0.011154,0.546558,300.000000,77.000000,1.000000,0.000000,0.000000,0.000000,0.602329,0.639556,0.858877,0.011154,0.546558,300.000000,77.000000,1.000000,0.000000,0.000000,0.000000:
// measure 0
0000
0000
0000
0000
,  // measure 1
1100
0000
0000
0000
1001
0000
0000
0000
0000
0000
0101
0000
1001
0000
1000
0001
,  // measure 2
0100
0001
1000
0100
1000
0010
0100
0001
1000
0100
0000
0000
0100
1000
0010
0100
,  // measure 3
0001
1000
0010
0100
0001
0010
0001
0000
1000
0100
0000
0000
0100
0001
0000
0000
,  // measure 4
1000
0100
0001
0100
1000
0100
1000
0010
1000
0001
0100
0010
1000
0100
0010
0001
,  // measure 5
0100
0000
0001
0000
1000
0000
0100
0000
1000
0000
0010
1000
0100
0000
1000
0000
,  // measure 6
0101
0000
0000
0000
0100
1000
0100
1000
0001
0000
0010
0001
0010
0001
1000
0000
,  // measure 7
1010
0000
0000
1000
0001
0010
0100
1000
0001
0100
0001
1000
0010
0100
0001
1000
,  // measure 8
0100
1000
0010
1000
0001
0100
0010
1000
0100
0010
0001
0010
0100
1000
0001
0100
,  // measure 9
0001
1000
0100
1000
0010
0100
0001
1000
0010
0100
0010
1000
0001
0010
0100
1000
,  // measure 10
0001
0000
0000
0110
,  // measure 11
1001
0110
1001
0110
0001
1100
0011
0000
,  // measure 12
1000
0100
1000
0010
0100
0001
1000
0010
1000
0000
0001
0100
0000
0000
0000
0000
,  // measure 13
1001
0110
1001
0110
1000
0101
1010
0000
,  // measure 14
0001
0100
0001
0010
0100
1000
0001
0010
0001
0000
1000
0100
0000
0000
0000
0000
,  // measure 15
1001
0110
1001
0110
0001
1100
0011
0000
,  // measure 16
1000
0001
0100
0001
1000
0100
0010
0001
0100
0000
0001
1000
0000
0000
0000
0000
,  // measure 17
0011
0000
0000
1100
0000
0000
0101
0000
0000
1010
0000
0000
1001
0000
0000
0000
,  // measure 18
1100
0000
0101
0000
0000
1001
1001
0000
,  // measure 19
1000
0000
0001
0000
1000
0000
0000
0000
0001
0010
0001
0010
1000
0000
0010
0100
,  // measure 20
0010
0000
0001
0000
1000
0000
0001
0000
0010
0001
0010
0001
1000
0000
0000
0000
,  // measure 21
0002
0003
0000
0000
0000
0000
0000
0000
,  // measure 22
0001
0100
0010
1000
0001
0000
1000
0100
0010
0001
1000
0010
0100
0001
1000
0000
,  // measure 23
1001
0000
0000
0000
0000
0000
0000
0000
0100
0001
1000
0000
0100
0000
1001
0000
,  // measure 24
0011
0101
1010
1100
1001
0110
1001
0000
,  // measure 25
1000
0010
0001
1000
0100
0001
1000
0010
0100
0000
0001
1000
0000
0000
0000
0000
,  // measure 26
1010
1100
0011
0101
1001
0110
1001
0000
,  // measure 27
0001
0010
1000
0001
0100
1000
0001
0010
0100
0000
1000
0001
0000
0000
0000
0000
,  // measure 28
1001
0110
1001
0110
1001
0110
1001
0000
,  // measure 29
1000
0100
0001
0100
0010
0001
0100
1000
0100
0000
1000
0001
0000
0000
0000
0000
,  // measure 30
0101
0000
0000
0011
0000
0000
1010
0000
0000
1100
0000
0000
1001
0000
0000
0000
,  // measure 31
1010
0000
0011
0000
0000
1001
1001
0000
,  // measure 32
1000
0000
0011
0000
1000
0000
0011
0000
1000
0001
0000
0000
1001
0000
0000
0000
,  // measure 33
0110
0000
1001
0000
0100
0000
1001
0100
0000
0010
0001
0000
1001
0000
0000
0000
,  // measure 34
1010
0000
0011
0000
0000
1001
1001
0000
;
