#TITLE:Passacaglia;
#SUBTITLE:;
#ARTIST:Synthwulf;
#TITLETRANSLIT:;
#SUBTITLETRANSLIT:;
#ARTISTTRANSLIT:;
#GENRE:;
#CREDIT:;
#BANNER:Passacaglia-banner.png;
#BACKGROUND:Passacaglia-back.png;
#LYRICSPATH:;
#CDTITLE:;
#MUSIC:Passacaglia.ogg;
#OFFSET:-0.230000;
#SAMPLESTART:66.364861;
#SAMPLELENGTH:12.000000;
#SELECTABLE:YES;
#BPMS:0.000000=175.000000
;
#STOPS:
;
#BGCHANGES:1.000=Passacaglia.avi=1.000=0=0=0=StretchNoLoop====,
99999=-nosongbg-=1.000=0=0=0 // don't automatically add -songbackground-
;
#KEYSOUNDS:;
#ATTACKS:;

//---------------dance-single - ----------------
#NOTES:
     dance-single:
     :
     Medium:
     7:
     0.578354,0.632903,0.078866,0.341755,0.004381,462.000000,453.000000,9.000000,39.000000,0.000000,0.000000,0.578354,0.632903,0.078866,0.341755,0.004381,462.000000,453.000000,9.000000,39.000000,0.000000,0.000000:
0000
0000
0000
0000
,
0000
0000
0000
0000
,
0000
0000
0000
0000
,
0000
0000
0000
0000
,
0000
0000
0000
0000
,
0000
0000
0000
0000
,
0000
0000
0000
0000
,
0000
0000
0000
0000
,
0000
0000
0100
0000
0010
0000
0000
0010
,
1000
0000
1000
0000
0001
0000
0000
0001
,
0100
0000
0001
0000
1000
0000
0000
1000
,
0010
0000
0010
0000
0100
0000
0000
0100
,
0001
0000
0101
0000
1000
0000
0000
1010
,
0001
0000
0011
0000
1000
0000
0000
1100
,
0001
0000
0010
0100
1000
0100
1000
0001
,
0100
0010
2000
0000
0000
3000
0000
0000
,
0000
0000
0001
0010
0001
0010
0100
1000
,
0010
0000
0010
0100
0010
0100
0001
1000
,
0100
0000
1000
0010
1000
0010
0100
0001
,
0010
0000
0010
0100
0010
0100
1000
0001
,
0100
0000
0010
0000
1001
0000
0100
0001
,
0010
0000
0010
0100
1000
0010
0100
0001
,
1000
0000
0010
0100
0001
0010
0100
1000
,
0001
0000
0010
0001
1000
0010
0100
0001
,
0100
0010
1000
0000
1000
0000
1001
0000
,
0000
0000
1000
0001
0100
0010
1000
0000
,
0000
0000
0010
0100
0001
0000
0010
0100
,
1000
0000
0001
0100
0010
0000
1000
0100
,
0010
0001
0001
1001
,
0000
0000
0001
1000
0100
0010
0001
0000
,
0000
0000
0010
0100
1000
0000
0010
0100
,
0001
0000
0000
0000
1000
0000
0001
0000
0100
0000
0000
0000
0100
0000
0000
0100
,
0000
0100
0001
2000
3000
0020
0030
0200
,
0300
0002
0003
2000
3000
0020
0030
0200
,
0300
0002
0003
0020
0030
0200
0300
2000
,
3000
0020
0030
0200
0300
0002
0003
0200
,
0300
0020
1030
0002
0003
2000
3000
0020
,
0030
0200
0301
2000
3000
0020
0030
0200
,
0300
0002
1003
0020
0030
0200
0300
0002
,
0003
2000
3010
0200
0300
0002
1003
0010
,
1000
0010
0100
0001
1000
0001
0010
0001
,
1000
0001
0100
0001
1000
0001
0010
0001
,
1000
0000
0100
1000
0001
1000
0010
1000
,
0001
1000
0100
1000
0001
1000
0010
1000
,
0001
0000
0100
0001
0010
0001
1000
0001
,
0100
0001
1000
0001
0010
0001
1000
0001
,
0100
0001
0010
0100
1000
0100
1000
0001
,
0100
0010
1000
1000
1000
1000
2020
0000
,
3030
0000
1000
0010
1000
0100
1000
0001
,
1000
0100
1000
0010
1000
0100
1000
0010
,
1000
0001
0001
0010
0001
0100
0001
1000
,
0001
0100
0001
0010
0001
0100
0001
0010
,
0001
1000
1000
0100
1000
0001
1000
0100
,
1000
0010
1000
0100
1000
0001
1000
0100
,
1000
0010
0010
0100
0001
0100
0001
1000
,
0100
0010
0001
0001
0001
0001
0022
0000
,
0033
0000
0001
0100
0010
0001
1000
0100
,
0001
1000
0100
0010
1000
0001
0100
1000
,
0001
0001
1000
0100
0010
1000
0001
0100
,
1000
0001
0100
0010
0001
1000
0100
0001
,
1000
1000
0001
0100
0010
0001
1000
0100
,
0010
0001
0010
1000
0100
0010
0100
0010
,
1000
1000
0001
0100
1000
0100
1000
0001
,
0100
0020
2000
0000
0030
3000
0000
0000
,
0000
0000
0000
0001
0100
0010
1000
0010
,
0001
0010
0100
0010
0001
0010
1000
0100
,
0010
0100
0000
1000
0100
0010
0001
0010
,
1000
0010
0100
0010
1000
0010
0001
0100
,
0010
0100
0000
0001
0100
0010
0001
1000
,
0001
0010
0100
0001
1000
0100
0010
1000
,
0001
1000
0010
0100
1000
0100
1000
0001
,
0100
0010
2000
0000
0000
3000
0000
0000
,
0000
0000
0000
0001
0100
0001
1000
0001
,
0100
0001
0010
0001
0100
0001
1000
0001
,
0100
0010
0000
1000
0100
1000
0001
1000
,
0100
1000
0010
1000
0100
1000
0001
1000
,
0100
0010
0000
0001
0100
0001
1000
0001
,
0100
0001
0010
0001
0100
0001
1000
0001
,
0100
0010
0001
1000
0001
0010
0100
0001
,
1000
0100
0020
0000
0000
0000
0000
0000
,
0000
0031
0000
0000
;

//---------------dance-single - ----------------
#NOTES:
     dance-single:
     :
     Hard:
     12:
     0.774894,1.160322,0.096392,1.437122,0.552065,619.000000,608.000000,11.000000,164.000000,0.000000,0.000000,0.774894,1.160322,0.096392,1.437122,0.552065,619.000000,608.000000,11.000000,164.000000,0.000000,0.000000:
0000
0000
0000
0000
,
0000
0000
0000
0000
,
0000
0000
0000
0000
,
0000
0000
0000
0000
,
0000
0000
0000
0000
,
0000
0000
0000
0000
,
0000
0000
0000
0000
,
0000
0000
0000
0000
,
0000
0000
1000
0000
1100
0000
0000
2000
,
3001
0000
0010
0000
0011
0000
0000
0002
,
1003
0000
0001
0000
0101
0000
0000
0002
,
1003
0000
0000
0000
0010
0000
0000
0000
1010
0000
0000
0010
0000
0000
2000
0000
,
3001
0000
1000
0000
1100
0000
0000
2000
,
3001
0000
0000
0000
0010
0000
0000
0000
0011
0000
0000
0010
0000
0000
0002
0000
,
1003
0000
1000
0001
0010
0100
1000
0001
,
0100
0010
1000
0100
0010
0001
0100
0010
,
0002
0000
0003
0000
0010
0000
1000
0000
0000
0000
1000
0000
0001
0000
0100
0010
,
0100
0000
0001
0000
0010
0000
0001
0000
0000
0000
0001
0000
1000
0000
0100
0010
,
0100
0000
1000
0000
0001
0000
0100
0000
0000
0000
0100
0000
0001
0010
0001
0010
,
0100
0000
1000
0000
0010
0000
0100
0000
0001
0100
0001
0000
0010
0000
0001
0000
,
0100
0000
0001
1000
0100
0000
0000
0000
1001
0000
0000
0000
0001
0000
1000
0100
,
1000
0000
0001
0000
0100
0000
0010
0000
1000
0000
0100
0000
1000
0010
1000
0010
,
0100
0000
0001
0000
1000
0000
0100
0000
1000
0001
0100
0000
0001
0000
0100
0000
,
0001
1000
0100
0000
1000
0000
0100
0000
1000
0001
0010
0000
0001
0000
0010
0000
,
0001
1000
0100
0010
0001
0000
0000
0000
0100
0000
0000
0000
1001
0000
0000
0000
,
0000
0000
0000
0000
1000
0100
1000
0000
0001
0100
0001
0000
1000
0000
0000
0000
,
0000
0000
0000
0000
1000
0010
1000
0000
0001
0000
0000
0000
0001
0100
0001
0000
,
1000
0000
0000
0000
1000
0100
1000
0000
0001
0000
0000
0000
0001
0010
0001
0000
,
1000
0000
0100
1000
0001
0000
0000
0000
0100
0000
0000
0000
1001
0000
0000
0000
,
0000
0000
0000
0000
1000
0100
1000
0000
0001
0100
0001
0000
1000
0000
0000
0000
,
0000
0000
0000
0000
1000
0010
1000
0000
0001
0000
0000
0000
0001
0010
0001
0000
,
1000
0000
0000
0000
0001
0000
0001
0000
1000
0100
0000
0000
1000
0000
0000
0010
,
0000
0100
0002
0100
0000
0100
0000
0100
,
0000
0103
2000
0100
0000
0100
0000
0100
,
0000
3100
0002
0010
0000
0010
0000
0010
,
0000
0013
2000
0010
0000
0010
0000
0010
,
0000
3010
0002
0100
0000
0103
2000
0100
,
0000
3100
0002
0010
0000
0013
2000
0010
,
0000
3010
0002
0103
2000
3100
0002
0013
,
2000
0000
3010
0000
2002
0000
0000
0000
0000
0000
3003
0000
1000
0000
0001
1000
,
0001
1000
0100
0100
1000
1000
0010
0010
,
0100
0000
0100
0000
0001
0000
0001
0000
1000
0000
1000
0000
0100
0000
1000
0001
,
0100
0000
0001
1000
0100
0000
0100
0000
1000
0000
1000
0000
0001
0000
0001
0000
,
0100
0100
0010
0010
1000
1000
0100
0100
,
1000
0001
1000
0001
0100
0001
0100
0001
1000
0001
1000
0001
1000
0010
1000
0010
,
0100
0010
0100
0010
0100
0001
0100
0001
1000
0001
1000
0001
1000
0100
1000
0100
,
1000
0001
1000
0001
0200
0300
0002
0003
0020
0030
0200
0300
2000
3000
0020
0030
,
0200
0300
0002
0003
0100
0000
0010
0000
1000
0000
0100
0000
1000
0010
0100
0002
,
2000
0000
3003
0000
1001
0000
0200
0300
0002
0003
0020
0030
0200
0300
2000
3000
,
0002
0003
0200
0300
0020
0030
0002
0003
0020
0030
2000
3000
0200
0300
0002
0003
,
0200
0300
2000
3000
0002
0003
0020
0030
0200
0300
2000
3000
0200
0300
0020
0030
,
0002
0003
0020
0030
2000
3000
0020
0030
0002
0003
0200
0300
2000
3000
0200
0300
,
0002
0003
0020
0030
2000
3000
0020
0030
0002
0003
0020
0030
0200
0300
2000
3000
,
0020
0030
0002
0003
2000
3000
0200
0300
0002
0003
0020
0030
0200
0300
2000
3000
,
0020
0030
0200
0300
0002
0003
2000
3000
0200
0300
0020
0030
0002
0003
2000
3000
,
0002
0003
0200
0300
0010
0000
1000
0000
0010
0000
1000
0000
0001
1000
0001
1000
,
0001
1000
0001
1000
0200
0300
2000
3000
0020
0030
0200
0300
0002
0003
2000
3000
,
0200
0300
0020
0030
2000
3000
0020
0030
0002
0003
0200
0300
2000
3000
0200
0300
,
0002
0003
2000
3000
0020
0030
0200
0300
0002
0003
0200
0300
0020
0030
2000
3000
,
0020
0030
0002
0003
0020
0030
2000
3000
0200
0300
0002
0003
0200
0300
2000
3000
,
0020
0030
0002
0003
0020
0030
2000
3000
0020
0030
0200
0300
0002
0003
0020
0030
,
2000
3000
0002
0003
0200
0300
2000
3000
0020
0030
0200
0300
0002
0003
0020
0030
,
0200
0300
2000
3000
0002
0003
0200
0300
0020
0030
2000
3000
0002
0003
2000
3000
,
0200
0300
0020
0000
0002
0000
0000
0000
0000
0000
0000
0000
0000
0000
0030
0000
,
0003
0000
0000
0000
1000
0000
0001
1000
0010
0000
1000
0010
0100
0000
0010
0100
,
0001
0000
1000
0001
0100
0000
0001
1000
0010
0000
1000
0010
0100
0000
0010
0100
,
0001
0000
2000
0000
3000
0000
0001
1000
0100
0000
1000
0100
0010
0000
0100
0010
,
0001
0000
1000
0001
0010
0000
0001
1000
0100
0000
1000
0100
0010
0000
0100
0010
,
0001
0000
2000
0000
3000
0000
0100
0010
0001
0000
1000
0001
0010
0000
0001
1000
,
0010
0000
0001
0010
0100
0000
0001
1000
0010
0000
1000
0001
0010
0000
1000
0010
,
0100
0000
1000
0000
0020
0030
2000
3000
0002
0003
0020
0030
2000
3000
0020
0030
,
0200
0300
2000
0000
0002
0000
0000
0000
0000
0000
0000
0000
0000
0000
3000
0000
,
0003
0000
0000
0000
0000
0000
0100
0010
0001
0010
0100
0010
1000
0001
0010
0001
,
1000
0001
0010
0001
1000
0010
1000
0010
0100
0001
1000
0100
1000
0001
0100
0010
,
1000
0100
0020
0000
0030
0000
0100
0010
1000
0010
0100
0010
0001
1000
0010
1000
,
0001
1000
0010
1000
0001
0010
0001
0010
0100
1000
0001
0100
0001
0010
0100
1000
,
0010
0100
0002
0000
0003
0000
0010
0001
0100
0001
1000
0001
1000
0100
1000
0001
,
1000
0100
1000
0010
1000
0100
1000
0001
1000
0001
0100
0001
1000
0001
0100
0001
,
0010
0001
0010
0100
2000
3000
0020
0030
0200
0300
0002
0003
0020
0030
2000
3000
,
0020
0030
0200
0300
1000
0010
0000
0010
0100
0000
0100
0010
0000
0010
0001
0000
,
0001
0010
0100
0010
1000
0000
0000
0000
0000
0000
0000
0000
0000
0000
0000
0000
;

//---------------dance-single - ----------------
#NOTES:
     dance-single:
     :
     Challenge:
     15:
     0.866279,1.160322,0.201548,1.542277,0.793046,692.000000,669.000000,23.000000,176.000000,0.000000,0.000000,0.866279,1.160322,0.201548,1.542277,0.793046,692.000000,669.000000,23.000000,176.000000,0.000000,0.000000:
0000
0000
0000
0000
,
0000
0000
0000
0000
,
0000
0000
0000
0000
,
0000
0000
0000
0000
,
0000
0000
1000
0010
0100
0001
0100
0001
,
1000
0100
0010
1000
0010
0001
0010
0100
,
1000
0100
1000
0010
0100
0001
1000
0100
,
0010
0001
0200
0000
0000
0000
0000
0000
,
0300
0000
0101
0000
1000
0000
0000
1000
,
1100
0000
0001
0000
0011
0000
0000
1000
,
1010
0000
0001
0000
0101
0000
0001
1000
,
1100
0000
1000
0000
0001
0000
0000
0000
1001
0000
0000
2000
0000
0000
3001
0000
,
0101
0000
1000
0000
1100
0000
1000
0001
,
0011
0000
0001
0000
1000
0000
0000
0000
1001
0000
0000
0002
0000
0000
1003
0000
,
1100
0000
0000
0000
1000
0000
0010
0000
0100
0000
0001
0000
1000
0010
1000
0000
,
0010
0100
2002
0000
0000
0000
0000
0000
,
3003
0000
0000
0000
0001
0010
0001
0000
0010
0000
0000
0000
0001
0010
0001
0000
,
1000
0000
0000
0000
0001
0010
0001
0000
0100
0000
0001
0010
0001
0010
0100
1000
,
0001
0000
0000
0000
1000
0010
1000
0000
0010
0000
0000
0000
1000
0010
1000
0000
,
0001
0000
0000
0000
1000
0010
1000
0000
0100
0000
1000
0010
1000
0000
0010
0000
,
0100
0001
1000
0100
0020
0000
0000
0000
0031
0000
0000
0000
0001
0010
0001
0000
,
1000
0000
0000
0000
1000
0100
1000
0000
0001
0000
0000
0000
0001
0100
0001
0000
,
1000
0000
0000
0000
1000
0010
1000
0000
0001
0000
0100
0001
0010
0100
1000
0100
,
0010
0001
0100
0001
1000
0000
0100
0010
0100
0000
0000
0000
0100
1000
0001
0100
,
0010
0100
0100
1001
,
0000
0000
0000
0000
0001
1000
0100
1000
0001
1000
0100
0010
0002
0000
0003
0000
,
0000
0000
0000
0000
0001
1000
0100
1000
0001
0000
0000
0000
0001
0100
0001
0010
,
0100
0000
0000
0000
0100
1000
0001
0000
0100
0001
1000
0000
0010
1000
0001
1000
,
0010
0100
0001
1000
0100
0000
0000
0000
0100
0000
0000
0000
1001
0000
0000
0000
,
0000
0000
0000
0000
0001
1000
0010
1000
0001
0010
0100
1000
0002
0000
0003
0000
,
0000
0000
0000
0000
0001
0100
0001
0010
0100
0000
0000
0000
0100
1000
0010
0100
,
0001
0000
0000
0000
0001
0000
0100
0000
0010
1000
0000
0000
1010
0000
0000
0110
,
0000
0101
2000
0100
0000
0100
0000
0100
,
0000
3100
0200
0010
0000
0010
0000
0010
,
0000
0310
0020
0001
0000
0001
0000
0001
,
0000
0031
0002
0100
0000
0100
0000
0100
,
0000
0103
0200
0001
0000
0301
0002
1000
,
0000
1003
2000
0100
0000
3100
0200
0010
,
0000
0310
0020
0031
0002
0103
0200
0301
,
0002
0000
1003
0000
2000
3000
0200
0300
0020
0030
0002
0003
0200
0300
0001
0010
,
0200
0300
2000
3000
0002
0000
0013
0000
0010
0000
0001
0000
2000
0000
3010
0000
,
0010
0000
1000
0000
0020
0000
0130
0000
0100
0000
0010
0000
1000
0000
0100
1000
,
0001
0000
0100
0001
2000
0000
0100
0000
0001
0000
0100
3000
0002
0000
0010
0000
,
1000
0000
0010
0003
2000
0000
0100
0000
0001
0000
0100
3000
0002
0000
0010
0003
,
1000
0010
0100
0001
1000
0010
1000
0010
1000
0100
1000
0100
1000
0001
1000
0001
,
0100
0001
0100
0001
0100
0010
0100
0010
1000
0010
1000
0010
1000
0001
1000
0001
,
0100
0000
0000
0001
0000
0000
0100
0000
0000
0001
0000
0000
1000
0000
0000
0000
0010
0000
0000
0000
0001
0000
0000
0000
0000
0000
0000
0000
0100
0000
0000
0000
0001
0000
0000
0000
0010
0000
0000
0000
0100
0000
0000
0000
1000
0000
0000
0000
,
0010
0000
0000
0000
0100
0000
0000
0000
0001
0000
0000
0000
2000
0000
0000
3000
0000
0000
0020
0000
0000
0030
0000
0000
2000
0000
0000
3000
0000
0000
0020
0000
0000
0030
0000
0000
0100
0000
0000
0001
0000
0000
0100
0000
0000
0001
0000
0000
,
0100
0001
0100
0001
2000
3000
0020
0030
0002
0003
0020
0030
2000
3000
0002
0003
,
2000
3000
0200
0300
0020
0030
0002
0003
0020
0030
0200
0300
0020
0030
2000
3000
,
0020
0030
0200
0300
2000
3000
0020
0030
0200
0300
0002
0003
2000
3000
0020
0030
,
0002
0003
0020
0030
0002
0003
2000
3000
0002
0003
0020
0030
0002
0003
2000
3000
,
0002
0003
0020
0030
2000
3000
0002
0003
0020
0030
0200
0300
2000
3000
0002
0003
,
0200
0300
0020
0030
2000
3000
0200
0300
0020
0030
0200
0300
2000
3000
0020
0030
,
0002
0003
0020
0030
2000
3000
0200
0300
0020
0030
0002
0003
2000
3000
0020
0030
,
0200
0300
0002
0003
0200
0300
0002
0003
0200
0300
0002
0003
1000
0010
1000
0010
,
1000
0010
1000
0010
1000
0010
0100
0001
1000
0010
1000
0001
1000
0001
0100
0001
,
1000
0001
0100
0010
1000
0200
0000
0300
1000
0020
0000
0030
1000
0200
0000
0300
,
1000
0002
0000
0003
0100
0001
1000
0010
1000
0010
0100
0001
1000
0100
0010
0100
,
1000
0001
0100
0010
1000
0200
0000
0300
1000
0002
0000
0003
1000
0200
0000
0300
,
1000
0002
0000
0003
0100
0001
0010
0100
1000
0100
0010
0001
0100
0001
0100
0010
,
1000
0001
0100
0010
1000
0002
0000
0003
0100
0020
0000
0030
1000
0200
0000
0300
,
1000
0002
0000
0003
0100
0010
0001
0010
0100
0010
1000
0100
0010
0001
0100
0001
,
0010
0100
1000
0100
2000
0000
0000
0000
0000
0000
0000
0000
0002
0000
0000
0000
,
3003
0000
0000
0000
0002
0003
2000
3000
0200
0300
0020
0030
0002
0003
2000
3000
,
0002
0003
0200
0300
0020
0030
2000
3000
0200
0300
2000
3000
0002
0003
0200
0300
,
0020
0030
2000
3000
0000
0000
2000
3000
0020
0030
0002
0003
0020
0030
0200
0300
,
0002
0003
0020
0030
0200
0300
0020
0030
0002
0003
0200
0300
0020
0030
2000
3000
,
0200
0300
2000
3000
0000
0000
2000
3000
0020
0030
0200
0300
0002
0003
0200
0300
,
0002
0003
0020
0030
0200
0300
2000
3000
0002
0003
0200
0300
2000
3000
0200
0300
,
0002
0003
0020
0030
0200
0300
2000
3000
0020
0030
0002
0003
0020
0030
2000
3000
,
0020
0030
0200
0300
0002
0000
0000
0000
0000
0000
0000
0000
2000
0000
0000
0000
,
3003
0000
0000
0000
0000
0000
0001
1000
0001
0100
0001
1000
0001
0100
0001
0010
,
0001
0100
0001
1000
0100
1000
0010
1000
0100
1000
0001
1000
0100
1000
0001
0100
,
0010
1000
0100
0000
0000
0000
0100
1000
0001
0100
0001
1000
0001
0010
0001
0100
,
0001
0010
0001
1000
0010
1000
0100
1000
0010
1000
0001
1000
0010
1000
0001
0010
,
0001
0100
0010
0000
0000
0000
0100
0001
0010
0100
0010
0001
0100
0001
0010
0001
,
0100
0001
0010
0100
0001
0010
0001
0100
0001
0010
0100
0010
0001
0100
0010
1000
,
0010
1000
0010
0100
0002
0003
0020
0030
0200
0300
2000
3000
0002
0003
0200
0300
,
0020
0030
2000
3000
0011
1000
0000
0011
0100
0000
0011
1000
0000
0011
0100
0000
,
0011
1000
0001
0100
0010
0000
0000
0000
0000
0000
0000
0000
0000
0000
0000
0000
;

//---------------dance-single - ----------------
#NOTES:
     dance-single:
     :
     Easy:
     5:
     0.558324,0.632903,0.157733,0.341755,0.000000,446.000000,428.000000,18.000000,39.000000,0.000000,0.000000,0.558324,0.632903,0.157733,0.341755,0.000000,446.000000,428.000000,18.000000,39.000000,0.000000,0.000000:
// measure 0
0000
0000
0000
0000
,  // measure 1
0000
0000
0000
0000
,  // measure 2
0000
0000
0000
0000
,  // measure 3
0000
0000
0000
0000
,  // measure 4
0000
0000
0000
0000
,  // measure 5
0000
0000
0000
0000
,  // measure 6
0000
0000
0000
0000
,  // measure 7
0000
0000
0000
0000
,  // measure 8
0000
1000
0001
0000
,  // measure 9
1001
0001
0010
0000
,  // measure 10
0011
0010
0100
0000
,  // measure 11
0110
0100
1000
0000
,  // measure 12
1100
0001
1000
0000
,  // measure 13
1001
1000
0010
0000
,  // measure 14
1010
0000
1000
0010
1000
0010
0100
0001
,  // measure 15
0100
0010
2000
0000
0000
3000
0000
0000
,  // measure 16
0000
0000
0001
0010
0001
0010
0100
1000
,  // measure 17
0001
0000
1000
0010
1000
0010
0100
0001
,  // measure 18
1000
0000
0010
1000
0001
0010
0100
1000
,  // measure 19
0001
0000
0010
0001
1000
0010
0100
0001
,  // measure 20
1000
0000
0100
0000
1001
0000
0100
0001
,  // measure 21
0010
0000
0010
0100
1000
0010
0100
0001
,  // measure 22
1000
0000
0010
0100
0001
0010
0100
1000
,  // measure 23
0001
0000
1000
0010
1000
0010
0100
0001
,  // measure 24
1000
0010
0100
0000
0100
0000
1001
0000
,  // measure 25
0000
0000
1000
0001
0100
0010
1000
0000
,  // measure 26
0000
0001
0011
1000
,  // measure 27
1010
0001
0101
1000
,  // measure 28
1100
0001
0001
1001
,  // measure 29
0000
0000
0001
1000
0100
0010
0001
0000
,  // measure 30
0000
1000
1010
0001
,  // measure 31
0011
0100
0100
0100
,  // measure 32
0000
0000
0100
0002
0003
2000
3000
0020
,  // measure 33
0030
0200
0300
0002
0003
2000
3000
0020
,  // measure 34
0030
0200
0300
0002
0003
0020
0030
0200
,  // measure 35
0300
2000
3000
0002
0003
0020
0030
0002
,  // measure 36
0003
2000
3000
0020
0030
0200
0300
0002
,  // measure 37
0003
0020
0030
0200
0300
2000
3000
0002
,  // measure 38
0003
0020
0030
0002
0003
2000
3000
0200
,  // measure 39
0300
0020
0002
0000
0033
0000
0010
0001
,  // measure 40
0010
0001
0100
0001
1000
0001
0010
0001
,  // measure 41
1000
0001
0100
0001
1000
0001
0100
0001
,  // measure 42
0010
0000
0100
1000
0001
1000
0010
1000
,  // measure 43
0001
1000
0100
1000
0001
1000
0100
1000
,  // measure 44
0010
0000
0100
0001
0010
0001
1000
0001
,  // measure 45
0010
0001
0100
0001
0010
0001
1000
0001
,  // measure 46
0100
0001
0010
0100
0010
0100
1000
0001
,  // measure 47
0100
0010
1000
0010
1000
0010
2020
0000
,  // measure 48
3030
0000
1000
0100
1000
0010
1000
0100
,  // measure 49
1000
0001
1000
0100
1000
0010
1000
0100
,  // measure 50
1000
0000
0001
0100
0001
0010
0001
0100
,  // measure 51
0001
1000
0001
0100
0001
0010
0001
0100
,  // measure 52
0001
0000
1000
0100
1000
0001
1000
0100
,  // measure 53
1000
0010
1000
0100
1000
0001
1000
0100
,  // measure 54
1000
0000
0010
0100
0010
0100
0001
1000
,  // measure 55
0100
0010
0001
0010
0001
0010
0022
0000
,  // measure 56
0033
0000
1000
0010
1000
0010
0100
0010
,  // measure 57
0100
0010
1000
0010
0100
0010
1000
0010
,  // measure 58
0100
0000
0001
0010
0001
0010
0100
0010
,  // measure 59
0100
0010
0001
0010
0100
0010
0001
0010
,  // measure 60
0100
0000
1000
0100
1000
0100
0010
0100
,  // measure 61
0010
0100
1000
0100
0010
0100
1000
0100
,  // measure 62
0010
0001
0010
0100
0010
0100
1000
0001
,  // measure 63
0100
0020
2000
0000
0030
3000
0000
0000
,  // measure 64
0000
0000
0000
0001
0010
0100
1000
0001
,  // measure 65
0100
0001
1000
0010
0100
0001
1000
0100
,  // measure 66
0010
0001
0000
1000
0010
0100
0001
1000
,  // measure 67
0100
1000
0001
0010
0100
1000
0001
0100
,  // measure 68
0010
1000
0000
0001
0010
0100
1000
0001
,  // measure 69
0100
0001
1000
0010
0100
0001
1000
0100
,  // measure 70
0010
0001
0010
0100
0010
0100
1000
0001
,  // measure 71
0100
0010
2000
0000
0000
3000
0000
0000
,  // measure 72
0000
0000
0000
0001
0100
0001
1000
0001
,  // measure 73
0100
0001
0010
0001
0100
0001
1000
0001
,  // measure 74
0100
0010
0000
1000
0100
1000
0001
1000
,  // measure 75
0100
1000
0010
1000
0100
1000
0001
1000
,  // measure 76
0100
0010
0000
0001
0100
0001
1000
0001
,  // measure 77
0100
0001
0010
0001
0100
0001
1000
0001
,  // measure 78
0100
0010
1000
0010
1000
0010
1000
0001
,  // measure 79
0100
0020
2000
0000
0000
0000
0000
0000
,  // measure 80
3030
1010
0000
0000
;

//---------------dance-single - ----------------
#NOTES:
     dance-single:
     :
     Beginner:
     3:
     0.250370,0.316452,0.043815,0.140207,0.000000,200.000000,195.000000,5.000000,16.000000,0.000000,0.000000,0.250370,0.316452,0.043815,0.140207,0.000000,200.000000,195.000000,5.000000,16.000000,0.000000,0.000000:
// measure 0
0000
0000
0000
0000
,  // measure 1
0000
0000
0000
0000
,  // measure 2
0000
0000
0000
0000
,  // measure 3
0000
0000
0000
0000
,  // measure 4
0000
0000
0000
0000
,  // measure 5
0000
0000
0000
0000
,  // measure 6
0000
0000
0000
0000
,  // measure 7
0000
0000
0000
0000
,  // measure 8
0000
1000
0000
0001
,  // measure 9
0000
0010
0000
0100
,  // measure 10
0000
0010
0000
0001
,  // measure 11
0000
1000
0000
0001
,  // measure 12
0000
0010
0000
0100
,  // measure 13
0000
0010
0000
0001
,  // measure 14
0000
1000
0001
0100
,  // measure 15
0010
0000
2000
0000
0000
3000
0000
0000
,  // measure 16
0000
0010
0000
0100
,  // measure 17
0000
0001
0000
1000
,  // measure 18
0000
0001
0000
0100
,  // measure 19
0000
0010
0000
1000
,  // measure 20
0000
0100
0000
1000
,  // measure 21
0000
0001
0000
0100
,  // measure 22
0000
0001
0000
1000
,  // measure 23
0000
0100
0000
0010
,  // measure 24
0000
0001
0000
0011
,  // measure 25
0000
0010
0000
0011
,  // measure 26
0000
1000
0000
1000
,  // measure 27
0000
0100
0000
0100
,  // measure 28
0000
0010
0000
0011
,  // measure 29
0000
0001
0000
0011
,  // measure 30
0000
1000
0000
1000
,  // measure 31
0000
0100
0000
0100
,  // measure 32
0000
2000
0000
0000
,  // measure 33
3000
0002
0000
0000
,  // measure 34
0003
0020
0000
0000
,  // measure 35
0030
0200
0000
0000
,  // measure 36
0300
0020
0000
0000
,  // measure 37
0030
0002
0000
0000
,  // measure 38
0003
2000
0000
0000
,  // measure 39
3000
0002
0000
0000
,  // measure 40
0003
0100
0001
1000
,  // measure 41
0001
0100
0001
1000
,  // measure 42
0000
0100
1000
0001
,  // measure 43
1000
0100
1000
0001
,  // measure 44
0000
0100
0001
0010
,  // measure 45
0001
0100
0001
1000
,  // measure 46
0010
0100
0001
0100
,  // measure 47
0010
0000
2000
0000
0000
3000
0000
0000
,  // measure 48
0000
0001
0100
0001
,  // measure 49
1000
0001
0100
0010
,  // measure 50
0000
1000
0100
1000
,  // measure 51
0001
1000
0100
0010
,  // measure 52
0000
0001
0100
0001
,  // measure 53
1000
0001
0100
0010
,  // measure 54
1000
0001
1000
0100
,  // measure 55
0010
0000
0002
0000
0000
0003
0000
0000
,  // measure 56
0000
0010
0100
1000
,  // measure 57
0100
0010
0100
1000
,  // measure 58
0000
0010
0100
0001
,  // measure 59
0100
0010
0100
0001
,  // measure 60
0000
1000
0100
0010
,  // measure 61
0100
1000
0001
0100
,  // measure 62
0001
1000
0001
0100
,  // measure 63
0020
0000
2000
0030
0000
3000
0000
0000
,  // measure 64
0000
0001
0010
0100
,  // measure 65
1000
0001
1000
0100
,  // measure 66
0000
1000
0010
0100
,  // measure 67
0001
1000
0001
0100
,  // measure 68
0000
0001
0010
0100
,  // measure 69
1000
0001
0100
0010
,  // measure 70
1000
0001
0100
0010
,  // measure 71
1000
0000
0002
0000
0000
0003
0000
0000
,  // measure 72
0000
1000
0100
1000
,  // measure 73
0001
1000
0100
1000
,  // measure 74
0010
1000
0001
1000
,  // measure 75
0010
1000
0100
1000
,  // measure 76
0001
1000
0100
1000
,  // measure 77
0001
0100
0001
1000
,  // measure 78
0100
1000
0001
0100
,  // measure 79
0020
2000
0000
0000
,  // measure 80
3030
1010
0000
0000
;
