#TITLE:Panuelito Rojo;
#SUBTITLE:;
#ARTIST:Big Metra;
#TITLETRANSLIT:;
#SUBTITLETRANSLIT:;
#ARTISTTRANSLIT:;
#GENRE:;
#CREDIT:;
#BANNER:Pañuelito Rojo-banner.png;
#BACKGROUND:Pañuelito Rojo-bg.png;
#LYRICSPATH:;
#CDTITLE:;
#MUSIC:Pañuelito Rojo.ogg;
#OFFSET:0.356431;
#SAMPLESTART:89.679855;
#SAMPLELENGTH:12.000000;
#SELECTABLE:YES;
#BPMS:0.000000=98.000000
;
#STOPS:
;
#BGCHANGES:0.500=Pañuelito Rojo.avi=1.000=0=0=0=StretchNoLoop====,
99999=-nosongbg-=1.000=0=0=0 // don't automatically add -songbackground-
;
#KEYSOUNDS:;
#ATTACKS:;

//---------------dance-single - ----------------
#NOTES:
     dance-single:
     :
     Medium:
     4:
     0.402948,0.342779,0.333429,0.000000,0.000000,276.000000,37.000000,0.000000,0.000000,0.000000,0.000000,0.402948,0.342779,0.333429,0.000000,0.000000,276.000000,37.000000,0.000000,0.000000,0.000000,0.000000:
// measure 0
0000
0000
0000
0000
,  // measure 1
0000
0000
0000
0000
,  // measure 2
0000
0000
0000
0000
0000
0000
0010
1000
,  // measure 3
0100
0000
0010
0001
0100
0000
0010
1000
,  // measure 4
0100
1000
0010
1000
0100
0110
0010
0001
,  // measure 5
0100
0000
0010
1000
0100
0000
0010
0001
,  // measure 6
0100
0001
0010
0001
0110
0000
0100
0000
,  // measure 7
1001
0000
0010
0000
0110
0000
0010
0001
,  // measure 8
0100
0010
1000
0100
0110
0000
0010
0001
,  // measure 9
0011
0000
0010
1000
1010
0000
1000
0100
,  // measure 10
1000
0001
0100
0001
1001
0000
0001
0001
,  // measure 11
1000
1000
0001
0001
1000
1000
0100
0100
,  // measure 12
0010
0010
0100
0100
0010
0010
0001
1000
,  // measure 13
0100
0010
0001
1000
0100
0100
1000
0001
,  // measure 14
1001
0000
1000
0000
0001
0000
0100
0100
,  // measure 15
0010
0010
0100
0001
0100
0000
0010
1000
,  // measure 16
0010
1000
0001
0100
,  // measure 17
0010
1001
0100
0110
,  // measure 18
0010
0000
1000
0010
0100
0001
1001
0000
,  // measure 19
0001
1000
0100
1000
0010
1010
0000
0010
,  // measure 20
1000
0100
1000
0001
1000
1001
0000
0001
,  // measure 21
1000
0001
0100
0001
0010
0011
0001
0000
,  // measure 22
1001
0000
1000
0000
1001
0000
1000
1000
,  // measure 23
0010
0010
1000
1000
0010
0010
1000
1000
,  // measure 24
0010
0010
1000
1000
0010
1000
0001
0001
,  // measure 25
0010
0010
0001
0001
0010
0010
0001
0001
,  // measure 26
0010
0010
0001
0001
0010
0001
1000
1000
,  // measure 27
0010
0010
1000
1000
0010
0010
1000
1000
,  // measure 28
0010
0010
1000
1000
0010
1000
0001
0001
,  // measure 29
0010
0010
0001
0001
0010
0010
0001
0001
,  // measure 30
0010
0010
0001
0001
0010
0001
1000
0000
,  // measure 31
0011
0000
0010
0001
0100
0000
0001
0000
,  // measure 32
1010
0000
0010
1000
0100
0000
1000
0000
,  // measure 33
0101
0000
0100
0001
0010
0000
0001
0000
,  // measure 34
1010
0000
0100
1000
0010
0000
0100
0001
,  // measure 35
0011
0000
0100
1000
1010
0000
0010
1000
,  // measure 36
1100
0100
0010
0001
0101
0000
1001
0000
,  // measure 37
0001
1000
0100
1000
0010
1010
0000
0010
,  // measure 38
1000
0100
1000
0001
1000
1001
0000
0001
,  // measure 39
1000
0001
0100
0001
0010
0011
0001
0000
,  // measure 40
1001
0000
1000
0000
1001
0000
1000
0100
,  // measure 41
1000
0001
0100
0001
0010
0011
0000
0010
,  // measure 42
0001
0100
0001
1000
0001
1001
0000
1000
,  // measure 43
0001
1000
0100
1000
0010
1010
1000
0000
,  // measure 44
1001
0001
1001
0110
;

//---------------dance-single - ----------------
#NOTES:
     dance-single:
     :
     Hard:
     7:
     0.701618,0.643429,0.666859,0.018023,0.603778,469.000000,74.000000,2.000000,0.000000,0.000000,0.000000,0.701618,0.643429,0.666859,0.018023,0.603778,469.000000,74.000000,2.000000,0.000000,0.000000,0.000000:
// measure 0
0000
0000
0000
0000
,  // measure 1
0000
0000
0000
0000
,  // measure 2
0000
0000
0000
0000
0000
0000
0001
0001
,  // measure 3
1000
0000
1000
0000
0001
0100
0001
0000
1010
0000
1001
0000
1000
0010
1000
0010
,  // measure 4
1000
0000
1001
0000
0001
0000
0001
0000
1010
0000
1001
0000
0001
0010
0001
0000
,  // measure 5
0011
0000
1001
0000
0001
0100
0001
0100
0001
0000
1010
0000
0001
0000
0001
0000
,  // measure 6
1001
0000
1000
0010
1000
0000
0100
0000
1010
0000
0011
0000
1000
0000
1000
0000
,  // measure 7
1001
0000
0100
0000
0010
1000
0010
0000
1010
0000
1001
0000
0001
0010
0001
0010
,  // measure 8
1001
0000
0001
0000
0010
0001
0010
0000
0011
0000
0101
0000
1000
0000
0100
0000
,  // measure 9
1001
0000
0101
0000
1000
0100
1000
0100
1000
0000
0011
0100
1000
0000
0001
0000
,  // measure 10
1010
0000
1001
0000
0100
0000
0101
0000
1000
0000
1010
0000
0001
0010
0001
0100
,  // measure 11
0001
0010
0001
0100
0001
0010
0001
0100
0001
0000
1001
0000
1000
0010
1000
0100
,  // measure 12
1000
0010
1000
0100
1000
0010
1000
0100
1000
0000
1001
0000
0001
1000
0100
1000
,  // measure 13
0001
0100
0001
1000
0100
1000
0001
0100
0001
0000
1001
0000
0100
0000
0100
0000
,  // measure 14
2200
0000
3300
0000
1000
0000
1000
0000
0100
1000
0010
0000
0010
1000
0100
0010
,  // measure 15
0001
0100
0010
1000
0100
0010
0001
0100
0010
0000
1001
0000
0010
0001
0100
0010
,  // measure 16
1000
0100
0010
0001
0100
0010
1000
0100
0010
0000
1001
0000
0001
1000
0001
1000
,  // measure 17
0100
0010
0100
0010
0001
1000
0100
0010
0100
0000
1001
0000
0001
0000
0001
0000
,  // measure 18
1000
1000
0100
0100
1001
1001
1000
0010
,  // measure 19
1001
0000
0001
0010
0001
0000
1000
0000
1100
0000
1100
0000
0001
0010
0001
0010
,  // measure 20
0001
0000
0110
0000
0001
0010
0001
0000
1010
0000
1010
0000
0001
0000
0010
0000
,  // measure 21
1001
0000
1000
0010
1000
0000
0001
0000
0101
0000
0101
0000
0001
0010
0001
0000
,  // measure 22
1001
0000
1001
0000
1000
0010
1000
0000
1001
0000
1001
0000
0100
0000
0001
0000
,  // measure 23
1000
0000
1000
0000
0100
1000
0010
1000
0100
0000
1010
0000
0001
0000
1000
0000
,  // measure 24
0100
0000
0100
0000
0010
0001
0100
0001
0010
0000
1001
0000
0100
0000
0100
0000
,  // measure 25
0001
0000
1000
0000
0001
0010
0001
0010
0001
0000
0110
0000
0100
0000
1000
0000
,  // measure 26
0100
0000
1000
0000
0010
1000
0100
1000
0010
0000
0110
0000
1000
0000
0010
0000
,  // measure 27
1000
0000
0010
0000
1000
0100
0010
0001
0100
0000
0101
0000
0001
0000
1000
0000
,  // measure 28
1000
0000
0001
0000
1000
0010
0100
0001
1000
0000
0011
0000
0100
0000
0001
0000
,  // measure 29
0001
0000
0010
0000
0001
0010
0001
0010
0100
0000
1100
0000
0100
0000
0100
0000
,  // measure 30
1000
0000
1000
0000
0001
0010
0001
0010
0001
0000
1001
0000
0010
0001
0010
0001
,  // measure 31
0100
0001
0100
0001
0010
0001
0010
0001
1000
0100
1000
0100
0010
0100
0010
0100
,  // measure 32
1000
0100
1000
0100
1000
0010
0100
0001
0100
0001
0100
0010
1000
0010
1000
0001
,  // measure 33
0100
0001
0100
0010
1000
0100
0010
0001
0100
0001
0010
0001
0100
0001
1000
0100
,  // measure 34
1000
0001
0010
0100
0010
0100
1000
0010
1000
0001
0100
0001
0010
0001
0100
0010
,  // measure 35
1000
0001
1000
0010
1000
0100
0010
0001
0100
0010
1000
0001
0100
0001
1000
0010
,  // measure 36
1000
0001
1000
0100
0010
0001
0100
0001
0011
0000
1010
0000
0001
0000
0010
0000
,  // measure 37
0001
0000
1010
0100
0001
0000
0100
0000
1001
0000
1000
0000
0010
1000
0100
1000
,  // measure 38
0010
0000
0110
0000
0100
0001
0010
0000
1001
0000
0010
0000
1000
0000
1000
0000
,  // measure 39
0010
0000
0010
1000
0100
0000
1000
0000
1001
0000
0100
0000
0001
0100
0001
0000
,  // measure 40
1010
0000
1100
0000
1000
0100
1000
0000
0011
0000
0101
0000
1000
0000
0001
0000
,  // measure 41
0100
0000
0001
0010
0001
0000
1000
0000
1100
0000
0101
0000
1000
0010
0100
0001
,  // measure 42
0100
0000
0001
0000
1000
0010
1000
0000
0011
0000
0101
0000
0010
0000
0001
0000
,  // measure 43
0100
0000
0011
1000
0001
0000
0100
0000
1001
0000
0110
0000
0001
1000
0001
0000
,  // measure 44
0001
0000
0100
0000
0001
0100
0001
0000
1001
0000
0110
0000
0000
0000
0000
0000
;
