#TITLE:Mr. Larpus;
#SUBTITLE:;
#ARTIST:BanYa;
#TITLETRANSLIT:;
#SUBTITLETRANSLIT:;
#ARTISTTRANSLIT:;
#GENRE:;
#CREDIT:;
#BANNER:Mr.Larpus-banner.png;
#BACKGROUND:Mr. Larpus-bg.png;
#LYRICSPATH:;
#CDTITLE:;
#MUSIC:Mr. Larpus.ogg;
#OFFSET:-0.121683;
#SAMPLESTART:21.939987;
#SAMPLELENGTH:12.000000;
#SELECTABLE:YES;
#BPMS:0.000000=190.000000
;
#STOPS:
;
#BGCHANGES:0.000=Mr. Larpus.avi=1.000=0=0=0=StretchNoLoop====,
99999=-nosongbg-=1.000=0=0=0 // don't automatically add -songbackground-
;
#KEYSOUNDS:;
#ATTACKS:;

//---------------dance-single - ----------------
#NOTES:
     dance-single:
     :
     Medium:
     8:
     0.588113,0.609525,0.139891,0.000000,0.004996,398.000000,14.000000,0.000000,0.000000,0.000000,0.000000,0.588113,0.609525,0.139891,0.000000,0.004996,398.000000,14.000000,0.000000,0.000000,0.000000,0.000000:
// measure 0
0000
0000
0000
0000
,  // measure 1
0000
0000
0000
0000
,  // measure 2
0000
0000
0000
0000
,  // measure 3
0000
0000
0000
0000
,  // measure 4
0000
0000
0000
0000
,  // measure 5
0000
1000
0001
1000
,  // measure 6
0001
0000
0010
0000
0100
1000
0000
0000
,  // measure 7
0000
0001
1000
0001
,  // measure 8
1000
0000
0010
0000
0100
0001
0000
0000
,  // measure 9
0000
0000
1000
0001
1000
0001
0010
0100
,  // measure 10
0010
0100
1000
0100
0001
0100
0000
0000
,  // measure 11
0000
0000
0010
0100
0010
0100
1000
0001
,  // measure 12
1000
0001
1000
0010
0001
0010
0000
0000
,  // measure 13
0000
0000
0010
0000
0010
0000
1000
0001
,  // measure 14
1000
0001
0100
0001
0010
0100
1000
0100
,  // measure 15
1000
0001
0010
0010
0100
0100
1000
0001
,  // measure 16
1000
0001
0000
0001
0010
0001
1000
0010
,  // measure 17
1000
0010
1000
0001
1000
0001
0010
0100
,  // measure 18
0010
0100
1000
0001
1000
0001
0010
0100
,  // measure 19
0010
0100
1000
0010
0100
0001
1000
0100
,  // measure 20
0001
0100
1000
0001
0100
1000
0100
0010
,  // measure 21
1000
0100
0010
0001
0100
0010
1000
0001
,  // measure 22
0100
1000
0100
0001
1000
0100
0001
0100
,  // measure 23
0010
0001
1000
0100
0010
0001
1000
0001
,  // measure 24
0100
1000
0100
0001
1000
0100
0001
0100
,  // measure 25
1000
0001
1000
0100
1000
0100
0001
0100
,  // measure 26
0001
0100
1000
0100
0001
0100
1000
0100
,  // measure 27
0001
0100
1000
0100
0010
0001
0100
0010
,  // measure 28
1000
0001
0000
0000
0000
0000
0000
0000
,  // measure 29
0000
1001
0000
0000
,  // measure 30
0000
0000
0000
0000
,  // measure 31
0000
1001
0000
0000
,  // measure 32
0000
0000
0000
0000
,  // measure 33
0000
0110
0000
0000
,  // measure 34
0000
0000
0000
0000
,  // measure 35
0000
1100
0000
0000
,  // measure 36
0000
0000
0000
0000
,  // measure 37
0000
0011
0000
0000
,  // measure 38
0000
0100
0000
0000
,  // measure 39
0000
1001
0000
0000
,  // measure 40
0000
0000
0000
0000
,  // measure 41
0000
0000
1000
0001
1000
0001
0010
0100
,  // measure 42
0010
0100
1000
0100
1000
0001
0010
0001
,  // measure 43
0100
0010
1000
0100
0010
0001
0010
0100
,  // measure 44
1000
0001
0010
0100
1000
0100
0010
0001
,  // measure 45
1000
0100
0010
0001
0100
0010
1000
0100
,  // measure 46
0001
0100
1000
0010
0001
0010
1000
0010
,  // measure 47
0100
0001
1000
0100
0010
0001
0100
1000
,  // measure 48
0100
0001
1000
0100
0001
0100
1000
0010
,  // measure 49
0100
0001
1000
0000
0001
0000
1000
0001
,  // measure 50
1000
0000
0001
0000
1000
0010
1000
0000
0010
0000
0000
0000
1000
0000
0000
0000
,  // measure 51
0001
0010
0100
1000
0010
0100
0001
1000
,  // measure 52
0100
1000
0000
0001
0010
0001
1000
0010
,  // measure 53
1000
0010
1000
0001
1000
0001
0010
0100
,  // measure 54
0010
0100
1000
0100
0001
0100
0000
0000
,  // measure 55
0000
0000
0010
0100
0010
0100
1000
0001
,  // measure 56
1000
0001
1000
0010
0001
0010
0000
0000
,  // measure 57
0000
0000
1000
0100
1000
0100
0001
0100
,  // measure 58
0001
0100
0010
0100
0001
0100
1000
0100
,  // measure 59
0010
0001
1000
0010
1000
0010
0001
0010
,  // measure 60
0001
0010
0100
0010
0001
0010
1000
0010
,  // measure 61
0100
0001
1000
0100
0001
0100
1000
0001
,  // measure 62
0100
1000
0100
0010
1000
0010
0100
0001
,  // measure 63
0010
1000
0010
0001
0010
0100
1000
0100
,  // measure 64
0001
0100
1000
0001
0100
1000
0100
0001
,  // measure 65
1000
0001
1000
0000
0001
0000
1000
0100
,  // measure 66
0010
0100
1000
0001
0010
0100
0010
0000
,  // measure 67
0000
0000
0001
0100
0010
0100
0001
1000
,  // measure 68
0010
0100
0010
1000
0001
0010
0100
0000
,  // measure 69
0000
0000
1000
0000
0001
0000
1000
0010
,  // measure 70
0100
0010
1000
0001
0100
0010
0100
0000
,  // measure 71
0000
0000
0001
0010
0100
0010
0001
1000
,  // measure 72
0100
0010
0100
1000
0001
0100
0010
0000
,  // measure 73
0000
1100
0000
0011
,  // measure 74
0000
1001
0101
1010
,  // measure 75
1001
0110
0000
0000
,  // measure 76
0000
1001
0000
0000
;

//---------------dance-single - ----------------
#NOTES:
     dance-single:
     :
     Hard:
     10:
     0.668050,0.761906,0.139891,0.000000,0.194848,454.000000,14.000000,0.000000,0.000000,0.000000,0.000000,0.668050,0.761906,0.139891,0.000000,0.194848,454.000000,14.000000,0.000000,0.000000,0.000000,0.000000:
// measure 0
0000
0000
0000
0000
,  // measure 1
0000
0000
0000
0000
,  // measure 2
0000
0000
0000
0000
,  // measure 3
0000
0000
0000
0000
,  // measure 4
0000
0000
0000
0000
,  // measure 5
0000
0000
1000
0100
0001
0100
1000
0100
,  // measure 6
0001
0100
0010
0000
0100
1000
0000
0000
,  // measure 7
0000
0000
0001
0100
1000
0100
0001
0100
,  // measure 8
1000
0100
0010
0000
0100
0001
0000
0000
,  // measure 9
0000
0000
1000
0001
1000
0001
0010
0100
,  // measure 10
0010
0100
1000
0100
0001
0100
0000
0000
,  // measure 11
0000
0000
0010
0100
0010
0100
1000
0001
,  // measure 12
1000
0001
1000
0010
0001
0010
0000
0000
,  // measure 13
0000
0000
0010
0000
0010
0000
1000
0001
,  // measure 14
1000
0001
0100
0001
0010
0100
1000
0100
,  // measure 15
1000
0001
0010
0010
0100
0100
1000
0001
,  // measure 16
1000
0001
0000
0001
0010
0001
1000
0010
,  // measure 17
1000
0010
1000
0001
1000
0001
0010
0100
,  // measure 18
0010
0100
1000
0001
1000
0001
0010
0100
,  // measure 19
0010
0100
1000
0010
0100
0001
1000
0100
,  // measure 20
0001
0100
1000
0001
0100
1000
0100
0010
,  // measure 21
1000
0100
0010
0001
0100
0010
1000
0001
,  // measure 22
0100
1000
0100
0001
1000
0100
0001
0100
,  // measure 23
0010
0001
1000
0100
0010
0001
1000
0001
,  // measure 24
0100
1000
0100
0001
1000
0100
0001
0100
,  // measure 25
1000
0001
1000
0100
1000
0100
0001
0100
,  // measure 26
0001
0100
1000
0100
0001
0100
1000
0100
,  // measure 27
0001
0100
1000
0100
0010
0001
0100
0010
,  // measure 28
1000
0001
0000
0001
1000
0010
1000
0001
,  // measure 29
0100
0001
1001
0000
0000
0000
0000
0000
,  // measure 30
0000
0000
0000
0000
,  // measure 31
0000
1001
0000
0000
,  // measure 32
0000
0000
0000
0000
,  // measure 33
0000
0110
0000
0000
,  // measure 34
0000
0000
0000
0000
,  // measure 35
0000
1100
0000
0000
,  // measure 36
0000
0000
0000
0000
0000
0000
0000
0000
0001
1000
0001
1000
0001
1000
0001
1000
,  // measure 37
0001
1000
0001
0000
0011
0000
0000
0000
0000
0000
0000
0000
0000
0000
0000
0000
,  // measure 38
0000
0100
0000
0000
,  // measure 39
0000
1001
0000
0000
,  // measure 40
0000
0000
0000
0000
0000
0000
0010
0001
0010
0001
1000
0100
1000
0100
1000
0001
,  // measure 41
1000
0001
1000
0001
1000
0000
0001
0000
1000
0000
0001
0000
0010
0000
0100
0000
,  // measure 42
0010
0100
1000
0100
1000
0001
0010
0001
,  // measure 43
0100
0010
1000
0100
0010
0001
0010
0100
,  // measure 44
1000
0001
0010
0100
1000
0100
0010
0001
,  // measure 45
1000
0100
0010
0001
0100
0010
1000
0100
,  // measure 46
0001
0100
1000
0010
0001
0010
1000
0010
,  // measure 47
0100
0001
1000
0100
0010
0001
0100
1000
,  // measure 48
0100
0001
1000
0100
0001
0100
1000
0010
,  // measure 49
0100
0001
1000
0000
0001
0000
1000
0001
,  // measure 50
1000
0000
0001
0000
1000
0010
1000
0000
0010
0000
0000
0000
1000
0000
0000
0000
,  // measure 51
0001
0010
0100
1000
0010
0100
0001
1000
,  // measure 52
0100
1000
0000
0001
0010
0001
1000
0010
,  // measure 53
1000
0000
0010
0000
1000
0100
1000
0100
1000
0000
0000
0000
0010
0000
0000
0000
,  // measure 54
1000
0000
0010
0100
0000
0001
0000
0000
,  // measure 55
0000
0000
0000
0000
0001
0100
0001
0100
0001
0000
0000
0000
0010
0000
0000
0000
,  // measure 56
0001
0000
0010
0100
0000
1000
0000
0000
,  // measure 57
0000
0000
0000
0000
0100
1000
0100
1000
0100
1000
0100
1000
0001
0010
0001
0010
,  // measure 58
0001
0000
0000
0000
0100
0001
0100
0001
0100
0001
0100
0001
1000
0010
1000
0010
,  // measure 59
1000
0000
1000
0010
1000
0010
0001
0010
,  // measure 60
0001
0010
0100
0010
0001
0010
1000
0010
,  // measure 61
0100
0000
0000
0001
0000
0000
1000
0000
0100
0000
0010
0000
0001
0000
0010
0000
0100
0000
1000
0000
0010
0000
0100
0000
,  // measure 62
0001
0000
0100
0010
1000
0010
0100
0001
,  // measure 63
0010
1000
0010
0001
0010
0100
1000
0100
,  // measure 64
0001
0100
1000
0001
0100
1000
0100
0001
,  // measure 65
1000
0001
1000
0000
0001
0000
1000
0100
,  // measure 66
0010
0100
1000
0001
0010
0100
0010
0000
,  // measure 67
0000
0000
0001
0100
0010
0100
0001
1000
,  // measure 68
0010
0100
0010
1000
0001
0010
0100
0000
,  // measure 69
0000
0000
1000
0000
0001
0000
1000
0010
,  // measure 70
0100
0010
1000
0001
0100
0010
0100
0000
,  // measure 71
0000
0000
0001
0010
0100
0010
0001
1000
,  // measure 72
0100
0010
0100
1000
0001
0100
0010
0000
,  // measure 73
0000
1100
0000
0011
,  // measure 74
0000
1001
0101
1010
,  // measure 75
1001
0000
0000
0000
0110
0000
0000
0000
0000
0000
0000
0000
1000
0001
1000
0001
,  // measure 76
1000
0001
1000
0001
1001
0000
0000
0000
0000
0000
0000
0000
0000
0000
0000
0000
;

//---------------dance-single - ----------------
#NOTES:
     dance-single:
     :
     Easy:
     4:
     0.321178,0.304762,0.099922,0.000000,0.000000,215.000000,10.000000,0.000000,0.000000,0.000000,0.000000,0.321178,0.304762,0.099922,0.000000,0.000000,215.000000,10.000000,0.000000,0.000000,0.000000,0.000000:
// measure 0
0000
0000
0000
0000
,  // measure 1
0000
0000
0000
0000
,  // measure 2
0000
0000
0000
0000
,  // measure 3
0000
0000
0000
0000
,  // measure 4
0000
0000
0000
0000
,  // measure 5
0000
1000
0001
1000
,  // measure 6
0001
0010
0100
0000
,  // measure 7
0000
0001
1000
0001
,  // measure 8
1000
0010
0100
0000
,  // measure 9
0000
1000
0001
0010
,  // measure 10
0100
1000
0001
0000
,  // measure 11
0000
0010
0100
1000
,  // measure 12
0001
0010
0100
0000
,  // measure 13
0000
0100
0100
1000
,  // measure 14
0001
0100
0010
1000
,  // measure 15
0001
1000
0010
0100
,  // measure 16
0001
0000
0100
0100
,  // measure 17
0100
1000
0010
0100
,  // measure 18
0001
1000
0010
0100
,  // measure 19
0001
0100
0010
1000
,  // measure 20
0100
1000
0100
1000
,  // measure 21
0010
1000
0001
1000
,  // measure 22
0001
0100
0001
0010
,  // measure 23
0001
0010
0100
0010
,  // measure 24
0100
1000
0001
1000
,  // measure 25
0100
0001
0100
0001
,  // measure 26
0100
1000
0010
1000
,  // measure 27
0010
0100
0100
0010
,  // measure 28
0010
0000
0000
0000
,  // measure 29
0000
1001
0000
0000
,  // measure 30
0000
0000
0000
0000
,  // measure 31
0000
1001
0000
0000
,  // measure 32
0000
0000
0000
0000
,  // measure 33
0000
0110
0000
0000
,  // measure 34
0000
0000
0000
0000
,  // measure 35
0000
1100
0000
0000
,  // measure 36
0000
0000
0000
0000
,  // measure 37
0000
0011
0000
0000
,  // measure 38
0000
0100
0000
0000
,  // measure 39
0000
1000
0000
0000
,  // measure 40
0000
0000
0000
0000
,  // measure 41
0000
1000
0001
0010
,  // measure 42
0100
0001
1000
0010
,  // measure 43
0100
0001
1000
0100
,  // measure 44
1000
0001
0010
0100
,  // measure 45
1000
0100
0010
0001
,  // measure 46
0100
1000
0100
0010
,  // measure 47
0001
0010
0100
1000
,  // measure 48
0001
0010
0100
1000
,  // measure 49
0001
0100
0100
1000
,  // measure 50
0001
0010
0100
0010
,  // measure 51
0001
0100
0010
1000
,  // measure 52
0100
0000
0100
0100
,  // measure 53
0100
1000
0001
0010
,  // measure 54
0100
1000
0001
0000
,  // measure 55
0000
0010
0100
1000
,  // measure 56
0001
0010
0100
0000
,  // measure 57
0000
1000
0001
1000
,  // measure 58
0100
1000
0010
1000
,  // measure 59
0010
0001
0010
0001
,  // measure 60
0100
0001
0010
0100
,  // measure 61
1000
0010
0001
0100
,  // measure 62
0001
1000
0100
0001
,  // measure 63
0010
0100
0010
0100
,  // measure 64
0001
1000
1000
0001
,  // measure 65
0001
0100
0100
1000
,  // measure 66
0010
0100
1000
1000
,  // measure 67
0000
0100
0100
0100
,  // measure 68
0100
0000
0001
0001
,  // measure 69
0001
0100
0100
0001
,  // measure 70
0010
0100
0001
0001
,  // measure 71
0000
0100
0100
0100
,  // measure 72
0100
0000
1000
1000
,  // measure 73
1000
1100
0000
0011
,  // measure 74
0000
0110
0000
1001
,  // measure 75
0000
0100
0000
0000
,  // measure 76
0000
1001
0000
0000
;

//---------------dance-single - ----------------
#NOTES:
     dance-single:
     :
     Challenge:
     15:
     0.879314,1.000000,0.169868,0.129899,0.544575,586.000000,17.000000,13.000000,0.000000,0.000000,0.000000,0.879314,1.000000,0.169868,0.129899,0.544575,586.000000,17.000000,13.000000,0.000000,0.000000,0.000000:
// measure 0
0000
0000
0000
0000
,  // measure 1
0000
0000
0000
0000
,  // measure 2
0000
0000
0000
0000
,  // measure 3
0000
0000
0000
0000
,  // measure 4
0000
0000
0000
0000
,  // measure 5
0000
0000
1000
0010
1000
0001
0100
0001
,  // measure 6
1000
0100
1000
0001
0010
0002
0000
0000
,  // measure 7
0003
0000
0001
0010
0001
1000
0100
1000
,  // measure 8
0001
0100
0001
1000
0010
2000
0000
0000
,  // measure 9
3000
0000
1000
0100
1000
0001
0010
0001
,  // measure 10
1000
0010
1000
0001
0100
0002
0000
0000
,  // measure 11
0003
0000
0001
0100
0001
1000
0010
1000
,  // measure 12
0001
0010
0001
1000
0100
2000
0000
0000
,  // measure 13
3000
0000
0020
0030
0020
0030
1000
0001
,  // measure 14
1000
0001
0100
0001
0010
0100
1000
0100
,  // measure 15
1000
0001
0010
0010
0100
0100
1000
0001
,  // measure 16
1000
0000
0001
0000
0000
0000
0001
1000
0010
1000
0010
1000
0010
1000
0001
0010
,  // measure 17
0001
1000
0010
1000
0001
0000
0100
0000
0001
0000
1000
0000
0100
0000
1000
0000
,  // measure 18
0001
1000
0100
0100
1000
0010
0100
0010
,  // measure 19
1000
0010
0100
0100
0010
0100
0001
0010
,  // measure 20
0100
1000
0100
0100
0010
0100
1000
0010
,  // measure 21
0100
0001
1000
1000
0001
0010
0100
1000
,  // measure 22
0010
0100
0001
0001
1000
0010
0100
0001
,  // measure 23
0010
0100
1000
1000
0001
0010
0100
1000
,  // measure 24
0001
0100
0010
0010
1000
0010
0100
0001
,  // measure 25
1000
0100
0010
0010
0100
1000
0010
0100
,  // measure 26
0001
0100
0010
0010
0100
0001
0010
0100
,  // measure 27
1000
0100
1000
0001
1000
0001
0010
0100
,  // measure 28
0010
0100
0000
0001
0100
1000
0001
0010
,  // measure 29
0100
1000
0001
1000
0001
0000
0000
0001
0000
0000
0001
0000
1000
0000
0000
1000
,  // measure 30
0000
0000
1000
0000
0010
0000
0000
0010
0000
0000
0010
0000
1000
0000
0100
0000
,  // measure 31
1000
0001
1001
0000
1000
0010
0100
0001
,  // measure 32
1000
0000
0010
0000
0100
0000
0000
0100
0000
0000
0100
0000
0001
0000
1000
0000
,  // measure 33
0001
0010
0100
1000
0001
0000
0100
0000
0001
0000
1000
0000
0010
0000
0100
0000
,  // measure 34
0010
0000
1000
0000
0100
0000
0000
0100
0000
0000
0100
0000
1000
0000
0001
0000
,  // measure 35
0100
0000
0010
0000
1001
0000
1000
0010
1000
0000
0100
0000
0010
0000
0001
0000
,  // measure 36
0100
0000
0010
1000
0100
0010
0100
0010
0100
1000
0100
1000
0100
1000
0001
1000
,  // measure 37
0010
1000
0010
1000
0001
0000
0000
0000
0100
0000
0100
0000
0010
0000
1000
0000
,  // measure 38
0001
0000
1000
0000
0100
0000
0000
0100
0000
0000
0100
0000
0010
0000
0001
0000
,  // measure 39
1000
0010
0110
0000
0010
1000
0100
0010
,  // measure 40
0001
0000
0100
0000
0001
0000
1000
0010
1000
0010
1000
0010
0100
0010
0100
0010
,  // measure 41
0100
0001
0100
0001
0100
0000
0001
0000
0100
0000
0010
0000
1000
0000
0100
0000
,  // measure 42
0010
0001
1000
0100
0001
0100
1000
0001
,  // measure 43
0010
0000
0100
0000
1000
0100
0010
0001
0010
0100
1000
0100
0010
0001
0010
0100
,  // measure 44
1000
0100
0010
0001
0010
0100
1000
0100
0010
0001
0010
0100
1000
0100
0010
0001
,  // measure 45
0010
0100
1000
0100
0020
0000
0000
0000
0000
0000
0000
0000
0031
0000
0010
0000
,  // measure 46
0100
1000
0001
0100
1000
0200
0000
0000
,  // measure 47
0000
0000
0000
0300
0001
0000
0100
0000
0010
0000
1000
0000
0001
0000
0010
0000
,  // measure 48
1000
0000
0010
0000
0001
0000
1000
0000
0010
0000
0200
0000
0000
0000
0000
0300
,  // measure 49
0001
0000
0100
0000
1001
0000
0100
0001
,  // measure 50
0010
0000
0100
0000
1000
0100
1000
0000
0100
0000
1000
0000
0010
0000
0100
0000
,  // measure 51
0001
0100
0001
0010
0100
1000
0001
0100
,  // measure 52
0010
0000
1000
0000
0010
1000
0010
1000
0010
1000
0010
1000
0100
1000
0010
1000
,  // measure 53
0100
1000
0010
1000
0001
1000
0001
1000
0001
0000
0000
0000
1000
0000
0000
0000
,  // measure 54
0100
0110
1001
0110
,  // measure 55
0000
0000
0000
0000
1000
0001
1000
0001
1000
0000
0000
0000
0001
0000
0000
0000
,  // measure 56
0100
1001
0110
1001
,  // measure 57
0000
0000
0000
0000
0001
0010
0100
1000
0100
0010
0001
0010
0100
1000
0100
0010
,  // measure 58
0001
0010
0100
1000
0100
0010
0001
0010
0100
1000
0100
0010
0001
0010
0100
1000
,  // measure 59
0100
0010
0001
0010
0100
1000
0100
0010
0001
0010
0100
1000
0100
0010
0001
0010
,  // measure 60
0100
1000
0100
0010
0001
0000
0100
0000
0001
0000
1000
0000
0010
0000
1000
0000
,  // measure 61
0001
0000
0100
0000
0001
1000
0001
0000
0010
0000
0100
0000
1000
0000
0010
0000
,  // measure 62
0100
0000
0001
0000
0100
0010
0100
0000
0010
0000
0001
0000
1000
0000
0100
0000
,  // measure 63
0010
0000
0100
0000
1000
0100
0010
0001
0010
0100
1000
0100
0010
0001
0010
0100
,  // measure 64
1000
0100
0010
0001
0010
0100
0010
0100
0010
0100
0010
0100
1000
0001
1000
0001
,  // measure 65
1000
0001
1000
0001
1000
0000
0000
0000
0001
0000
0000
0000
1000
0000
0100
0000
,  // measure 66
0010
0100
1000
0001
0010
0100
0020
0000
,  // measure 67
0030
0000
0001
0100
0010
0100
0001
1000
,  // measure 68
0010
0100
0010
1000
0001
0010
0200
0000
,  // measure 69
0300
0000
1000
0000
0001
0000
1000
0010
,  // measure 70
0100
0010
1000
0001
0100
0010
0200
0000
,  // measure 71
0300
0000
0001
0010
0100
0010
0001
1000
,  // measure 72
0100
0010
0100
1000
0001
0100
0020
0000
,  // measure 73
0030
1010
0000
0101
,  // measure 74
0000
1010
0101
1001
,  // measure 75
0110
0000
0000
0000
1001
0000
0000
0000
0000
0000
0000
0000
0100
0010
0001
0010
,  // measure 76
0100
1000
0100
0010
0001
0000
0000
0000
0000
0000
0000
0000
0000
0000
0000
0000
;
