#VERSION:0.82;
#TITLE:Matador;
#SUBTITLE:;
#ARTIST:Cranky;
#TITLETRANSLIT:;
#SUBTITLETRANSLIT:;
#ARTISTTRANSLIT:;
#GENRE:;
#ORIGIN:;
#CREDIT:;
#BANNER:Matador ver2-bn.jpg;
#BACKGROUND:Matador ver2-bg.jpg;
#PREVIEWVID:;
#JACKET:;
#CDIMAGE:;
#DISCIMAGE:;
#LYRICSPATH:;
#CDTITLE:;
#MUSIC:Matador ver2.mp3;
#OFFSET:-0.270000;
#SAMPLESTART:11.679153;
#SAMPLELENGTH:12.000000;
#SELECTABLE:YES;
#BPMS:0.000=168.000;
#STOPS:;
#DELAYS:;
#WARPS:;
#TIMESIGNATURES:0.000=4=4;
#TICKCOUNTS:0.000=4;
#COMBOS:0.000=1;
#SPEEDS:0.000=1.000=0.000=0;
#SCROLLS:0.000=1.000;
#FAKES:;
#LABELS:0.000=Song Start;
#BGCHANGES:0.000=Matador ver2.avi=1.000=0=0=0=StretchNoLoop====,
99999=-nosongbg-=1.000=0=0=0 // don't automatically add -songbackground-
;
#KEYSOUNDS:;
#ATTACKS:
;

//---------------dance-single - ----------------
#NOTEDATA:;
#CHARTNAME:;
#STEPSTYPE:dance-single;
#DESCRIPTION:;
#CHARTSTYLE:;
#DIFFICULTY:Hard;
#METER:7;
#RADARVALUES:0.709139,0.677384,0.606801,0.244406,0.084278,488.000000,72.000000,29.000000,0.000000,0.000000,0.000000,0.000000,0.000000,0.709139,0.677384,0.606801,0.244406,0.084278,488.000000,72.000000,29.000000,0.000000,0.000000,0.000000,0.000000,0.000000;
#CREDIT:;
#NOTES:
// measure 0
0000
0000
0000
0000
,  // measure 1
0000
0000
0000
0000
,  // measure 2
0000
0000
0000
0000
,  // measure 3
0000
0000
0000
0000
,  // measure 4
0001
0001
0001
0001
,  // measure 5
1000
1000
1000
1000
,  // measure 6
0010
0010
0100
0100
,  // measure 7
0010
0100
0010
0110
0000
0000
0000
0000
,  // measure 8
1001
0000
0110
0000
0001
0010
0100
1000
,  // measure 9
1001
0000
0110
0000
1000
0010
0100
0001
,  // measure 10
1001
0000
0110
0000
1000
0100
0010
0001
,  // measure 11
1001
0000
0110
0000
0001
0100
0010
1000
,  // measure 12
1010
0000
1001
0000
1000
0100
0010
0001
,  // measure 13
0011
0000
1001
0000
0001
0100
0010
1000
,  // measure 14
1010
0000
1001
0000
1000
0100
0010
0001
,  // measure 15
0011
0000
0000
0100
0000
0000
1001
0000
0000
0000
0000
0000
0000
0000
0000
0000
,  // measure 16
1000
0100
1000
0100
1000
0100
1000
0100
,  // measure 17
1000
0010
1000
0010
1000
0010
1000
0010
,  // measure 18
0100
0010
0100
0010
0100
0001
0100
0001
,  // measure 19
1000
0001
1000
0001
1000
0001
1000
0001
,  // measure 20
1000
0100
1000
0100
0010
0100
0010
0100
,  // measure 21
0010
0001
0010
0001
0010
0001
0010
0001
,  // measure 22
0100
0001
0100
0001
1000
0001
1000
0001
,  // measure 23
1000
0010
0100
0001
0200
0000
0300
0000
,  // measure 24
0101
0000
1001
0000
1000
0010
0100
0000
,  // measure 25
0101
0000
1001
0000
1000
1000
1000
0000
,  // measure 26
1100
0000
1001
0000
0001
0010
0100
0000
,  // measure 27
1100
0000
1001
0000
0001
0001
0001
0000
,  // measure 28
2000
0000
0000
3000
0002
0000
0003
0010
0200
0000
0000
0300
2000
0000
3000
0010
,  // measure 29
0200
0000
0000
0300
0001
0000
0100
0000
0010
0000
1000
0000
0100
0000
1000
0000
,  // measure 30
0100
0010
0100
0010
0001
0010
0001
0010
,  // measure 31
1001
0001
1000
0100
0110
0010
0001
1000
,  // measure 32
1001
0001
1000
0100
0110
0010
0001
0100
,  // measure 33
0101
0001
1000
0010
1010
1000
0001
0100
,  // measure 34
0101
0000
0000
0000
0000
0000
0000
0000
0000
0101
0000
0000
0000
0000
0000
0000
0001
0000
0000
0000
1000
0000
0000
0000
0100
0000
0000
0000
0000
0000
0000
0000
0000
0000
0000
0000
0000
0000
0000
0000
0000
0000
0000
0000
0000
0000
0000
0000
,  // measure 35
1001
0000
0110
0000
1000
0010
0100
0001
,  // measure 36
1001
0000
0110
0000
0001
0010
0100
1000
,  // measure 37
1001
0000
0110
0000
0001
0100
0010
1000
,  // measure 38
1001
0000
0110
0000
1000
0100
0010
0001
,  // measure 39
0011
0000
1001
0000
0001
0100
0010
1000
,  // measure 40
1010
0000
1001
0000
1000
0100
0010
0001
,  // measure 41
0011
0000
1001
0000
0001
0100
0010
1000
,  // measure 42
1010
0000
0000
0100
0000
0000
1001
0000
0000
0000
0000
0000
0000
0000
0000
0000
,  // measure 43
0001
0100
0001
0100
0001
0100
0001
0100
,  // measure 44
0001
0010
0001
0010
0001
0010
0001
0010
,  // measure 45
0100
0010
0100
0010
0100
0010
0100
0010
,  // measure 46
0100
1000
0100
1000
0100
1000
0100
1000
,  // measure 47
0100
0010
0100
0010
0100
0010
0100
0010
,  // measure 48
1000
0010
1000
0010
0001
0010
0001
0010
,  // measure 49
0001
1000
0001
1000
0001
1000
0001
1000
,  // measure 50
0001
0100
0010
1000
0200
0300
2000
3000
,  // measure 51
0020
0030
0200
0300
0002
0003
2000
3000
,  // measure 52
0100
1000
0010
0100
0002
0003
2000
3000
,  // measure 53
0200
0300
0010
0100
1000
0010
0100
0001
,  // measure 54
2000
3000
0100
0010
0002
0000
0000
0003
,  // measure 55
0200
0300
0020
0030
2000
3000
0002
0003
,  // measure 56
0020
0030
0200
0300
2000
3000
0010
0100
,  // measure 57
0002
0000
0003
1000
0020
0030
1000
0001
,  // measure 58
0010
0100
2000
3000
0001
0100
0010
1000
,  // measure 59
0200
1300
2000
3001
,  // measure 60
0001
0000
0000
0000
0000
0000
0000
0000
0000
0100
0000
0000
0000
0000
0000
0000
0001
0000
0000
0000
1000
0000
0000
0000
0001
0000
0000
0000
0000
0000
0000
0000
0000
0000
0000
0000
0000
0000
0000
0000
0000
0000
0000
0000
0000
0000
0000
0000
,  // measure 61
1000
1000
0100
0010
0100
1000
0100
0010
,  // measure 62
0100
1000
0100
0010
0100
1000
0100
0010
,  // measure 63
0100
0100
0010
0001
0010
0100
0010
0001
,  // measure 64
0010
0100
0010
0001
0010
0100
0010
0001
,  // measure 65
0010
0010
0001
1000
0001
0010
0001
1000
,  // measure 66
0001
0010
0001
1000
0001
0010
0001
1000
,  // measure 67
0001
0001
1000
0100
1000
0001
1000
0100
,  // measure 68
1100
1000
0100
0010
0011
0001
1000
0100
,  // measure 69
0110
0010
0001
1000
1001
0001
1000
0100
,  // measure 70
1100
1000
0100
0010
0011
0001
1000
0100
,  // measure 71
0110
0000
0000
0000
0000
0000
0000
0000
0000
0010
0000
0000
0000
0000
0000
0000
0100
0000
0000
0000
1000
0000
0000
0000
0001
0000
0000
0000
0000
0000
0000
0000
0000
0001
0000
0000
0000
0000
0000
0000
0100
0000
0000
0000
0001
0000
0000
0000
,  // measure 72
1000
0000
0000
0000
0000
0000
0000
0000
0000
0100
0000
0000
0000
0000
0000
0000
0100
0000
0000
0000
1000
0000
0000
0000
0001
0000
0000
0000
0000
0000
0000
0000
0000
0000
0000
0000
0000
0000
0000
0000
0000
0000
0000
0000
0000
0000
0000
0000
,  // measure 73
1001
0000
1001
0000
1000
0010
0100
0001
,  // measure 74
1001
0000
0110
0000
0001
0010
0100
1000
,  // measure 75
1001
0000
0110
0000
0001
0100
0010
1000
,  // measure 76
1001
0000
0110
0000
1000
0100
0010
0001
,  // measure 77
0011
0000
1001
0000
0001
0100
0010
1000
,  // measure 78
1010
0000
1001
0000
1000
0100
0010
0001
,  // measure 79
0011
0000
1001
0000
0001
0100
0010
1000
,  // measure 80
1010
0000
0000
0100
0000
0000
1001
0000
0000
0000
0000
0000
0000
0000
0000
0000
;

//---------------dance-single - ----------------
#NOTEDATA:;
#CHARTNAME:;
#STEPSTYPE:dance-single;
#DESCRIPTION:;
#CHARTSTYLE:;
#DIFFICULTY:Challenge;
#METER:13;
#RADARVALUES:0.996888,1.000000,0.514095,0.547807,0.939699,702.000000,61.000000,65.000000,0.000000,0.000000,0.000000,0.000000,0.000000,0.996888,1.000000,0.514095,0.547807,0.939699,702.000000,61.000000,65.000000,0.000000,0.000000,0.000000,0.000000,0.000000;
#CREDIT:;
#NOTES:
// measure 0
0000
0000
0000
0000
,  // measure 1
0000
0000
0000
0000
,  // measure 2
0000
0000
0000
0000
,  // measure 3
0000
0000
0000
0000
,  // measure 4
0100
0100
0100
0100
,  // measure 5
1000
1000
1000
1000
,  // measure 6
0001
0001
0010
0010
,  // measure 7
0001
0010
0001
0010
0001
0010
0011
0000
0000
0000
0000
0000
0000
0000
0000
0000
,  // measure 8
0011
0000
1100
0000
0001
0010
0100
1000
,  // measure 9
1100
0000
0011
0000
1000
0010
0100
0001
,  // measure 10
0101
0000
1010
0000
0001
1000
0100
0010
,  // measure 11
0110
0000
1001
0000
1000
0001
0100
0010
,  // measure 12
0110
0000
1001
0000
1000
0100
0010
1000
,  // measure 13
1010
0000
0011
0000
0001
0100
0010
0001
,  // measure 14
0011
0000
1010
0000
1000
0100
0010
0001
,  // measure 15
0011
0000
0000
0100
0000
0000
1001
0000
0000
0000
0000
0000
0000
0000
0000
0000
,  // measure 16
0001
0100
0001
0100
0001
0100
0001
0100
0001
0100
0001
0100
0001
0100
0001
0100
,  // measure 17
0001
1000
0001
1000
0001
1000
0001
1000
0001
1000
0001
1000
0001
1000
0001
1000
,  // measure 18
0010
1000
0010
1000
0010
1000
0010
1000
0001
1000
0001
1000
0001
0010
0001
0010
,  // measure 19
0001
1000
0001
1000
0001
1000
0001
1000
0001
1000
0001
1000
0001
1000
0001
1000
,  // measure 20
0100
1000
0100
1000
0001
1000
0001
1000
0100
1000
0100
1000
0001
1000
0001
1000
,  // measure 21
0001
0010
0001
0010
0001
1000
0001
1000
0001
0010
0001
0010
0001
1000
0001
1000
,  // measure 22
0100
1000
0100
1000
0001
1000
0001
1000
0001
0100
0001
0100
0010
0100
0010
0100
,  // measure 23
0001
0010
0100
1000
0100
0010
0001
0010
0200
0000
0000
0000
0000
0000
0300
0000
,  // measure 24
0110
0000
0000
0000
1001
0000
0000
0001
0010
0100
1000
0010
0100
0000
0001
0000
,  // measure 25
0010
0100
1000
0001
1001
0110
1001
0000
,  // measure 26
0110
0000
0000
0000
1001
0000
0000
1000
0010
0100
0001
0010
0100
0000
1000
0000
,  // measure 27
0010
0100
0001
1000
1001
0110
1001
0000
,  // measure 28
0020
0000
0000
0030
0200
0000
0300
0001
0020
0000
0000
0030
0200
0000
0300
1000
,  // measure 29
0020
0000
0000
0030
0100
0010
0100
0001
0010
0100
1000
0010
0100
0001
1000
0000
,  // measure 30
0100
0010
0001
1000
0001
0010
0100
1000
,  // measure 31
1100
0100
1000
0001
0011
0010
0100
1000
,  // measure 32
1001
0001
1000
0100
0110
0010
0100
1000
,  // measure 33
1010
0010
0100
0001
0101
0001
0100
0010
,  // measure 34
0110
0000
0000
0000
0000
0000
0000
0000
0000
1001
0000
0000
0000
0000
0000
0000
0001
0000
0000
0000
1000
0000
0000
0000
0100
0000
0000
0000
0000
0000
0000
0000
0000
0000
0000
0000
0000
0000
0000
0000
0000
0000
0000
0000
0000
0000
0000
0000
,  // measure 35
0011
0000
0000
0000
1100
0000
0000
0000
0001
0000
0010
0000
0100
1000
0001
0000
,  // measure 36
0101
0000
0000
0000
1010
0000
0000
0000
1000
0000
0010
0000
0100
0001
1000
0000
,  // measure 37
1100
0000
0000
0000
0011
0000
0000
0000
0001
0000
1000
0000
0100
0010
0001
0000
,  // measure 38
1001
0000
0000
0000
0110
0000
0000
0000
0100
0000
0010
0000
1000
0001
0010
0000
,  // measure 39
0110
0000
0000
0000
0101
0000
0000
0000
0001
0000
1000
0000
0100
0010
1000
0000
,  // measure 40
1010
0000
0000
0000
0011
0000
0000
0000
0010
0000
0001
0000
0100
0010
0001
0000
,  // measure 41
0011
0000
0000
0000
1010
0000
0000
0000
0010
0000
1000
0000
0100
0010
0001
0000
,  // measure 42
0011
0000
0000
1001
0000
0000
0110
0000
0000
0000
0000
0000
0000
0000
0000
0000
,  // measure 43
0001
0100
0001
0100
0001
0100
0001
0100
0001
0100
0001
0100
0001
0100
0001
0100
,  // measure 44
0001
1000
0001
1000
0001
1000
0001
1000
0001
1000
0001
1000
0001
1000
0001
1000
,  // measure 45
0010
1000
0010
1000
0010
1000
0010
1000
0010
1000
0010
1000
0010
1000
0010
1000
,  // measure 46
0001
1000
0001
1000
0001
1000
0001
1000
0001
1000
0001
1000
0001
1000
0001
1000
,  // measure 47
0001
0010
0001
0010
0001
0010
0001
0010
0001
1000
0001
1000
0001
1000
0001
1000
,  // measure 48
0100
1000
0100
1000
0100
1000
0100
1000
0100
1000
0100
1000
0100
1000
0100
1000
,  // measure 49
0001
1000
0001
1000
0001
1000
0001
1000
0001
1000
0001
1000
0001
1000
0001
1000
,  // measure 50
0001
0100
0001
0100
0001
0100
0001
0100
0002
0000
0000
0003
0020
0000
0030
0100
,  // measure 51
2000
0000
0000
3000
0020
0030
0200
0300
0002
0003
0200
0300
0010
1000
0001
0000
,  // measure 52
1000
0000
0010
0000
1000
0000
0010
0000
1000
0000
0010
0000
1000
0000
0000
0000
0000
0000
0010
0000
0000
0000
0000
0000
0100
0000
0000
0001
0000
0000
1000
0000
0000
0000
0000
0000
0200
0000
0000
0000
0000
0000
0020
0000
0000
0000
0000
0000
,  // measure 53
0300
0000
0030
0000
0001
0100
0001
1000
0100
0010
0001
0010
0200
0300
2000
0000
,  // measure 54
0000
3000
0020
0030
0002
0003
0020
0030
2000
0002
0000
0000
3000
0003
0000
0000
,  // measure 55
0200
0300
0002
0003
0020
0030
2000
3000
0020
0030
0001
1000
,  // measure 56
0200
0000
0300
0020
0000
0030
0100
1000
0002
0000
0000
0003
0010
0100
1000
0100
,  // measure 57
2000
0000
0000
3000
0020
0030
0200
0300
0002
0000
0000
0003
0100
0010
1000
0010
,  // measure 58
0200
0000
0300
0002
2000
0000
0000
0003
0000
3000
0200
0300
1000
0010
0100
0001
,  // measure 59
1000
0000
0100
0000
0010
0100
0010
0000
0001
0000
1000
0001
,  // measure 60
1000
0000
0100
0000
0010
0001
0010
0000
0000
0000
0000
0000
,  // measure 61
0011
0001
1000
0001
0010
0001
1000
0001
,  // measure 62
0010
0100
0010
0001
0010
0100
0010
0001
,  // measure 63
0011
0001
1000
0001
0010
0001
1000
0001
,  // measure 64
0010
0100
0010
0001
0100
0100
0001
1000
,  // measure 65
1100
0100
1000
0001
1000
0100
1000
0001
,  // measure 66
1000
0100
0010
0100
1000
0100
0010
0001
,  // measure 67
0011
0001
1000
0001
1000
0010
0100
0001
,  // measure 68
2000
0000
0000
0000
0000
3000
0020
0000
0030
0200
0000
0300
0002
0000
0000
0000
0000
0003
0020
0000
0030
0200
0000
0300
,  // measure 69
2000
0000
0000
0000
0000
3000
0020
0000
0030
0002
0000
0003
0020
0000
0000
0000
0000
0030
2000
0000
3000
0020
0000
0030
,  // measure 70
0200
0000
0000
0000
0000
0300
0002
0000
0003
0020
0000
0030
0200
0000
0000
0000
0000
0300
2000
0000
3000
0020
0000
0030
,  // measure 71
0200
0000
0000
0000
0000
0000
0000
0000
0000
0000
0000
0000
0000
0000
0000
0000
0000
0000
0000
0000
0000
0000
0000
0000
0000
0000
0000
0000
0000
0000
0000
0000
0300
0000
0000
0000
0002
0000
0000
0000
0000
0000
0000
0000
0000
0000
0000
0000
0000
0000
0000
0000
0000
0000
0000
0000
0003
0000
0000
0000
0000
0000
0000
0000
0010
0000
0000
0000
0000
0000
0000
0000
0000
0000
0000
0000
0000
0000
0000
0000
0100
0000
0000
0000
0000
0000
0000
0000
0000
0000
0000
0000
0000
0000
0000
0000
2000
0000
0000
0000
0000
0000
0000
0000
0000
0000
0000
0000
0000
0000
0000
0000
0000
0000
0000
0000
0000
0000
0000
0000
0000
0000
0000
0000
0000
0000
3000
0000
0000
0000
0000
0000
0002
0000
0000
0000
0000
0000
0000
0000
0000
0000
0000
0000
0000
0000
0000
0000
0000
0000
0000
0000
0000
0000
0000
0000
0003
0000
0000
0000
0010
0000
0000
0000
0000
0000
0000
0000
0000
0000
0000
0000
0000
0000
0000
0000
0100
0000
0000
0000
0000
0000
0000
0000
0000
0000
0000
0000
0000
0000
0000
0000
,  // measure 72
2000
0000
0000
0000
0000
0000
3000
0000
0000
0020
0000
0000
0000
0000
0000
0030
1000
0000
0000
0000
0001
0000
0000
0000
0010
0000
0000
0000
0000
0000
0000
0000
0000
0000
0000
0000
0000
0000
0000
0000
0000
0000
0000
0000
0000
0000
0000
0000
,  // measure 73
0011
0000
0011
0000
0010
0001
1000
0100
,  // measure 74
1100
0000
1000
0001
0010
0000
0001
1000
0010
0000
1000
0000
0100
0000
0010
0000
,  // measure 75
0011
0000
0001
1000
0100
0000
1000
0001
0100
0000
0001
0000
0010
0000
0100
0000
,  // measure 76
1100
0000
1000
0001
0010
0000
0001
1000
0010
0000
1000
0000
0100
0000
0010
0000
,  // measure 77
0001
1000
0100
0010
0001
0100
0001
1000
0001
0010
0001
1000
0001
0010
0001
1000
,  // measure 78
0001
0100
0010
1000
0100
0010
0100
1000
0001
0100
0001
1000
0001
0100
0010
1000
,  // measure 79
0100
1000
0100
0010
0001
1000
0001
0010
0100
1000
0010
0100
0001
0010
0100
1000
,  // measure 80
0020
0000
0030
2000
0000
0000
0002
0000
0000
3003
0000
0000
0000
0000
0000
0000
;

//---------------dance-single - ----------------
#NOTEDATA:;
#CHARTNAME:;
#STEPSTYPE:dance-single;
#DESCRIPTION:;
#CHARTSTYLE:;
#DIFFICULTY:Medium;
#METER:5;
#RADARVALUES:0.601985,0.541907,0.640512,0.227550,0.046353,397.000000,76.000000,27.000000,0.000000,0.000000,0.000000,0.000000,0.000000,0.601985,0.541907,0.640512,0.227550,0.046353,397.000000,76.000000,27.000000,0.000000,0.000000,0.000000,0.000000,0.000000;
#CREDIT:;
#NOTES:
// measure 0
0000
0000
0000
0000
,  // measure 1
0000
0000
0000
0000
,  // measure 2
0000
0000
0000
0000
,  // measure 3
0000
0000
0000
0000
,  // measure 4
0001
0001
0001
0001
,  // measure 5
1000
1000
1000
1000
,  // measure 6
0010
0010
0100
0100
,  // measure 7
0010
0100
0010
0110
0000
0000
0000
0000
,  // measure 8
0011
0000
0011
0000
0001
1000
0010
0000
,  // measure 9
1010
0000
1010
0000
1000
0001
0100
0000
,  // measure 10
0101
0000
0101
0000
0001
1000
0100
0000
,  // measure 11
1100
0000
1100
0000
1000
0001
0010
0000
,  // measure 12
0011
0000
0011
0000
0001
1000
0100
0000
,  // measure 13
1100
0000
1100
0000
1000
0001
0100
0000
,  // measure 14
0101
0000
0101
0000
0001
0010
0100
1000
,  // measure 15
0001
0000
0000
0100
0000
0000
1001
0000
0000
0000
0000
0000
0000
0000
0000
0000
,  // measure 16
0001
0010
0001
0010
0001
0010
0001
0010
,  // measure 17
0001
0100
0001
0100
0001
0100
0001
0100
,  // measure 18
0001
1000
0001
1000
0100
1000
0100
1000
,  // measure 19
0100
0010
0100
0010
0100
0010
0100
0010
,  // measure 20
0001
0010
0001
0010
0001
1000
0001
1000
,  // measure 21
0010
1000
0010
1000
0001
1000
0001
1000
,  // measure 22
0100
1000
0100
1000
0100
1000
0100
1000
,  // measure 23
0001
0100
0010
1000
0200
0000
0300
0000
,  // measure 24
1000
0000
1010
0000
0001
0100
0010
1000
,  // measure 25
0100
0000
1100
0100
1000
0001
0100
0000
,  // measure 26
0001
0000
0011
0000
1000
0100
0010
0001
,  // measure 27
0100
0000
0101
0100
0001
1000
0100
0000
,  // measure 28
1000
0000
0000
0000
0010
0000
0000
0100
0001
0000
0000
0000
0010
0000
0000
0100
,  // measure 29
1000
0000
0001
0100
0010
1000
0100
1000
,  // measure 30
0001
0000
0101
0001
1000
0000
1100
1000
,  // measure 31
0001
0011
1000
1010
,  // measure 32
0001
0101
1000
1100
,  // measure 33
0001
1001
0010
0110
,  // measure 34
1001
0000
0000
0000
0000
0000
0000
0000
0000
0100
0000
0000
0000
0000
0000
0000
1000
0000
0000
0000
0001
0000
0000
0000
0100
0000
0000
0000
0000
0000
0000
0000
0000
0000
0000
0000
0000
0000
0000
0000
0000
0000
0000
0000
0000
0000
0000
0000
,  // measure 35
1001
0000
1001
0000
0001
1000
0100
0000
,  // measure 36
0110
0000
0110
0000
0010
0001
1000
0000
,  // measure 37
1001
0000
1001
0000
1000
0100
0010
0000
,  // measure 38
0110
0000
0110
0000
0100
0010
0001
0000
,  // measure 39
1001
0000
1001
0000
0001
1000
0100
0000
,  // measure 40
0110
0000
0110
0000
0010
0100
1000
0000
,  // measure 41
1001
0000
1001
0000
1000
0010
0100
0001
,  // measure 42
1000
0000
0000
0100
0000
0000
1001
0000
0000
0000
0000
0000
0000
0000
0000
0000
,  // measure 43
0001
0010
0001
0010
0001
0010
0001
0010
,  // measure 44
0001
1000
0001
1000
0001
1000
0001
1000
,  // measure 45
0010
1000
0010
1000
0010
1000
0010
1000
,  // measure 46
0010
0100
0010
0100
0010
0100
0010
0100
,  // measure 47
0001
0100
0001
0100
0001
1000
0001
1000
,  // measure 48
0001
0010
0001
0010
0001
1000
0001
1000
,  // measure 49
0010
1000
0010
1000
0010
1000
0010
1000
,  // measure 50
0001
1000
0001
1000
0020
0030
2000
3000
,  // measure 51
0200
0300
0020
0030
0002
0003
0200
0300
,  // measure 52
0001
0100
0010
1000
0200
0300
2000
3000
,  // measure 53
0002
0003
0200
0300
0020
0030
2000
3000
,  // measure 54
0020
0030
2000
3000
0002
0000
0000
0003
,  // measure 55
2000
3000
0020
0030
2000
3000
0002
0003
,  // measure 56
0020
0030
0002
0003
2000
0000
0000
3000
,  // measure 57
0200
0000
0000
0300
0020
0000
0000
0030
,  // measure 58
0002
0000
0000
0003
2000
0000
0000
3000
,  // measure 59
0100
0000
0100
0000
,  // measure 60
0100
0000
0100
0000
,  // measure 61
1100
0010
0010
0010
,  // measure 62
0011
0100
0100
0100
,  // measure 63
1100
0010
0010
0010
,  // measure 64
0011
0100
0100
0100
,  // measure 65
1001
0100
0100
0100
,  // measure 66
0011
0100
0100
0100
,  // measure 67
1001
0100
0100
0100
,  // measure 68
1010
0100
1001
0100
,  // measure 69
0011
0100
1001
0100
,  // measure 70
0011
0100
1010
0100
,  // measure 71
1001
0110
1001
0110
,  // measure 72
1001
0000
0000
0000
0000
0000
0000
0000
0000
0010
0000
0000
0000
0000
0000
0000
0001
0000
0000
0000
1000
0000
0000
0000
0010
0000
0000
0000
0000
0000
0000
0000
0000
0000
0000
0000
0000
0000
0000
0000
0000
0000
0000
0000
0000
0000
0000
0000
,  // measure 73
1000
0000
1000
0000
0100
1000
0001
0000
,  // measure 74
0011
0000
0011
0000
0001
1000
0010
0000
,  // measure 75
1010
0000
1010
0000
1000
0001
0100
0000
,  // measure 76
0101
0000
0101
0000
0001
0100
0010
0000
,  // measure 77
0110
0000
0110
0000
0100
0001
1000
0000
,  // measure 78
1001
0000
1001
0000
1000
0001
0100
0000
,  // measure 79
0110
0000
0110
0000
0010
0100
0001
1000
,  // measure 80
1001
0000
0000
0010
0000
0000
1100
0000
0000
0000
0000
0000
0000
0000
0000
0000
;

//---------------dance-single - ----------------
#NOTEDATA:;
#CHARTNAME:;
#STEPSTYPE:dance-single;
#DESCRIPTION:;
#CHARTSTYLE:;
#DIFFICULTY:Easy;
#METER:3;
#RADARVALUES:0.386475,0.406430,0.497240,0.210695,0.004214,237.000000,59.000000,25.000000,0.000000,0.000000,0.000000,0.000000,0.000000,0.386475,0.406430,0.497240,0.210695,0.004214,237.000000,59.000000,25.000000,0.000000,0.000000,0.000000,0.000000,0.000000;
#CREDIT:;
#NOTES:
0000
0000
0000
0000
,
0000
0000
0000
0000
,
0000
0000
0000
0000
,
0000
0000
0000
0000
,
0001
0000
0001
0000
,
1000
0000
1000
0000
,
0001
0000
1000
0000
,
1001
0000
0000
0000
,
0101
0101
0001
1000
,
1001
1001
1000
0100
,
0100
0100
1000
0010
,
1010
1010
1000
0001
,
1001
1001
0001
0010
,
0011
0011
0001
0100
,
0101
0101
0001
1000
,
1001
0000
0000
0000
,
0001
0100
0001
0100
,
0010
0100
0010
0100
,
0010
1000
0010
1000
,
0100
1000
0100
1000
,
0010
1000
0010
1000
,
0001
1000
0001
1000
,
0001
0100
0001
0100
,
0010
1000
1001
0000
,
1000
0010
1000
1000
,
0001
0010
0001
0001
,
1000
0100
1000
1000
,
0001
0100
0001
0001
,
0010
0100
1000
0001
,
0200
0300
0010
0100
,
0001
1000
0100
0010
,
0002
0003
0020
0030
,
0200
0300
2000
3000
,
0002
0003
0200
0300
,
0020
0030
2000
3000
,
1010
1010
1000
0001
,
1001
1001
0001
0010
,
0011
0011
0100
0001
,
0101
0101
0001
1000
,
1001
1001
1000
0100
,
1100
1100
0010
1000
,
1010
1010
1000
0001
,
1001
0000
0000
0000
,
1000
0010
1000
0010
,
1000
0100
1000
0100
,
1000
0001
1000
0001
,
0100
0001
0100
0001
,
0100
0010
0100
0010
,
1000
0010
1000
0010
,
1000
0100
1000
0100
,
1000
0001
1001
0000
,
0002
0003
0200
0300
,
0020
0030
2000
3000
,
0200
0300
2000
3000
,
0200
0300
0020
0030
,
0002
0003
0200
0300
,
0002
0003
0200
0300
,
0020
0030
2000
3000
,
0200
0300
2000
3000
,
1100
0000
1001
0000
,
0011
0000
1001
0000
,
1000
0000
0100
0000
,
0010
0000
0001
0000
,
0100
0000
0001
0000
,
0010
0000
0100
0000
,
1000
0000
0100
0000
,
0010
0000
0001
0000
,
0100
0000
0001
0000
,
0101
0000
1001
0000
,
1100
0000
0110
0000
,
0011
0000
1001
0000
,
1010
0000
0110
0000
,
0101
0000
0101
0000
,
0100
0100
0001
1000
,
1001
1001
1000
0010
,
1010
1010
0100
1000
,
1100
1100
1000
0001
,
1001
1001
0001
0100
,
0101
0101
0010
0001
,
0011
0011
0001
1000
,
1001
0000
0000
0010
0000
0000
1100
0000
0000
0000
0000
0000
0000
0000
0000
0000
;
