#VERSION:0.82;
#TITLE:Love is a Danger Zone (cranky mix);
#SUBTITLE:;
#ARTIST:BanYa remixed by cranky;
#TITLETRANSLIT:;
#SUBTITLETRANSLIT:;
#ARTISTTRANSLIT:;
#GENRE:;
#ORIGIN:;
#CREDIT:;
#BANNER:Love is a Danger Zone (cranky mix) ver2.png;
#BACKGROUND:Love is a Danger Zone (cranky mix) ver2-bg.png;
#PREVIEWVID:;
#JACKET:;
#CDIMAGE:;
#DISCIMAGE:;
#LYRICSPATH:;
#CDTITLE:;
#MUSIC:Love is a Danger Zone (cranky mix) ver2.ogg;
#OFFSET:-0.205000;
#SAMPLESTART:26.431000;
#SAMPLELENGTH:12.000000;
#SELECTABLE:YES;
#BPMS:0.000=155.000;
#STOPS:;
#DELAYS:;
#WARPS:;
#TIMESIGNATURES:0.000=4=4;
#TICKCOUNTS:0.000=4;
#COMBOS:0.000=1;
#SPEEDS:0.000=1.000=0.000=0;
#SCROLLS:0.000=1.000;
#FAKES:;
#LABELS:0.000=Song Start;
#BGCHANGES:0.000=Love is a Danger Zone (cranky mix).avi=1.000=0=0=0=StretchNoLoop====,
99999=-nosongbg-=1.000=0=0=0 // don't automatically add -songbackground-
;
#KEYSOUNDS:;
#ATTACKS:
;

//---------------dance-single - ----------------
#NOTEDATA:;
#CHARTNAME:;
#STEPSTYPE:dance-single;
#DESCRIPTION:;
#CHARTSTYLE:;
#DIFFICULTY:Medium;
#METER:9;
#RADARVALUES:0.700895,0.822390,0.358003,0.301048,0.093569,522.000000,44.000000,37.000000,0.000000,0.000000,0.000000,0.000000,0.000000,0.700895,0.822390,0.358003,0.301048,0.093569,522.000000,44.000000,37.000000,0.000000,0.000000,0.000000,0.000000,0.000000;
#CREDIT:;
#NOTES:
0000
0000
0000
0000
,
0000
0000
0000
0000
,
0000
0000
0000
0000
,
0000
0000
0000
0000
,
0000
0000
0000
0000
,
2001
0000
0100
0000
0010
0000
0001
3000
,
0001
0010
1000
0000
1000
0010
0002
0003
,
0100
0001
0010
0100
1000
0000
1000
0010
,
0001
0010
1000
0001
0010
0001
1000
0001
,
1002
0000
0100
0000
0010
0000
1000
0003
,
1000
0010
0001
0000
0001
0010
2000
3000
,
0100
1000
0010
0100
0001
1000
0100
1000
,
0001
0010
0100
1000
1001
0000
0100
0000
,
1010
0100
0001
0010
0011
0100
1000
0010
,
1010
0100
1001
0100
1010
0001
0011
1000
,
1010
0000
0100
1001
0000
1000
0100
0000
,
0100
1000
0001
0100
0020
0030
1100
0000
,
1000
0010
0100
0001
2000
0100
0010
3001
,
1000
0001
0010
1000
0010
0001
0100
0010
,
1000
0010
0100
0001
2000
0001
0010
3100
,
1000
0100
0010
0001
0101
0010
0101
1000
,
0001
0010
0100
1000
0002
0100
0010
1003
,
0001
1000
0010
0001
0010
1000
0100
0010
,
0001
0010
0100
1000
0002
1000
0010
0103
,
0001
0100
0010
1000
0100
1000
0001
0100
,
0101
0000
0000
0000
2100
0000
3000
0000
1000
0100
1000
0100
1000
0000
0001
0000
,
0010
1000
0010
0001
0010
0100
2000
3000
,
0100
0010
0002
0003
0100
0010
2000
3000
,
0100
0000
0010
0000
0002
0000
0003
0000
1000
0000
0001
0100
0001
1000
0100
1000
,
0010
0000
0001
0000
0010
0000
1000
0000
0001
0100
0000
0100
0010
0000
1000
0000
,
0010
0001
0010
1000
0010
0100
0002
0003
,
0100
0010
2000
3000
0100
0010
0002
0003
,
0100
0000
0010
0000
2000
0000
3000
0000
0001
0000
1000
0100
1000
0001
0100
0001
,
0010
0100
0010
0001
0100
0001
1000
0100
,
1000
0010
0100
0001
0010
1000
0010
0001
,
0100
0010
1000
0001
0010
1000
0010
1000
,
0010
0001
0010
0100
0010
1000
0010
0100
,
1000
0010
0100
0001
1001
1000
0100
0010
,
0001
0010
0100
1000
0010
0001
0010
1000
,
0100
0010
0001
1000
0010
0001
0010
0001
,
0010
0000
1000
0000
0101
0000
1000
0000
0200
0300
1000
0000
0010
0000
0100
0000
,
0001
1000
0100
0100
1000
0001
0100
0100
,
0001
0010
0001
0100
0001
1000
0001
0100
,
0010
1000
0100
1000
0001
1000
0010
0001
,
0010
0100
0010
1000
0010
0100
0001
0010
,
1000
0010
0100
1000
0001
1000
0100
1000
,
0010
1000
0010
0001
1000
0001
0010
1000
,
0100
0010
0100
0010
0001
0010
1000
0001
,
0100
1000
0001
0100
0010
1000
0010
0001
,
0010
1000
0100
0010
0011
0000
0100
0000
,
2002
0000
0000
3003
,
0110
0000
0100
0010
0001
1000
0001
0010
,
0100
0100
1000
0010
1000
0010
0001
0010
,
1000
0001
0010
0100
1100
0000
0011
0000
,
0001
0100
0010
1000
0100
0010
0001
1000
,
0001
0010
0001
0000
1000
0010
1000
0000
0001
0010
0001
0000
0010
0000
0100
0000
,
1000
1000
0100
0010
0001
0010
1000
0010
,
0001
1000
0010
0100
0101
0000
1010
0000
,
1000
0100
0010
0001
0100
0010
1000
0001
,
1000
0010
1000
0000
0001
0010
0001
0000
1000
0100
1000
0000
0001
0100
0001
0000
,
1000
0010
0100
0001
1000
0010
0001
0010
,
0110
0100
0101
0001
0110
0100
0101
0001
,
0110
1000
0100
0000
0100
1000
0001
0100
,
2002
0000
3003
0000
0220
0000
0330
0000
1000
0001
1000
0001
0200
0000
0300
0000
,
0001
0010
0100
1000
0001
0010
1000
0010
,
0110
0100
1100
1000
0110
0100
1100
1000
,
0110
0001
0100
0000
0100
0001
1000
0100
,
2002
0000
3003
0000
0220
0000
0330
0000
0001
1000
0001
1000
0100
0000
1010
0000
,
1002
0000
1000
0000
0010
0000
0100
0003
,
0010
0100
0001
0000
0010
0100
1000
0000
,
1002
0000
0100
0000
0010
0000
1000
0003
,
1000
0010
0001
0010
1000
0100
0010
0001
,
2001
0000
0001
0000
0010
0000
0100
3000
,
0010
0100
1000
0000
0010
0100
0001
0000
,
2001
0000
0100
0000
0010
0000
0001
3000
,
0001
0010
1000
0010
0001
0100
0010
2000
,
3000
0000
0000
0010
0000
0000
0000
0100
0000
0000
0002
0000
0000
0000
0000
2000
0000
0000
0000
0000
0000
0000
0000
0000
,
0000
0000
0000
0000
0000
0003
3100
0000
;

//---------------dance-single - ----------------
#NOTEDATA:;
#CHARTNAME:;
#STEPSTYPE:dance-single;
#DESCRIPTION:;
#CHARTSTYLE:;
#DIFFICULTY:Hard;
#METER:13;
#RADARVALUES:0.833403,1.000000,0.105774,0.366139,0.720074,659.000000,13.000000,45.000000,0.000000,0.000000,0.000000,0.000000,0.000000,0.833403,1.000000,0.105774,0.366139,0.720074,659.000000,13.000000,45.000000,0.000000,0.000000,0.000000,0.000000,0.000000;
#CREDIT:;
#NOTES:
// measure 0
0000
0000
0000
0000
,  // measure 1
0000
0000
0000
0000
,  // measure 2
0000
0000
0000
0000
,  // measure 3
0000
0000
0000
0000
,  // measure 4
0000
0000
0000
0000
,  // measure 5
2000
0100
0100
3100
,  // measure 6
0020
0001
0001
0031
,  // measure 7
0200
0001
0001
0301
,  // measure 8
0010
0100
1000
0010
0100
0001
1000
0000
,  // measure 9
1000
0010
1000
0000
0100
1000
0100
0000
1000
0010
1000
0010
1000
0000
0000
0000
,  // measure 10
0001
0010
0001
0000
0100
0001
0100
0000
0001
0010
0001
0010
0001
0000
0000
0000
,  // measure 11
0010
0100
1000
0001
0010
0001
1000
0001
0010
0001
0010
0100
1000
0000
0000
0000
,  // measure 12
0000
0000
0100
0000
0100
0000
0100
0000
1000
0010
0100
0001
1000
0000
0000
0000
,  // measure 13
0101
0000
1010
0000
,  // measure 14
1001
0000
0110
0000
1010
0000
1000
0010
,  // measure 15
0100
0001
0000
0000
0010
0000
1000
0010
0000
0000
0200
0000
0000
0000
1300
0000
,  // measure 16
0010
0100
0001
1000
0100
0010
0001
1000
0100
0000
0000
0000
1001
0000
0000
0000
,  // measure 17
0010
0000
0100
0000
0010
0000
1000
0000
0001
1000
0010
1000
0010
0100
0001
0000
,  // measure 18
0010
0000
0100
0000
1000
0000
0001
0000
0010
0001
0000
1000
0100
0000
1000
0000
,  // measure 19
0100
0000
0010
0000
0100
0000
1000
0000
0001
1000
0100
0010
0001
0100
0001
0000
,  // measure 20
1000
0000
0100
0000
0010
0000
0001
0000
1000
0001
0100
0010
2000
0000
3000
0000
,  // measure 21
1000
0000
0010
0000
0100
0000
0001
0000
1000
0001
0100
0001
1000
0100
0010
0000
,  // measure 22
0001
0000
0100
0000
0010
0000
1000
0000
0001
1000
0000
0010
0100
0000
0001
0000
,  // measure 23
0010
0000
0100
0000
0010
0000
0001
0000
1000
0010
0100
0001
1000
0100
0010
0000
,  // measure 24
0001
0010
0100
1000
0001
0100
0010
1000
,  // measure 25
0100
0000
0000
0000
0200
0000
0300
0000
1000
0010
1000
0010
1000
0000
0010
0000
,  // measure 26
1000
0000
0010
0100
0010
0000
0001
0000
0010
0000
0100
0000
0001
0000
0000
0000
,  // measure 27
0010
0100
0010
0000
0001
0000
1000
0000
0010
0100
0010
0000
1000
0000
0001
0000
,  // measure 28
1000
0001
0010
0100
1000
0000
0000
0000
0000
0000
0100
1000
0010
0100
0001
1000
,  // measure 29
0001
0010
0100
2000
0000
3000
0000
0000
,  // measure 30
0001
0000
0010
0100
0010
0000
1000
0000
0010
0000
0100
0000
1000
0000
0000
0000
,  // measure 31
0010
0100
0010
0000
1000
0000
0001
0000
0010
0100
0010
0000
0001
0000
1000
0000
,  // measure 32
0001
1000
0010
0100
0001
0000
0000
0000
0000
0000
0100
0001
0010
0100
1000
0001
,  // measure 33
2000
3000
0020
0030
0200
0300
0002
0003
,  // measure 34
0010
0000
0100
0000
0010
0000
0001
0000
0100
0000
1000
0000
0001
1000
0001
0000
,  // measure 35
0010
0000
0100
0000
0010
0000
1000
0000
0100
0000
0001
0000
1000
0001
1000
0000
,  // measure 36
0010
0001
0100
0001
0010
0100
1000
0001
,  // measure 37
1000
0010
0100
0001
0010
0001
0100
0001
,  // measure 38
0010
0000
0100
0000
1000
0000
0010
0000
0001
0000
0010
0000
1000
0100
1000
0000
,  // measure 39
0010
0000
0100
0000
0001
0000
0010
0000
1000
0000
0010
0000
0001
0100
0001
0000
,  // measure 40
0010
0000
0100
0000
1000
0100
0000
1100
0000
0000
0010
0000
1000
0000
0001
0000
,  // measure 41
0200
0000
0000
0300
0001
0000
0010
0000
0100
0000
1000
0000
0002
0000
0000
0003
,  // measure 42
1000
0000
0010
0000
1000
0000
0001
0000
0100
0000
0001
0000
1000
0100
0010
0000
,  // measure 43
0001
0000
0010
0000
0001
0000
1000
0000
0100
0000
1000
0000
0001
0100
0010
0000
,  // measure 44
1000
0100
1000
0001
0100
0010
1000
0001
,  // measure 45
0000
0000
0100
0000
0100
0000
0100
0000
0010
1000
0100
0000
0010
0001
0100
0000
,  // measure 46
0010
0100
0001
0010
0001
0100
0010
0001
,  // measure 47
0010
1000
0010
1000
0100
0010
1000
0010
,  // measure 48
0001
1000
0010
0100
0001
0010
0100
1000
,  // measure 49
0000
0000
0100
0000
0100
0000
0100
0000
1000
0010
0100
0001
1000
0000
0000
0000
,  // measure 50
0220
0330
0000
0000
0000
0000
0000
0000
,  // measure 51
1001
0000
0000
0000
0110
0000
0000
0000
0001
0010
0100
1000
0100
0000
1100
0000
,  // measure 52
0010
0100
0001
1000
0010
1000
0010
0100
0001
0100
0010
1000
0100
0010
0001
0000
,  // measure 53
0010
0000
0100
0000
1000
0000
0001
0000
0010
0100
0000
1000
0001
0000
0001
0000
,  // measure 54
0010
0100
1000
0001
0010
0001
0010
0100
1000
0100
0010
0001
0100
0010
1000
0000
,  // measure 55
0010
0000
0100
0000
0001
0000
1000
0000
0001
1000
0100
0010
0002
0000
0003
0000
,  // measure 56
0010
0100
1000
0001
0010
0001
0010
0100
1000
0100
0010
0001
0100
0010
1000
0000
,  // measure 57
0010
0000
0100
0000
0001
0000
1000
0000
0010
0100
0000
0001
1000
0000
1000
0000
,  // measure 58
0001
0010
0001
1000
0100
0010
0001
1000
0001
0100
0010
1000
0100
0010
0001
0000
,  // measure 59
0010
0000
0001
0000
0100
0000
0010
0000
0001
0010
0100
0001
0010
0000
0100
0000
,  // measure 60
0010
0100
0010
0000
0200
0000
1300
0000
0010
0100
0010
0000
2000
0000
3100
0000
,  // measure 61
0010
0100
0010
0100
0010
0100
0010
0100
0010
0100
0010
0100
0010
0100
0010
0100
,  // measure 62
0010
0000
0100
0000
1000
0000
0001
0010
0200
0000
0300
2000
0000
0000
3010
0000
,  // measure 63
0010
0000
0100
0000
0001
0000
0010
0000
0100
0010
0001
0100
0010
0000
0100
0000
,  // measure 64
0010
0100
0010
0000
0200
0000
0301
0000
0010
0100
0010
0000
0002
0000
0103
0000
,  // measure 65
0010
0100
0010
0100
0010
0100
0010
0100
0010
0100
0010
0100
0010
0100
0010
0100
,  // measure 66
0010
0000
0100
0000
0001
0000
1000
0010
1000
0000
0010
0100
0000
0000
0002
0000
,  // measure 67
2000
0000
0000
3003
,  // measure 68
0010
0100
0001
1000
0001
0010
0001
1000
0100
0010
0100
0010
0001
0100
0001
0000
,  // measure 69
0020
0000
0030
0002
0000
0003
0200
0300
0020
0000
0030
0002
0000
0003
0020
0030
,  // measure 70
0100
0001
0100
0010
1000
0100
1000
0010
0100
0001
0100
0010
1000
0001
0100
0000
,  // measure 71
0002
0003
0000
0000
0000
0000
0000
0000
0002
0003
0000
0000
0000
0000
0000
0000
0002
0003
0000
0000
0000
0000
0000
0000
0002
0003
0000
0000
0000
0000
0000
0000
0002
0003
0000
0000
0000
0000
0000
0000
0002
0003
0000
0000
0000
0000
0000
0000
0002
0003
0000
0000
0000
0000
0000
0000
0002
0003
0000
0000
0000
0000
0000
0000
,  // measure 72
0010
0100
1000
0001
1000
0010
1000
0001
0100
0010
0100
0010
1000
0100
1000
0000
,  // measure 73
0020
0000
0030
2000
0000
3000
0200
0300
0020
0000
0030
2000
0000
3000
0020
0030
,  // measure 74
0001
0100
0001
1000
0010
1000
0010
0100
0001
1000
0010
0100
0010
0100
0001
0100
,  // measure 75
0010
1000
0010
1000
0001
0010
0100
1000
0010
0100
0001
1000
0100
0010
0001
0100
,  // measure 76
0000
0000
0000
1010
0000
0000
0000
0100
0000
0000
0000
1001
0000
0000
0000
0020
0000
0000
0000
0000
0000
0000
0000
0000
,  // measure 77
0000
0000
0000
0030
;

//---------------dance-single - ----------------
#NOTEDATA:;
#CHARTNAME:;
#STEPSTYPE:dance-single;
#DESCRIPTION:;
#CHARTSTYLE:;
#DIFFICULTY:Easy;
#METER:4;
#RADARVALUES:0.487024,0.537716,0.252229,0.048819,0.000000,382.000000,31.000000,6.000000,0.000000,0.000000,0.000000,0.000000,0.000000,0.487024,0.537716,0.252229,0.048819,0.000000,382.000000,31.000000,6.000000,0.000000,0.000000,0.000000,0.000000,0.000000;
#CREDIT:;
#NOTES:
0000
0000
0000
0000
,
0000
0000
0000
0000
,
0000
0000
0000
0000
,
0000
0000
0000
0000
,
0000
0000
0000
0000
,
1000
1100
0100
1000
,
0001
0101
0001
1000
,
0010
1010
1000
0001
,
0010
0000
0010
0000
0010
0001
1000
0000
,
0001
0010
0001
0000
1000
0100
1000
0000
,
0001
0010
0001
1000
0100
1000
0001
0000
,
1000
0010
1000
0000
0001
0100
0001
0000
,
1000
0010
1000
0010
0100
0001
1000
0000
,
2100
3010
0102
0013
,
1000
0001
1000
0001
1000
0001
0010
0100
,
0010
0000
0001
0100
0000
0001
0000
1000
,
0100
0100
0100
1001
,
0100
0100
0001
0001
,
0100
0001
0100
0001
0010
0001
0100
0001
,
0010
0010
0001
0001
,
0010
0001
0010
0001
0100
0001
0010
0000
,
0100
0100
1000
1000
,
0100
1000
0100
1000
0010
1000
0100
1000
,
0010
0010
1000
1000
,
1001
0000
0000
0000
,
0100
0011
0100
0100
,
1000
0010
1000
0010
1000
0010
0100
0000
,
0001
1000
0001
0000
1000
0001
1000
0000
,
0100
1000
0001
0000
0000
0000
0000
0000
,
0001
0100
0010
1000
0000
0000
0000
0000
,
0001
0010
0001
0010
0001
0010
0100
0000
,
1000
0001
1000
0000
0001
1000
0001
0000
,
0100
0001
1000
0000
0000
0000
0000
0000
,
1100
1010
1100
1010
,
1000
0000
0100
0000
1000
0010
1000
0000
,
0001
0000
0100
0000
0001
0010
0001
0000
,
0011
1001
0011
1001
,
0010
0000
0100
0000
1000
0001
1000
0001
,
0100
0000
0010
0000
0100
0001
1000
0000
,
0100
0000
0010
0000
0100
1000
0001
0000
,
0100
0000
0010
0000
1000
0100
0100
0100
,
1000
0000
0001
0000
0010
0001
0010
0000
,
0001
0100
0001
0000
0100
0001
0100
0000
,
0010
1000
0010
0000
1000
0010
1000
0000
,
0010
1000
0100
0000
0010
0001
0100
0000
,
0001
0100
0100
0100
0001
0000
0101
0000
,
1000
0100
1000
0000
0100
1000
0100
0000
,
0010
0100
0010
0000
0100
0010
0100
0000
,
1000
0100
0010
0000
0001
0100
0010
0000
,
1000
0100
0010
0001
0100
0000
0100
0000
,
2002
0000
0000
3003
,
0100
0000
1001
0000
0100
1000
0001
0100
,
0010
0010
1000
1000
,
0010
1000
0010
1000
0100
1000
0010
1000
,
0100
0100
1000
1000
,
0100
1000
0100
1000
0010
1000
0100
0000
,
0010
0010
0001
0001
,
0010
0001
0010
0001
0100
0001
0010
0001
,
0100
0100
0001
0001
,
1100
0011
1010
0101
,
0100
0001
1000
1000
0100
1000
0001
0001
,
1000
0001
1000
0001
1000
0001
1000
0001
,
0100
0001
1000
0000
0000
0000
0000
0000
,
0011
1100
0101
1010
,
0010
1000
0001
0001
0010
0001
1000
1000
,
0001
1000
0001
1000
0001
1000
0001
1000
,
0010
1000
0001
0000
0000
0000
0000
0000
,
0011
0000
1001
0000
1010
0100
1000
0001
,
0100
0000
0001
0000
1000
0010
1000
0000
,
0001
0000
1000
0000
0010
0100
0010
0000
,
1000
0000
0001
0000
1000
0010
1000
0000
,
0001
0100
0010
1000
0001
0100
0010
1000
,
0001
0000
1000
0000
0001
0010
0001
0000
,
1000
0000
0001
0000
0010
0100
0010
0000
,
0001
0000
1000
0000
0001
0010
0001
0000
,
1000
0100
0010
0001
0100
0010
1000
0001
,
2002
0000
0000
0000
,
0000
0000
0000
3003
;

//---------------dance-single - ----------------
#NOTEDATA:;
#CHARTNAME:;
#STEPSTYPE:dance-single;
#DESCRIPTION:;
#CHARTSTYLE:;
#DIFFICULTY:Challenge;
#METER:15;
#RADARVALUES:1.000000,1.000000,0.260366,1.000000,0.801439,667.000000,32.000000,212.000000,0.000000,0.000000,0.000000,0.000000,0.000000,1.000000,1.000000,0.260366,1.000000,0.801439,667.000000,32.000000,212.000000,0.000000,0.000000,0.000000,0.000000,0.000000;
#CREDIT:;
#NOTES:
0000
0000
0000
0000
,
0000
0000
0000
0000
,
0000
0000
0000
0000
,
0000
0000
0000
0000
,
0000
0000
0000
0000
,
2000
0000
0010
0000
0010
0000
0010
3000
,
0002
0000
0010
0000
0010
0000
0010
0003
,
2000
0000
0100
0000
0100
0000
0100
3000
,
0001
0000
0100
0000
0001
0000
0100
0000
0010
0000
0000
1000
0001
0000
0010
0000
,
0002
0000
0000
0000
0010
0000
0000
0000
0010
0000
0000
0000
0013
0000
0010
0001
,
2000
0000
0000
0000
0010
0000
0000
0000
0010
0000
0000
0000
3010
0000
0010
1000
,
0002
0000
0000
0000
0100
0000
0000
0000
0100
0000
0000
0000
0103
0000
0100
0001
,
1000
0100
1000
0100
1000
0100
1000
0100
1000
0001
0100
0010
1000
0001
0100
0010
,
2000
3000
1001
0000
0002
0003
1001
0000
,
1010
0000
0100
0000
1001
0000
0100
0000
0011
0000
0100
1000
0001
0000
0011
0000
,
1001
0000
0000
0000
0110
0000
1000
0001
0000
0000
0100
0010
0000
0000
1000
0001
,
0100
0000
0100
0001
0010
0100
1000
0001
0100
0000
0000
0000
1001
0000
0000
0000
,
0001
0010
0002
0003
0200
0300
0010
0001
0020
0000
0030
0200
0000
0300
0020
0030
,
2000
3000
0200
0300
0020
0030
0002
0003
1000
0010
0000
1000
0001
0000
1001
0000
,
0001
0100
0002
0003
0020
0030
0100
0001
0200
0000
0300
0020
0000
0030
0200
0300
,
1000
0001
0200
0300
0020
0030
2000
3000
0100
1000
0100
0020
0002
0000
0000
0033
,
1000
0010
2000
3000
0200
0300
0010
1000
0020
0000
0030
0200
0000
0300
0020
0030
,
0002
0003
0200
0300
0020
0030
2000
3000
0001
0010
0000
0001
1000
0000
1001
0000
,
1000
0100
2000
3000
0020
0030
0100
1000
0200
0000
0300
0010
1000
0010
0100
0020
,
0002
0000
0000
0000
0000
0000
0000
0033
,
0011
0000
0000
0000
1100
0000
0000
0000
0001
0010
0100
1000
0002
0003
2000
3000
,
0010
0000
0001
0010
0001
0000
0010
0000
1000
0000
0100
0010
0100
1000
0010
1000
,
0001
0000
1200
0300
1000
0000
0201
0300
,
0010
0000
1000
0100
1000
0000
0000
0000
0000
0000
1000
0100
0010
0001
0100
0010
,
2000
3000
0002
0003
0200
0300
0020
0030
2000
0000
3000
0010
1000
0000
0010
0100
,
0001
0000
0010
1000
0010
0000
0001
0000
1000
0000
0010
0100
0010
1000
0100
1000
,
0001
0000
1020
0030
1000
0000
0021
0030
,
0001
0000
1000
0010
1000
0000
0000
0000
0000
0000
1000
0010
0001
0010
0100
0001
,
0010
0100
0010
0100
1000
0001
1000
0001
0100
0010
0100
0010
1000
0100
0010
0001
,
2000
0000
0000
3000
0020
0000
0000
0030
0002
0000
0000
0003
0020
0000
0000
0030
0002
0000
0000
0003
2000
0000
0000
3000
0002
0000
0000
0003
0010
0000
1000
0000
,
0002
0000
0000
0003
0020
0000
0000
0030
2000
0000
0000
3000
0020
0000
0000
0030
2000
0000
0000
3000
0002
0000
0000
0003
2000
0000
0000
3000
0010
0000
0001
0000
,
2000
0000
0000
3000
0020
0000
0000
0030
0002
0000
0000
0003
0020
0000
0000
0030
2000
0000
0000
3000
0200
0000
0000
0300
0020
0000
0000
0030
0002
0000
0000
0003
,
2000
0000
0000
3000
0020
0000
0000
0030
0200
0000
0000
0300
0002
0000
0000
0003
1000
0000
0000
0000
1010
0000
0000
0000
1001
0000
0000
0000
0001
0000
0100
0000
,
0020
0000
0000
0030
0200
0000
0000
0300
2000
0000
0000
3000
0200
0000
0000
0300
2000
0000
0000
3000
0002
0000
0000
0003
2000
0000
0000
3000
0100
0000
0001
0000
,
2000
0000
0000
3000
0200
0000
0000
0300
0002
0000
0000
0003
0200
0000
0000
0300
0002
0000
0000
0003
2000
0000
0000
3000
0002
0000
0000
0003
0100
0000
1000
0000
,
0002
0000
0000
0003
0200
0000
0000
0300
0020
0000
0000
0030
2000
0000
0000
3000
0002
0000
0000
0000
0010
0000
0000
0000
0100
0000
0000
0000
2003
0000
0000
3000
,
0002
0000
0000
0003
0200
0000
0000
0300
0020
0000
0000
0030
1000
0000
0000
0000
1000
0000
0010
0000
0100
0000
0001
0000
1000
0000
0010
0000
0100
0000
0001
0000
,
2000
0000
0000
3000
0200
0000
0000
0300
0020
0000
0000
0030
2000
0000
0000
3000
0002
0000
0000
0003
2000
0000
0000
3000
0020
0000
0000
0030
0100
0000
1000
0000
,
0002
0000
0000
0003
2000
0000
0000
3000
0020
0000
0000
0030
0002
0000
0000
0003
2000
0000
0000
3000
0002
0000
0000
0003
0020
0000
0000
0030
0100
0000
0001
0000
,
2000
0000
0000
3000
0002
0000
0000
0003
0020
0000
0000
0030
2000
0000
0000
3000
0020
0000
0000
0030
0002
0000
0000
0003
2000
0000
0000
3000
0100
0000
1000
0000
,
0020
0000
0000
0000
0001
0000
0000
0000
0100
0000
0000
0000
2030
0000
0000
3000
0002
0000
0000
0003
0020
0000
0000
0030
2000
0000
0000
3000
0020
0000
0000
0030
,
0002
0000
0000
0003
2000
0000
0000
3000
0020
0000
0000
0030
0002
0000
0000
0003
2000
0000
0000
3000
0200
0000
0000
0300
2000
0000
0000
3000
0002
0000
0000
0003
,
0020
0000
0000
0030
2000
0000
0000
3000
0200
0000
0000
0300
0002
0000
0000
0003
2000
0000
0000
3000
0002
0000
0000
0003
0200
0000
0000
0300
0010
0000
0001
0000
,
2000
0000
0000
3000
0020
0000
0000
0030
0002
0000
0000
0003
0020
0000
0000
0030
2000
0000
0000
3000
0200
0000
0000
0300
0020
0000
0000
0030
0002
0000
0000
0003
,
1000
0010
1000
0010
1000
0010
1000
0010
1000
0001
0100
0010
1000
0010
0100
0002
,
2000
0000
0000
3003
,
1001
0000
0000
0000
0110
0000
0000
0000
0001
1000
0100
0010
0001
0000
1001
0000
,
0001
0010
0002
0003
0200
0300
0010
0001
0020
0000
0030
0200
0000
0300
0020
0030
,
2000
3000
0200
0300
0020
0030
0002
0003
1000
0010
0100
0001
1000
0000
1001
0000
,
0001
0100
0002
0003
0020
0030
0100
0001
0200
0000
0300
0020
0000
0030
0200
0300
,
1000
0001
0200
0300
0020
0030
2000
3000
0100
1000
0100
0020
0002
0000
0000
0033
,
1000
0010
2000
3000
0200
0300
0010
1000
0020
0000
0030
0200
0000
0300
0020
0030
,
0002
0003
0200
0300
0020
0030
2000
3000
0001
0010
0100
1000
0001
0000
1001
0000
,
1000
0100
2000
3000
0020
0030
0100
1000
0200
0000
0300
0020
0000
0030
2000
3000
,
0001
1000
0200
0300
1000
0001
0020
0030
0001
1000
0020
0030
1000
0001
0200
0300
,
0001
0100
1000
0100
1000
0100
0001
0000
1000
0100
0001
0100
0001
0100
1000
0000
,
0001
0100
1000
0100
1000
0100
1000
0100
1000
0100
1000
0100
1000
0100
1000
0100
,
0002
0003
0200
0000
0301
0000
0000
0000
0101
0000
0000
0001
1000
0000
1100
0000
,
1000
0001
0020
0030
0001
1000
0200
0300
1000
0001
0200
0300
0001
1000
0020
0030
,
1000
0010
0001
0010
0001
0010
1000
0000
0001
0010
1000
0010
1000
0010
0001
0000
,
1000
0010
0001
0010
0001
0010
0001
0010
0001
0010
0001
0010
0001
0010
0001
0010
,
2000
3000
0020
0000
1030
0000
0000
0000
1001
0000
0000
0001
1000
0000
1100
0000
,
2002
0000
0000
3003
,
1000
0001
0100
0001
0010
0100
1000
0001
1000
0100
0010
0001
0100
0001
1000
0010
,
2000
0000
0000
0100
0000
0000
0010
3000
0002
0000
0000
0100
0000
0000
0010
0003
,
2000
3000
0100
0001
0200
0300
2000
3000
0001
0100
1000
0100
0001
1000
0001
0010
,
0100
1000
0010
1000
0100
0010
0100
0010
1000
0010
0100
0010
0001
0010
0001
0100
,
0010
1000
0100
1000
0010
0100
0001
1000
0001
0100
0010
1000
0100
1000
0010
0100
,
0002
0000
0000
0010
0000
0000
0100
0003
2000
0000
0000
0010
0000
0000
0100
3000
,
0002
0003
0010
1000
0020
0030
0002
0003
1000
0010
0100
0010
1000
0100
0010
1000
,
0010
0010
0001
0001
1000
1000
0010
0010
0100
0100
0001
0001
0010
0010
0001
0001
,
0000
0000
0000
0101
0000
0000
0000
1100
0000
0000
0000
1001
0000
0000
0020
0200
0000
0000
0000
0000
0000
0000
0000
0000
,
0000
0000
0000
0330
;
