#TITLE:Log-In;
#SUBTITLE:;
#ARTIST:SHK;
#TITLETRANSLIT:;
#SUBTITLETRANSLIT:;
#ARTISTTRANSLIT:;
#GENRE:;
#CREDIT:;
#BANNER:Log-In-bn.png;
#BACKGROUND:Log-In-bg.png;
#LYRICSPATH:;
#CDTITLE:;
#MUSIC:Log-In.mp3;
#OFFSET:-0.200000;
#SAMPLESTART:18.405178;
#SAMPLELENGTH:12.000000;
#SELECTABLE:YES;
#BPMS:0.000000=140.000000
,154.000000=70.000000
,156.000000=35.000000
,159.000000=70.000000
,163.000000=140.000000
;
#STOPS:
;
#BGCHANGES:1.500=Log-In.avi=1.000=0=0=0=StretchNoLoop====,
99999=-nosongbg-=1.000=0=0=0 // don't automatically add -songbackground-
;
#KEYSOUNDS:;
#ATTACKS:;

//---------------dance-single - ----------------
#NOTES:
     dance-single:
     :
     Hard:
     13:
     0.736801,0.864087,0.025037,0.550812,1.168390,618.000000,615.000000,3.000000,66.000000,0.000000,0.000000,0.736801,0.864087,0.025037,0.550812,1.168390,618.000000,615.000000,3.000000,66.000000,0.000000,0.000000:
0000
0000
0000
0000
,
0000
0000
0000
0000
,
0000
0000
0000
0000
0000
0000
0000
0000
0001
0100
0000
0000
0000
0000
0000
0000
,
0000
0000
0000
0000
0000
0000
0000
0000
0001
0100
0000
0000
0000
0000
0000
0000
,
0000
0000
0000
0000
0000
0000
0000
0000
0001
0100
0000
0000
0000
0000
0000
0000
,
0000
0000
0000
0000
0000
0000
0000
0000
0001
0100
0000
0000
0000
0000
0000
0000
,
0000
0000
0000
0000
0000
0000
0000
0000
0001
0100
0000
0000
1100
0000
0000
0000
,
0001
0000
0000
0000
0001
0010
0001
0000
1000
0100
0000
0000
0101
0000
0000
0000
,
1000
0010
1000
0010
1000
0000
0000
0000
0001
0100
0000
0000
1100
0000
0000
0000
,
0001
0010
0000
0010
0100
1000
0001
0000
0001
0100
0001
0010
0001
0100
0001
1000
,
0100
0010
0001
0100
0001
1000
0100
2000
0010
0100
0002
0000
0003
0000
0000
0000
,
0010
0100
0002
0000
0003
0000
0000
0000
0010
0100
0002
0000
0003
0000
3000
0000
,
0010
0100
0001
0100
0002
0000
0000
0000
0010
0100
2000
0000
3000
0000
0000
0000
,
0010
0100
2000
0000
3000
0000
0000
0000
0010
0100
2000
0000
3000
0000
0003
0000
,
0010
0100
1000
0100
2000
0000
0000
0000
0001
0100
0020
0000
0030
0000
0000
0000
,
0001
0100
0020
0000
0030
0000
0000
0000
0001
0100
0020
0000
0030
0000
3000
0000
,
0100
1000
0001
0010
0002
0000
0000
0000
1000
0100
0020
0000
0030
0000
0000
0000
,
1000
0100
0020
0000
0030
0000
0000
0000
1000
0100
0010
0000
1000
0100
0010
0003
,
1000
0010
0100
0001
0010
0100
0010
0001
1000
0010
1000
0010
0001
0010
0001
0010
,
0100
0010
0100
0010
1000
0010
1000
0010
1000
0001
1000
0001
0010
0001
0010
0001
,
0010
1000
0010
1000
0010
0100
0010
0100
0010
0001
0010
0001
0100
0001
0100
0001
,
0100
1000
0100
1000
0100
0010
0100
0010
0100
0001
0100
0001
1000
0001
1000
0001
,
1000
0100
0010
0001
1000
0001
0010
0100
0010
0001
0000
1000
0100
0000
1000
0100
,
0010
0001
0000
1000
0100
0000
1000
0100
0010
0001
0000
1000
0100
0000
1000
0100
,
0010
0001
0000
1000
0100
0000
1000
0100
0010
0001
0100
0001
1000
0100
1000
0010
,
0100
0001
0100
0010
1000
0100
1000
0001
0020
0000
0030
0200
0000
0300
0020
0030
,
0002
0000
0003
0200
0000
0300
0020
0030
1000
0001
0100
0010
1000
0100
1000
0100
,
0010
0001
0100
0001
0100
0010
1000
0100
1000
0001
0100
0001
1000
0100
0010
0001
,
0100
0001
0010
0100
1000
0001
1000
0100
1000
0100
0010
0001
0100
0001
0100
0010
,
1000
0100
0010
0001
0100
0001
0010
0100
1000
0010
0000
0010
0100
0000
0100
0001
,
0000
0001
0010
0000
0010
0100
1000
0002
0010
0100
2000
0000
3000
0000
0000
0000
,
0010
0100
2000
0000
3000
0000
0000
0000
0010
0100
2000
0000
3000
0000
0003
0000
,
0010
0100
1000
0100
2000
0000
0000
0000
0010
0100
0002
0000
0003
0000
0000
0000
,
0010
0100
0002
0000
0003
0000
0000
0000
0010
0100
0002
0000
0003
0000
3000
0000
,
0010
0100
0001
0100
0002
0000
0000
0000
1000
0100
0020
0000
0030
0000
0000
0000
,
1000
0100
0020
0000
0030
0000
0000
0000
1000
0100
0020
0000
0030
0000
0003
0000
,
0100
0001
1000
0010
2000
0000
0000
0000
0001
0100
0020
0000
0030
0000
0000
0000
,
0001
0100
0020
0000
0030
0000
0000
0000
0001
0100
0010
0000
0001
0100
0010
3000
,
0001
0010
0100
2000
0200
3000
0300
0000
0020
0000
0000
0000
0000
0000
0000
0000
,
0001
0100
0000
1000
,
0100
1000
0001
1000
,
0100
0000
0000
0000
1000
0000
0000
0000
0001
0000
0030
0000
0100
0010
0100
0010
,
0100
0010
0100
0010
0001
1000
0010
0100
0001
1000
0100
0010
0001
0100
0001
0100
,
0001
0010
0001
0010
0100
0010
0100
0010
0100
0001
0100
0001
0100
1000
0100
1000
,
0001
1000
0001
1000
0001
0100
0001
0100
1000
0100
1000
0100
0010
0100
0010
0100
,
0010
1000
0010
1000
0100
1000
0100
1000
0100
0010
0100
0010
1000
0010
1000
0010
,
0001
0010
0001
0010
0001
0010
0100
1000
0001
0100
0001
1000
0010
1000
0000
0001
,
0100
0000
0001
0100
0010
1000
0000
0001
0100
0000
0001
0100
0010
1000
0000
0001
,
0100
0000
0001
0100
0010
1000
0000
0001
0100
0000
0001
0100
0010
0100
0010
0100
,
0001
0100
0001
0100
0001
1000
0001
1000
0100
1000
0100
1000
0020
0000
0030
0200
,
0000
0300
0020
0030
2000
0000
3000
0200
0000
0300
0020
0030
0001
0100
0010
1000
,
0010
0100
0001
0010
0001
1000
0001
0010
0100
1000
0100
0010
1000
0010
0001
0010
,
1000
0010
0100
1000
0001
0100
0001
1000
0100
0010
0001
1000
0100
0010
0100
1000
,
0010
0100
0010
0001
0010
1000
0010
0100
0001
0100
0001
0100
0010
1000
0000
1000
,
0001
0000
0001
0100
0000
0100
0010
0000
0010
1000
0010
1000
0000
0000
0001
0020
,
0000
0030
0001
2000
0000
3000
0001
0020
0000
0030
0001
0200
0000
0300
0001
0020
,
0000
0030
0001
0200
0000
0300
0001
0020
0000
0030
0001
1000
0000
0000
1000
0020
,
0000
0030
1000
0002
0000
0003
1000
0020
0000
0030
1000
0200
0000
0300
1000
0020
,
0000
0030
1000
0200
0000
0300
1000
0020
0000
0030
1000
0001
0000
0000
0001
0200
,
0000
0300
0001
2000
0000
3000
0001
0200
0000
0300
0001
0020
0000
0030
0001
0200
,
0000
0300
0001
0020
0000
0030
0001
0200
0000
0300
0001
1000
0000
0000
1000
0100
,
1000
0100
1000
0001
1000
0001
1000
0100
1000
0100
1000
0010
1000
0100
1000
0010
,
0100
0001
1000
0100
0010
0001
0100
0001
1000
0100
0010
0001
0010
0000
0000
0000
;

//---------------dance-single - ----------------
#NOTES:
     dance-single:
     :
     Challenge:
     16:
     0.993132,1.073563,0.250369,0.091802,1.723375,833.000000,803.000000,30.000000,11.000000,0.000000,0.000000,0.993132,1.073563,0.250369,0.091802,1.723375,833.000000,803.000000,30.000000,11.000000,0.000000,0.000000:
0000
0000
0000
0000
,
0000
0000
0000
0000
,
0000
0000
0000
0000
0000
0000
0000
0000
0001
0100
0000
0000
0100
0010
0000
0000
,
0010
1000
0000
0000
0000
0000
0000
0000
0001
0100
0000
0000
0100
0010
0000
0000
,
0010
1000
0000
0000
0000
0000
0000
0000
0001
0100
0000
0000
0100
0010
0000
0000
,
0010
1000
0000
0000
0000
0000
0000
0000
0001
0100
0000
0000
0100
0010
0000
0000
,
0010
1000
0000
0000
0000
0000
0000
0000
0001
0100
0000
0000
0100
0010
0000
0000
,
0010
1000
0000
0000
1000
0100
0010
0000
0001
0100
0000
0000
0100
0010
0000
0000
,
0010
1000
0100
0010
0001
0000
0000
0000
0001
0100
0000
0000
0100
0010
0000
0000
,
0010
1000
0000
0000
1000
0100
0010
0000
0001
1000
0100
0010
0001
0100
0001
1000
,
0100
0000
0010
0000
0001
0000
0100
0000
0001
0000
1000
0000
0100
0000
0010
0000
0001
0010
0001
0010
0001
0000
0010
0000
0001
0000
0010
0000
0001
0000
0010
0000
,
0001
0010
0001
0010
0001
0000
0010
0000
0001
0000
0010
0000
0001
0000
0010
0000
0001
0010
0001
0010
0001
0000
0010
0000
0001
0000
0010
0000
0001
0000
0010
0000
,
0001
0000
0010
0000
0100
0000
1000
0000
0002
0000
0000
0000
0003
0000
0000
0000
1000
0010
1000
0010
1000
0000
0010
0000
1000
0000
0010
0000
1000
0000
0010
0000
,
1000
0010
1000
0010
1000
0000
0010
0000
1000
0000
0010
0000
1000
0000
0010
0000
1000
0010
1000
0010
1000
0000
0010
0000
1000
0000
0010
0000
1000
0000
0010
0000
,
1000
0000
0010
0000
0100
0000
0010
0000
2000
0000
0000
0000
3000
0000
0000
0000
0001
0100
0001
0100
0001
0000
0100
0000
0001
0000
0100
0000
0001
0000
0100
0000
,
0001
0100
0001
0100
0001
0000
0100
0000
0001
0000
0100
0000
0001
0000
0100
0000
0001
0100
0001
0100
0001
0000
0100
0000
0001
0000
0100
0000
0001
0000
0100
0000
,
0001
0000
0100
0000
0010
0000
1000
0000
0002
0000
0000
0000
0003
0000
0000
0000
1000
0100
1000
0100
1000
0000
0100
0000
1000
0000
0100
0000
1000
0000
0100
0000
,
1000
0100
1000
0100
1000
0000
0100
0000
1000
0000
0100
0000
1000
0000
0100
0000
1000
0100
1000
0100
1000
0000
0100
0000
1000
0100
1000
0100
1000
0000
0100
0000
,
0010
1000
0010
0001
0010
0100
0010
0001
0100
0001
0100
0001
0100
0010
0100
0010
,
0001
0010
0001
0010
1000
0010
1000
0010
0100
0010
0100
0010
0100
1000
0100
1000
,
0100
0001
0100
0001
1000
0001
1000
0001
1000
0100
1000
0100
0010
0100
0010
0100
,
0010
0001
0010
0001
0100
0001
0100
0001
1000
0001
1000
0001
1000
0100
1000
0100
,
1000
0010
0100
0001
1000
0100
0010
0001
0010
0001
0000
1000
0100
0000
1000
0100
,
0010
0001
0000
1000
0100
0000
1000
0100
0010
0001
0000
1000
0100
0000
1000
0100
,
0010
0001
0000
1000
0100
0000
1000
0100
0010
0001
1000
0100
0010
0100
1000
0001
,
0100
0010
0100
0001
0010
0100
1000
0001
0100
0000
0100
0010
0000
0000
0110
0000
,
0010
0000
0010
1000
0000
0000
1001
0000
1000
0010
0100
0010
1000
0100
1000
0100
,
0010
0001
0100
0001
0100
0010
1000
0100
1000
0001
0100
0001
1000
0100
0010
0001
,
0100
0001
0010
0100
1000
0001
1000
0100
1000
0100
0010
0001
0100
0001
0100
0010
,
1000
0100
0010
0001
0100
0001
0010
0100
1000
0010
0000
0010
0100
0000
0100
0001
,
0000
0000
0001
0000
0010
0000
0000
0000
0010
0000
0100
0000
1000
0000
0001
0000
1000
0010
1000
0010
1000
0000
0010
0000
1000
0000
0010
0000
1000
0000
0010
0000
,
1000
0010
1000
0010
1000
0000
0010
0000
1000
0000
0010
0000
1000
0000
0010
0000
1000
0010
1000
0010
1000
0000
0010
0000
1000
0000
0010
0000
1000
0000
0010
0000
,
1000
0000
0010
0000
0100
0000
0001
0000
2000
0000
0000
0000
3000
0000
0000
0000
0001
0010
0001
0010
0001
0000
0010
0000
0001
0000
0010
0000
0001
0000
0010
0000
,
0001
0010
0001
0010
0001
0000
0010
0000
0001
0000
0010
0000
0001
0000
0010
0000
0001
0010
0001
0010
0001
0000
0010
0000
0001
0000
0010
0000
0001
0000
0010
0000
,
0001
0000
0010
0000
0100
0000
0010
0000
0002
0000
0000
0000
0003
0000
0000
0000
1000
0100
1000
0100
1000
0000
0100
0000
1000
0000
0100
0000
1000
0000
0100
0000
,
1000
0100
1000
0100
1000
0000
0100
0000
1000
0000
0100
0000
1000
0000
0100
0000
1000
0100
1000
0100
1000
0000
0100
0000
1000
0000
0100
0000
1000
0000
0100
0000
,
1000
0000
0100
0000
0010
0000
0001
0000
2000
0000
0000
0000
3000
0000
0000
0000
0001
0100
0001
0100
0001
0000
0100
0000
0001
0000
0100
0000
0001
0000
0100
0000
,
0001
0100
0001
0100
0001
0000
0100
0000
0001
0000
0100
0000
0001
0000
0100
0000
0001
0100
0001
0100
0001
0000
0100
0000
0001
0100
0001
0100
0001
0000
0100
0000
,
0010
0001
0010
2000
0002
0000
3003
0000
0200
0000
0000
0000
0000
0000
0000
0000
,
0020
0000
0030
0000
2000
0000
0000
0000
0000
3000
0000
0000
0001
0000
0000
0000
,
1000
0001
0010
0001
,
1000
0000
0000
0000
0001
0000
0000
0000
0010
0000
0300
0000
0100
0010
0100
0010
,
0100
0010
0100
0010
1000
0001
0010
0100
1000
0001
0100
0010
1000
0100
1000
0100
,
1000
0010
1000
0010
0100
0010
0100
0010
0100
1000
0100
1000
0100
0001
0100
0001
,
0010
0001
0010
0001
0010
0100
0010
0100
1000
0100
1000
0100
1000
0001
1000
0001
,
0100
0001
0100
0001
0100
0010
0100
0010
1000
0010
1000
0010
1000
0100
1000
0100
,
1000
0001
1000
0001
0100
0001
0010
0100
1000
0010
0100
0010
1000
0001
0000
0100
,
0010
0000
0100
0010
1000
0001
0000
0100
0010
0000
0100
0010
1000
0001
0000
0100
,
0010
0000
0100
0010
1000
0001
0000
0100
0010
0000
0100
0010
1000
0001
0100
0001
,
0010
0100
1000
0100
0010
0001
0100
0001
0010
0100
1000
0001
0100
0000
0100
0010
,
0000
0000
0110
0000
0010
0000
0010
1000
0000
0000
1001
0000
0001
0100
0010
1000
,
0010
0100
0001
0010
0001
0100
0010
1000
0001
0100
0001
0010
1000
0010
0001
0010
,
1000
0010
0100
1000
0010
0100
0001
1000
0100
1000
0010
0100
0001
0010
0100
0010
,
0001
1000
0010
0001
1000
0001
0010
1000
0100
0010
0001
0100
0010
1000
0000
1000
,
0001
0000
0001
0100
0000
0100
0010
0000
0010
1000
0000
1001
0000
0000
0011
0001
,
0000
0000
1001
0001
0000
0000
0011
0001
0000
0000
0101
0001
0000
0000
0011
0001
,
0000
0000
0101
0001
0000
0000
0011
0001
0000
0000
1001
0001
0000
0000
1010
1000
,
0000
0000
1001
1000
0000
0000
1010
1000
0000
0000
1100
1000
0000
0000
1010
1000
,
0000
0000
1100
1000
0000
0000
1010
1000
0000
0000
1001
1000
0000
0000
0101
0001
,
0000
0000
1001
0001
0000
0000
0101
0001
0000
0000
0011
0001
0000
0000
0101
0001
,
0000
0000
0011
0001
0000
0000
0101
0001
0000
0000
1001
0001
0000
0000
1100
1000
,
0001
1000
0100
0100
0010
0001
0100
0100
0010
1000
0100
0100
0010
1000
0010
0010
,
0001
1000
0010
0010
0001
0010
0100
0100
0001
0010
0100
0100
1000
0000
0000
0000
;

//---------------dance-single - ----------------
#NOTES:
     dance-single:
     :
     Medium:
     7:
     0.445896,0.444692,0.225332,0.292098,0.150222,374.000000,347.000000,27.000000,35.000000,0.000000,0.000000,0.445896,0.444692,0.225332,0.292098,0.150222,374.000000,347.000000,27.000000,35.000000,0.000000,0.000000:
0000
0000
0000
0000
,
0000
0000
0000
0000
,
0000
0000
0001
0000
,
0000
0000
0001
0000
,
0000
0000
0001
0000
,
0000
0000
0001
0000
,
0000
0000
0001
0100
,
0010
1010
0001
0100
,
0010
1000
1010
0000
0001
0000
0100
0000
,
0010
0000
1010
0000
0001
0100
0010
1000
,
0001
0010
0100
1000
1020
0000
1030
0000
,
1200
1300
1002
1003
,
1000
0100
0010
0000
0021
0000
0031
0000
,
0201
0301
2001
3001
,
0001
0100
0010
0000
1002
0000
1003
0000
,
1200
1300
1020
1030
,
1000
0100
0010
0000
2001
0000
3001
0000
,
0201
0301
0021
0031
,
0001
0100
0010
0100
0010
0001
0010
0001
,
0010
0100
0010
0100
0010
1000
0010
1000
,
0001
1000
0001
1000
0001
0010
0001
0010
,
1000
0010
1000
0010
0100
0010
0100
0010
,
0100
1000
0100
1000
0020
0000
0130
0100
,
0002
0000
0103
0100
0020
0000
0130
0100
,
0002
0000
0103
0100
0001
1000
0001
1000
,
0010
0000
1000
0000
0010
0000
1000
0000
0100
0000
0000
0100
0000
0000
0100
0000
,
0010
0000
0000
0010
0000
0000
0010
0000
0001
0000
0100
0000
0001
0000
0100
0000
,
0001
0010
0001
0010
0100
0010
0100
0010
,
0100
1000
0100
1000
0001
0100
0010
1000
,
0100
1000
0100
0010
0002
0000
0000
0000
,
0000
0003
0021
0031
,
0201
0301
2001
3001
,
0001
0100
0010
0000
1020
0000
1030
0000
,
1200
1300
1002
1003
,
1000
0100
0010
0000
2001
0000
3001
0000
,
0201
0301
0021
0031
,
0001
0100
0010
0000
1002
0000
1003
0000
,
1200
1300
1020
1030
,
1000
0100
0010
0000
0002
0000
0000
0000
,
0100
0010
0000
0100
,
1000
0100
0010
0100
,
0010
0000
0100
0000
1003
0000
0100
0001
,
0010
0100
1000
0010
0100
0001
0010
0100
,
0010
0100
0010
1000
0010
1000
0010
0001
,
0010
0001
1000
0001
1000
0001
1000
0010
,
1000
0010
0001
0010
0001
0010
0100
0010
,
0100
0010
0100
0001
0100
0001
0020
0000
,
0130
0100
2000
0000
3100
0100
0020
0000
,
0130
0100
2000
0000
3100
0100
1000
0001
,
1000
0000
0001
0000
0010
0000
0001
0000
0010
0000
0001
0000
0100
0000
0000
0100
,
0000
0000
0100
0000
0010
0000
0000
0010
0000
0000
0010
0000
1000
0000
0010
0000
,
0100
0001
0100
0010
0100
0010
0001
0010
,
1000
0100
0010
0001
0100
0010
1000
0100
,
0010
0001
0100
0010
0100
0010
2000
0000
,
0000
0000
0000
0000
0000
0000
0000
0000
3000
0000
0000
0000
0000
0000
0001
0010
,
0000
0000
0001
1000
0000
0000
0001
0010
0000
0000
0001
0100
0000
0000
0001
0010
,
0000
0000
0001
0100
0000
0000
0001
0010
0000
0000
0001
1000
0000
0000
1000
0010
,
0000
0000
1000
0001
0000
0000
1000
0010
0000
0000
1000
0100
0000
0000
1000
0010
,
0000
0000
1000
0100
0000
0000
1000
0010
0000
0000
1000
0001
0000
0000
0001
0100
,
0000
0000
0001
1000
0000
0000
0001
0100
0000
0000
0001
0010
0000
0000
0001
0100
,
0000
0000
0001
0010
0000
0000
0001
0100
0000
0000
0001
1000
0000
0000
1000
0100
,
0000
0000
1000
0001
0000
0000
1000
0100
0000
0000
1000
0010
0000
0000
1000
0100
,
0000
0000
1000
0010
0000
0000
1000
0100
0000
0000
1000
0001
0000
0000
0000
0000
;

//---------------dance-single - ----------------
#NOTES:
     dance-single:
     :
     Easy:
     5:
     0.388669,0.445136,0.208641,0.325480,0.000000,326.000000,301.000000,25.000000,39.000000,0.000000,0.000000,0.388669,0.445136,0.208641,0.325480,0.000000,326.000000,301.000000,25.000000,39.000000,0.000000,0.000000:
// measure 0
0000
0000
0000
0000
,  // measure 1
0000
0000
0000
0000
,  // measure 2
0000
0000
0001
0000
,  // measure 3
0000
0000
0001
0000
,  // measure 4
0000
0000
0001
0000
,  // measure 5
0000
0000
0001
0000
,  // measure 6
0000
0000
0001
0100
,  // measure 7
0010
0010
1000
0100
,  // measure 8
0010
0001
0010
0000
0001
0000
0100
0000
,  // measure 9
0010
0000
1010
0000
1000
0100
0010
0100
,  // measure 10
1000
0001
0100
0000
0012
0000
0013
0000
,  // measure 11
0102
0103
0012
0013
,  // measure 12
0100
0001
1000
0000
2010
0000
3010
0000
,  // measure 13
2100
3100
2010
3010
,  // measure 14
0100
1000
0001
0000
0102
0000
0103
0000
,  // measure 15
0012
0013
0102
0103
,  // measure 16
0010
0001
1000
0000
2100
0000
3100
0000
,  // measure 17
2010
3010
2100
3100
,  // measure 18
0010
1000
0001
0100
0001
1000
0001
1000
,  // measure 19
0010
1000
0010
1000
0001
0010
0001
0010
,  // measure 20
0001
0100
0001
0100
0010
1000
0010
1000
,  // measure 21
0100
1000
0100
1000
0001
0100
0001
0100
,  // measure 22
0010
1000
0010
1000
0002
0000
0103
0000
,  // measure 23
2000
3100
0002
0103
,  // measure 24
2000
0000
3100
0000
0001
0100
0001
1000
,  // measure 25
0100
1000
0001
0100
0020
0000
0130
0000
,  // measure 26
2000
0000
3001
0000
0001
1000
0100
1000
,  // measure 27
0001
0100
0010
1000
0001
1000
0100
0010
,  // measure 28
0001
0100
0001
0100
0010
1000
0100
1000
,  // measure 29
0100
0010
0001
1000
0020
0000
0000
0000
,  // measure 30
0000
0030
2010
3010
,  // measure 31
2100
3100
2010
3010
,  // measure 32
0100
1000
0001
0000
0012
0000
0013
0000
,  // measure 33
0102
0103
0012
0013
,  // measure 34
0100
0001
1000
0000
2100
0000
3100
0000
,  // measure 35
2010
3010
2100
3100
,  // measure 36
0010
1000
0001
0000
0102
0000
0103
0000
,  // measure 37
0012
0013
0102
0103
,  // measure 38
0010
0000
0001
0000
1000
0000
0000
0000
0200
0000
0000
0000
0000
0000
0000
0300
,  // measure 39
0000
0000
0000
1000
,  // measure 40
0010
0100
0001
1000
,  // measure 41
0010
0000
0100
0000
0001
0000
1000
0010
,  // measure 42
0100
0001
0100
0001
0010
0100
1000
0001
,  // measure 43
1000
0001
0100
0001
0100
0001
0100
0010
,  // measure 44
0100
0010
1000
0010
1000
0010
1000
0001
,  // measure 45
1000
0001
1000
0100
1000
0100
1000
0010
,  // measure 46
1000
0010
0100
0010
0100
0010
2000
0000
,  // measure 47
3010
0002
0013
2000
,  // measure 48
3010
0000
0002
0000
0013
0000
1000
0010
,  // measure 49
1000
0010
1000
0001
1000
0001
0200
0000
,  // measure 50
0310
0000
0002
0000
1003
0000
1000
0001
,  // measure 51
0010
0100
1000
0001
0100
0010
1000
0100
,  // measure 52
1000
0100
0010
0001
0100
0001
1000
0100
,  // measure 53
0010
0001
0100
0010
1000
0001
0020
0000
,  // measure 54
0000
0000
0000
0000
0030
0000
0000
0001
,  // measure 55
0000
0001
0000
0001
0000
0001
0000
0001
,  // measure 56
0000
0001
0000
0001
0000
0001
0000
1000
,  // measure 57
0000
1000
0000
1000
0000
1000
0000
1000
,  // measure 58
0000
1000
0000
1000
0000
1000
0000
0100
,  // measure 59
0000
0100
0000
0100
0000
0100
0000
0100
,  // measure 60
0000
0100
0000
0100
0000
0100
0000
0010
,  // measure 61
0000
0010
0000
0010
0000
0010
0000
0010
,  // measure 62
0000
0010
0000
0010
0000
0010
0001
0000
;

//---------------dance-single - ----------------
#NOTES:
     dance-single:
     :
     Beginner:
     3:
     0.244408,0.288029,0.050074,0.208641,0.000000,205.000000,199.000000,6.000000,25.000000,0.000000,0.000000,0.244408,0.288029,0.050074,0.208641,0.000000,205.000000,199.000000,6.000000,25.000000,0.000000,0.000000:
// measure 0
0000
0000
0000
0000
,  // measure 1
0000
0000
0000
0000
,  // measure 2
0000
0000
0100
0000
,  // measure 3
0000
0000
0100
0000
,  // measure 4
0000
0000
0100
0000
,  // measure 5
0000
0000
0100
0000
,  // measure 6
0000
0000
1000
0010
,  // measure 7
1010
0000
0001
0010
,  // measure 8
0011
0000
1000
0100
,  // measure 9
1100
0000
0001
0100
,  // measure 10
0101
0101
2000
0000
,  // measure 11
0200
0300
3002
0003
,  // measure 12
0001
0100
0001
0000
2000
0000
0000
0000
,  // measure 13
0020
0030
3002
0003
,  // measure 14
0001
0010
0001
0000
2000
0000
0000
0000
,  // measure 15
0200
0300
3002
0003
,  // measure 16
0001
0100
0001
0000
2000
0000
0000
0000
,  // measure 17
0020
0030
3001
0001
,  // measure 18
0001
0010
0001
0000
1000
0000
0001
0000
,  // measure 19
0100
0010
1000
0100
,  // measure 20
1000
0001
1000
0010
,  // measure 21
0100
0001
1000
0100
,  // measure 22
0010
0001
1000
1000
,  // measure 23
0001
0001
1000
1000
,  // measure 24
0001
0001
1000
0100
,  // measure 25
1000
0001
1000
1000
,  // measure 26
0010
0010
0100
0001
,  // measure 27
1000
0100
0010
0001
,  // measure 28
1000
0001
0100
0010
,  // measure 29
1000
0100
2000
0000
,  // measure 30
3000
0000
0002
0000
,  // measure 31
0200
0300
2003
3000
,  // measure 32
1000
0100
1000
0000
0002
0000
0000
0000
,  // measure 33
0020
0030
2003
3000
,  // measure 34
1000
0010
1000
0000
0002
0000
0000
0000
,  // measure 35
0200
0300
2003
3000
,  // measure 36
1000
0100
1000
0000
0002
0000
0000
0000
,  // measure 37
0020
0030
1003
1000
,  // measure 38
1000
0010
1000
0000
0200
0000
0000
0000
,  // measure 39
0300
0000
0000
0001
,  // measure 40
0000
0010
0000
0001
,  // measure 41
0000
0010
0000
0001
,  // measure 42
0010
0100
1000
0100
,  // measure 43
0010
0001
0010
0001
,  // measure 44
0100
0001
0100
0001
,  // measure 45
1000
0100
1000
0100
,  // measure 46
0010
0001
0010
0001
,  // measure 47
0001
1000
1000
0001
,  // measure 48
0001
1000
1000
0001
,  // measure 49
0100
0001
1000
0010
,  // measure 50
0010
1000
1000
0100
,  // measure 51
1000
0100
0010
0001
,  // measure 52
0100
0001
0100
0010
,  // measure 53
0001
0010
1000
0200
,  // measure 54
0000
0000
0300
1000
,  // measure 55
0010
1000
0010
1000
,  // measure 56
0010
1000
0010
0100
,  // measure 57
0010
0100
0010
0100
,  // measure 58
0010
0100
0010
0100
,  // measure 59
0001
0100
0001
0100
,  // measure 60
0001
0100
0001
0010
,  // measure 61
0001
0010
0001
0010
,  // measure 62
0001
0010
0001
0101
;
