#TITLE:Le code de bonne conduite;
#SUBTITLE:;
#ARTIST:Manresa;
#TITLETRANSLIT:;
#SUBTITLETRANSLIT:;
#ARTISTTRANSLIT:;
#GENRE:;
#CREDIT:;
#BANNER:Le code de bonne conduite-bn.png;
#BACKGROUND:Le code de bonne conduite-bg.png;
#LYRICSPATH:;
#CDTITLE:;
#MUSIC:Le code de bonne conduite.mp3;
#OFFSET:0.000000;
#SAMPLESTART:24.584003;
#SAMPLELENGTH:11.220000;
#SELECTABLE:YES;
#DISPLAYBPM:171.000000;
#BPMS:0.000000=171.014999
;
#STOPS:
;
#BGCHANGES:0.000=Le code de bonne conduite.avi=1.000=0=0=0=StretchNoLoop====,
99999=-nosongbg-=1.000=0=0=0 // don't automatically add -songbackground-
;
#KEYSOUNDS:;
#ATTACKS:;

//---------------dance-single - ----------------
#NOTES:
     dance-single:
     :
     Hard:
     9:
     0.615933,0.847586,0.503329,0.123458,0.175690,454.000000,401.000000,53.000000,13.000000,0.000000,0.000000,0.615933,0.847586,0.503329,0.123458,0.175690,454.000000,401.000000,53.000000,13.000000,0.000000,0.000000:
// measure 0
0000
0000
0000
0000
,  // measure 1
0000
0000
0000
0000
1000
0010
1000
0000
,  // measure 2
0001
0010
0001
0000
0001
0100
0010
1000
,  // measure 3
0100
1000
0010
0000
1000
0100
1000
0000
,  // measure 4
0001
0100
0001
0000
1000
0100
0010
0001
,  // measure 5
0100
0001
0100
0000
0100
0001
1000
0000
,  // measure 6
1010
0000
0011
0000
0001
1000
0100
0000
,  // measure 7
0101
1100
1000
1010
,  // measure 8
0001
0000
0011
0000
0100
0001
1000
0001
,  // measure 9
0100
0000
1001
0000
1100
0000
1000
0100
,  // measure 10
0001
0000
0011
0000
0101
0000
0001
0010
,  // measure 11
1000
1100
1000
1000
,  // measure 12
0010
0000
0010
0000
1000
0010
0100
0001
,  // measure 13
0100
0000
1001
0000
0100
1000
0010
0000
,  // measure 14
1100
0000
0011
0000
0010
0001
0100
0000
,  // measure 15
1010
0000
0101
0000
0001
0010
1000
0000
,  // measure 16
0010
0001
0100
0000
0001
0010
0100
1000
,  // measure 17
0200
0300
1000
0001
,  // measure 18
0020
0030
0001
0011
,  // measure 19
0001
0010
0001
0010
0001
0000
0000
0000
1000
0000
0000
0000
0001
0000
0000
0000
,  // measure 20
0200
0300
0001
0101
,  // measure 21
1000
0100
1000
0100
1000
0000
0000
0000
0001
0000
0000
0000
0100
0000
0000
0000
,  // measure 22
0020
0030
1000
1010
,  // measure 23
1000
0001
0100
0000
0010
0000
0100
0000
,  // measure 24
0002
0003
0001
0101
,  // measure 25
0100
0001
1000
0000
0001
0000
0010
0000
,  // measure 26
1000
0000
0010
0000
1000
0010
0100
0001
,  // measure 27
0100
0001
1000
0100
0010
0000
0000
0000
1000
0000
0000
0000
0100
0000
0000
0000
,  // measure 28
0001
0000
0000
0000
0100
0000
0000
0000
1000
0000
0001
0000
0100
0000
0001
0010
,  // measure 29
0001
1000
0001
0000
1000
0010
1000
0000
,  // measure 30
0001
0100
0001
0000
1000
0000
1010
0000
,  // measure 31
0001
0000
0101
0000
0100
0001
0100
0000
,  // measure 32
1000
0000
0010
0000
1000
0000
0000
0000
1000
0000
0000
0001
0000
0000
1000
0000
,  // measure 33
0020
0000
0000
0000
0030
0000
0000
0000
1000
0100
1000
0000
1000
0000
0100
0000
,  // measure 34
0010
0000
0000
0000
1100
0000
0000
0000
0001
0010
0001
0000
1000
0000
0100
0000
,  // measure 35
0001
0011
0001
0101
,  // measure 36
1000
0000
0000
0000
1100
0000
0000
0000
1000
0010
0100
0000
0001
0000
1000
0000
,  // measure 37
0100
1001
1000
1010
,  // measure 38
0001
0011
1000
1100
,  // measure 39
0001
0000
0100
0000
0001
0000
0000
0000
1000
0010
1000
0000
0001
0010
0001
0000
,  // measure 40
1000
0100
1000
0000
0001
0010
0001
0000
0010
0100
1000
0001
0100
0010
1000
0000
,  // measure 41
1010
0000
0101
0000
1000
0100
0001
0100
,  // measure 42
1000
0000
1010
0000
0001
0010
1000
0010
,  // measure 43
0001
0101
0101
1010
,  // measure 44
0011
0000
1100
0000
1000
0100
0010
0001
,  // measure 45
0100
0000
0101
0000
1000
0010
1010
0000
,  // measure 46
1000
0100
1000
0000
0001
0100
0101
0000
,  // measure 47
0001
0010
0001
0000
1000
0100
0001
0000
,  // measure 48
1000
0000
0100
0000
0010
0000
0000
0000
0100
0001
1000
0000
0010
1000
0001
0100
,  // measure 49
0020
1030
1000
0001
,  // measure 50
0020
0030
0001
0011
,  // measure 51
0001
0010
0001
0010
0001
0000
0000
0000
1000
0000
0000
0000
0001
0000
0000
0000
,  // measure 52
0200
0300
0001
0101
,  // measure 53
1000
0100
1000
0100
1000
0000
0000
0000
0001
0000
0000
0000
0100
0000
0000
0000
,  // measure 54
0020
0030
1000
1010
,  // measure 55
1000
0001
0100
0000
0010
0000
0100
0000
,  // measure 56
0002
0003
0001
0101
,  // measure 57
0100
0001
1000
0000
0001
0000
0010
0000
,  // measure 58
1000
0000
0010
0000
1000
0010
0100
0001
,  // measure 59
0100
0001
1000
0100
0010
0000
0000
0000
1000
0000
0000
0000
0100
0000
0000
0000
,  // measure 60
0001
0000
0000
0000
0100
0000
0000
0000
1000
0000
0001
0000
0100
0000
0001
0010
,  // measure 61
0001
1000
0001
0000
1000
0010
1000
0000
,  // measure 62
0001
0100
0001
0000
1000
0000
1010
0000
,  // measure 63
0001
0000
0101
0000
0100
0001
0100
0000
,  // measure 64
1000
0000
0010
0000
1000
0000
0000
0000
1000
0000
0000
0001
0000
0000
1000
0000
,  // measure 65
0020
0030
1000
0010
,  // measure 66
1000
1010
0001
0010
,  // measure 67
0001
0011
1000
0100
,  // measure 68
1000
1100
0001
0100
,  // measure 69
0001
0101
1000
0100
,  // measure 70
0001
0000
0000
0000
0100
0000
0000
0000
1000
0010
1000
0010
1000
0010
0100
0010
,  // measure 71
0100
0010
0100
0010
0100
0010
0100
0001
1000
0000
0010
0000
0100
0000
0000
0000
,  // measure 72
0001
1000
0100
0000
1000
0000
1010
0000
,  // measure 73
0011
0000
1000
0001
0200
0000
0000
0000
,  // measure 74
0000
0000
0000
0300
0000
0000
0000
0000
;

//---------------dance-single - ----------------
#NOTES:
     dance-single:
     :
     Medium:
     6:
     0.523679,0.600374,0.446348,0.113961,0.004748,386.000000,339.000000,47.000000,12.000000,0.000000,0.000000,0.523679,0.600374,0.446348,0.113961,0.004748,386.000000,339.000000,47.000000,12.000000,0.000000,0.000000:
0000
0000
0000
0000
,
0000
0000
0000
0000
1000
0010
1000
0000
,
0001
0010
0001
0000
1000
0010
0100
0001
,
0100
0000
1100
0000
0001
0100
0001
0000
,
1000
0100
1000
0000
0001
1000
0100
0010
,
0001
0000
0011
0000
0010
0001
1000
0000
,
1100
0000
0011
0000
0010
1000
0001
0000
,
0101
0000
1010
0000
1000
0100
1000
0000
,
0001
0100
0001
0000
0010
0100
0001
1000
,
0100
1001
1000
1010
,
0001
0011
1000
1100
,
0001
0101
0100
0100
,
0010
0000
1000
0000
0001
0100
0001
0100
,
0001
0000
0101
0000
0010
0001
0100
0000
,
1100
0000
0011
0000
0010
1000
0100
0000
,
0101
1010
1000
0001
,
0100
0000
1000
0001
0100
0010
1000
0100
,
2000
3000
0000
0000
1000
0000
0010
0000
,
0200
0000
0000
0000
0000
0300
0000
0000
0001
0000
0000
0000
0101
0000
0000
0000
,
0010
1000
0100
0000
1000
0000
0001
0000
,
0020
0000
0000
0000
0000
0030
0000
0000
0001
0000
0000
0000
0011
0000
0000
0000
,
1000
0100
0010
0000
0001
0000
0100
0000
,
0020
0000
0000
0000
0000
0030
0000
0000
1000
0000
0000
0000
1010
0000
0000
0000
,
0010
1000
1000
0000
0010
0000
1000
0000
,
0002
0000
0000
0000
0000
0003
0000
0000
0001
0000
0000
0000
0101
0000
0000
0000
,
0100
0001
1000
0000
0001
0000
0010
0000
,
1000
0010
0100
1000
,
0010
0100
0001
0000
1000
0000
0100
0000
,
0001
0100
0010
0001
,
1000
0001
0100
0000
1000
0010
1000
0000
,
0001
0100
0001
0000
1000
0000
1010
0000
,
0001
0000
0101
0000
1000
0100
1000
0000
,
1000
0001
0010
0000
1000
0000
0001
0000
,
0200
0000
0300
0000
1000
0010
1000
0000
,
0001
0010
0001
0000
1000
0000
0001
0000
,
1000
0100
1000
0000
0001
0100
0001
0000
,
1000
0100
0010
0000
0010
0000
0001
0000
,
1000
0001
0100
0000
1000
0000
1000
0000
,
0010
0010
0100
0100
,
0001
0101
1010
0011
,
1100
0000
0101
0000
0001
1000
0001
1000
,
0001
1001
1000
0100
,
0010
0001
0011
0010
,
0001
1000
1100
0100
,
1010
0000
0010
0000
1000
0010
1000
0010
,
1000
1010
0010
0011
,
0100
0101
0100
0010
,
1000
0001
0100
0000
1000
0010
0001
0000
,
0010
1000
0001
0000
1000
0100
1000
0001
,
1000
0000
0001
1000
,
0020
0000
0000
0000
0000
0030
0000
0000
1000
0000
0000
0000
1010
0000
0000
0000
,
1000
0100
1000
0000
0001
0000
1000
0000
,
0020
0000
0000
0000
0000
0030
0000
0000
1000
0000
0000
0000
1010
0000
0000
0000
,
0001
0100
0001
0000
0010
0000
0100
0000
,
2000
0000
0000
0000
0000
3000
0000
0000
0001
0000
0000
0000
0101
0000
0000
0000
,
0001
0100
0010
0000
1000
0000
0100
0000
,
0020
0000
0000
0000
0000
0030
0000
0000
1000
0000
0000
0000
1010
0000
0000
0000
,
0100
1000
0001
0000
1000
0000
0100
0000
,
0001
0000
0100
0000
0001
0100
0010
1000
,
0100
1000
0001
0000
0001
0000
0010
0000
,
1000
0000
0010
0000
0001
1000
0100
0000
,
0100
1000
0001
0000
0001
0100
0001
0000
,
1000
0010
1000
0000
0001
0000
0101
0000
,
1000
0000
1010
0000
0001
0010
0001
0000
,
0100
0000
1000
0000
0100
0000
0000
0000
0001
0000
0000
1000
0000
0000
0001
0000
,
0200
0000
0000
0000
0000
0300
0000
0000
0001
0000
0000
0000
1000
0000
0000
0000
,
0001
0101
1000
0001
,
1000
1100
0001
1000
,
0001
0011
1000
0001
,
1000
1010
0001
0010
,
1000
0010
0001
0100
,
1000
0000
0100
0000
0001
1000
0100
0000
,
1000
0010
0100
0000
0001
0000
0101
0000
,
1100
1010
0200
0000
,
0000
0000
0000
0300
0000
0000
0000
0000
;

//---------------dance-single - ----------------
#NOTES:
     dance-single:
     :
     Easy:
     3:
     0.328317,0.388477,0.208929,0.009497,0.000000,242.000000,220.000000,22.000000,1.000000,0.000000,0.000000,0.328317,0.388477,0.208929,0.009497,0.000000,242.000000,220.000000,22.000000,1.000000,0.000000,0.000000:
0000
0000
0000
0000
,
0000
0000
1000
0010
,
1000
0000
0010
0100
,
0010
0000
0001
0000
,
0100
0000
0001
0100
,
0001
0000
0010
0000
,
0010
0000
1000
0000
,
0001
0000
1000
0010
,
1000
0010
1000
0100
,
1000
0000
0001
0000
,
0011
0000
1000
0000
,
1010
0000
1000
0000
,
1100
0000
0001
0100
,
0101
0000
1000
0100
,
0010
0000
0001
0010
,
1000
0000
1000
0100
,
1000
0100
0010
0001
,
0010
0000
1000
0001
,
0010
0000
1000
0010
,
1000
1010
0001
1000
,
0100
0000
0001
1000
,
0001
0101
0001
0010
,
0100
0000
0010
0100
,
0010
0100
1000
0001
,
0100
0000
0010
0100
,
0010
0100
0001
0010
,
1000
0010
0001
0001
,
1000
1000
1000
0100
,
0001
0100
1000
1000
,
0001
0001
1000
0010
,
1000
1010
0001
0100
,
0001
0001
1000
0100
,
1000
1100
0010
0100
,
0100
0000
0001
0000
,
0001
0000
1000
0000
,
1000
0000
0100
0000
,
0100
0000
0010
0000
,
1000
0000
1000
0000
,
1000
0000
0001
0000
,
0001
0000
0010
0000
,
0010
0000
0100
1000
,
0100
0000
1000
0000
,
1100
0000
0001
0000
,
0101
0000
1000
0000
,
1010
0000
0001
0000
,
0011
0000
1000
0010
,
1000
0000
0001
0010
,
0001
0000
0010
0100
,
0010
0001
0100
0010
,
1000
0000
1000
0010
,
1010
0000
0100
0100
,
0001
0001
0100
0001
,
0101
0000
1000
1000
,
0010
0010
0100
0100
,
0100
0000
0100
1000
,
0100
0001
0100
0010
,
1000
0000
0010
1000
,
0010
0001
1000
0001
,
1001
0000
0001
0100
,
1000
0100
0001
1000
,
1001
0000
0001
1000
,
0001
0001
0100
0001
,
1000
0000
0100
0001
,
0010
0010
0100
1000
,
0001
0000
0100
0001
,
0100
0101
1000
0000
,
1010
0000
1000
0000
,
1100
0000
0001
0100
,
0101
0000
1000
0100
,
0010
0000
0001
0000
,
0101
0000
1000
0001
,
1000
0001
0010
0000
,
0110
0000
1000
0100
,
0010
0001
0200
0000
,
0000
0000
0000
0300
0000
0000
0000
0000
;
