#TITLE:Ignis Fatuus;
#SUBTITLE:;
#ARTIST:BanYa remixed by DM Ashura;
#TITLETRANSLIT:;
#SUBTITLETRANSLIT:;
#ARTISTTRANSLIT:;
#GENRE:;
#CREDIT:;
#BANNER:Ignis Fatuus (DM Ashura Mix).png;
#BACKGROUND:Ignis Fatuus (DM Ashura Mix).png;
#LYRICSPATH:;
#CDTITLE:;
#MUSIC:Ignis Fatuus (DM Ashura Mix).mp3;
#OFFSET:-0.320000;
#SAMPLESTART:91.973999;
#SAMPLELENGTH:12.000000;
#SELECTABLE:YES;
#BPMS:0.000000=110.000000
,28.000000=55.000000
,30.000000=220.000000
,102.000000=110.000000
,118.000000=220.000000
,214.000000=54.999001
,216.000000=200.000000
,223.500000=54.999001
,225.500000=220.000000
,233.000000=54.999001
,234.000000=220.000000
,238.000000=54.999001
,239.000000=220.000000
;
#STOPS:224.000000=0.020000,
233.500000=0.020000
;
#BGCHANGES:0.000=Ignis Fatuus-BGA.avi=1.000=0=0=0=StretchNoLoop====,
394.000=Ignis Fatuus (DM Ashura Mix).png=1.000=1=0=0=StretchNoLoop==CrossFade==,
99999=-nosongbg-=1.000=0=0=0 // don't automatically add -songbackground-
;
#KEYSOUNDS:;
#ATTACKS:;

//---------------dance-single - ----------------
#NOTES:
     dance-single:
     :
     Easy:
     7:
     0.670606,1.000000,0.556230,0.505663,0.155913,431.000000,66.000000,60.000000,0.000000,0.000000,0.000000,0.670606,1.000000,0.556230,0.505663,0.155913,431.000000,66.000000,60.000000,0.000000,0.000000,0.000000:
0000
0000
0000
0000
,
0000
0000
0000
0000
,
0000
0000
0000
0000
,
0000
0000
0000
0000
,
0000
0000
0000
0000
,
0000
0000
0000
0000
,
0000
0000
0000
0000
,
0000
0000
0000
0000
2000
0000
0000
3100
,
0000
0000
1100
0000
0002
0000
0000
0103
,
0000
0000
0101
0000
2000
0000
0000
3100
,
0000
0000
1100
0000
0002
0000
0000
0103
,
0000
0000
0101
0000
2000
0000
0000
3010
,
0000
0000
1010
0000
0002
0000
0000
0013
,
0000
0000
0011
0000
2000
0000
0000
3100
,
0000
0000
1100
0000
0002
0000
0000
0103
,
0000
0000
0011
0100
1010
0000
1001
0000
,
1010
1001
0011
1001
,
0011
1001
1100
1001
,
1100
1001
0101
1001
,
0101
0000
1001
0000
1000
0001
0100
0000
,
0001
1000
0100
0000
1000
0001
0010
0000
,
0001
1000
0010
0000
1000
0001
0100
0010
,
1000
0001
0100
0010
2000
3001
0200
0310
,
2000
3001
0200
0310
0000
0000
2000
0000
,
0002
0000
0000
0000
,
0000
0000
3003
0000
0000
0000
0000
0000
1001
0000
1000
0001
0000
0001
1000
0000
,
1000
0001
0000
0001
1000
0100
0020
0000
0031
0000
0001
1000
0000
1000
0001
0000
,
0001
1000
0000
1000
0001
0100
0010
0000
0010
1000
0001
0020
0000
0030
0010
0000
,
0010
0001
1000
0020
0000
0030
0010
0000
0010
1000
0001
0020
0000
0030
0010
0000
,
0001
1000
0100
1000
0100
1000
0001
0000
0101
0000
0000
0000
0001
0000
1000
0000
,
0000
1000
0100
0000
0100
0010
0000
0010
,
0001
0000
1001
0000
1100
0000
1000
0001
,
0000
0001
0100
0000
0100
0010
0000
0010
,
1000
0000
1001
0000
0010
1000
0001
0020
,
0000
0030
0010
0000
0010
0001
1000
0020
,
0000
0030
0010
0000
1000
0001
0100
0010
,
1000
0001
0100
0010
0220
0000
0000
0000
,
0000
0330
0002
2003
,
3020
0230
0302
2003
,
3020
0230
0302
0023
,
0230
2300
3002
0023
,
0230
0000
1300
0001
2000
0000
3002
0000
,
0203
0320
2030
3002
,
0203
0320
2030
3020
,
0230
0302
2003
3020
,
0230
0000
0301
1000
1001
0000
1001
0000
,
1001
1001
1010
1010
,
1010
1010
0110
0110
,
0110
0110
0101
0101
,
0101
0101
1001
1100
,
1001
0101
1001
1010
,
1001
0011
0110
1100
,
0101
0110
1010
1001
,
0110
1001
0000
0000
,
1000
0000
0100
0000
0000
0000
1000
0000
0100
0000
0000
1000
0000
0100
0000
1000
,
0000
0100
0000
0000
1000
0000
0100
0000
1000
0000
0100
0000
0000
0000
0000
0000
,
0000
0000
0000
0001
0100
0000
0001
0100
,
0000
0001
0000
0100
0000
0001
0000
0100
0000
0000
0001
0000
0100
0000
0001
0000
,
0100
0000
0000
0000
1000
0100
1000
0100
,
0000
1000
0100
0000
0000
0000
0001
0100
,
0001
0100
0000
0001
0100
0000
0001
1000
,
0100
0000
1000
0001
0100
0000
0001
1000
,
0010
0000
1000
0100
0010
0000
0001
1000
,
0100
0010
0001
1000
0100
0010
0002
1003
,
0200
0310
0002
1003
0200
0310
0220
0000
,
0000
0000
0000
0000
,
0000
0000
0330
0000
0000
0000
1000
0100
,
0010
0001
0100
0010
1000
0100
1000
0010
,
0100
0001
0010
0100
1000
0000
0001
0010
,
0100
1000
0010
0100
0001
0010
0001
0100
,
0010
1000
0100
0010
0001
0000
0001
0100
,
0010
1000
0100
0010
0001
0100
0001
0010
,
0100
1000
0010
0100
0001
0000
1000
0010
,
0100
0001
0010
0100
1000
0010
1000
0100
,
0010
0001
0100
0010
1000
0000
1000
0100
,
0010
0001
0100
0010
1000
0001
0100
0001
,
1000
0010
1000
0001
0010
0100
1000
0100
,
1000
0001
0010
0001
1000
0001
0010
0100
,
0010
0100
1000
0010
0100
0001
1000
0000
,
0000
1000
0001
0000
0000
0001
0100
0000
,
0000
0100
0010
0000
0000
0010
1000
0000
,
1001
0000
0001
0000
1001
0000
1000
0001
,
1000
0000
0001
0000
1000
0010
1000
0010
1000
0000
0000
0000
0001
0000
1000
0000
,
0001
0000
1000
0000
0001
0010
0001
0010
0001
0000
0000
0000
1000
0000
0001
0000
,
1000
0010
1000
0000
0001
0000
1000
0000
0001
0010
0001
0000
0010
0000
0100
0000
,
0010
0000
0100
0000
0010
0100
0010
0100
0010
0100
0010
0100
0010
0000
0000
0000
,
0000
2002
0000
0000
,
0000
0000
0000
0000
,
0000
0000
0000
0000
,
0000
0000
0000
3003
;

//---------------dance-single - ----------------
#NOTES:
     dance-single:
     :
     Medium:
     11:
     0.794614,1.000000,0.564658,0.598368,0.328681,522.000000,67.000000,71.000000,0.000000,0.000000,0.000000,0.794614,1.000000,0.564658,0.598368,0.328681,522.000000,67.000000,71.000000,0.000000,0.000000,0.000000:
0000
0000
0000
0000
,
0000
0000
0000
0000
,
0000
0000
0000
0000
,
0000
0000
0000
0000
,
1000
0001
0100
0000
0001
1000
0000
1000
0001
1000
0100
0000
1000
0001
0000
0001
,
1000
0001
0100
0000
0001
1000
0000
1000
0001
1000
0100
0000
1000
0001
0000
0001
,
1000
0001
0010
0000
0001
1000
0000
1000
0001
1000
0010
0000
1000
0001
0000
0001
,
0000
0000
0000
0000
0000
0000
0000
0000
2100
0000
0000
0000
0000
3000
0020
0000
,
0000
0000
0000
0000
0130
0000
0000
0000
0102
0000
0000
0000
0000
0003
0020
0000
,
0000
0000
0000
0000
0130
0000
0000
0000
2100
0000
0000
0000
0000
3000
0020
0000
,
0000
0000
0000
0000
0130
0000
0000
0000
0102
0000
0000
0000
0000
0003
0020
0000
,
0000
0000
0000
0000
0130
0000
0100
0000
2100
0000
0000
0000
0000
3000
0020
0000
,
0000
0000
0030
0000
0110
0000
0000
0000
0102
0000
0000
0000
0000
0003
0020
0000
,
0000
0000
0030
0000
0110
0000
0000
0000
2100
0000
0000
0000
0000
3000
0020
0000
,
0000
0000
0030
0000
0110
0000
0000
0000
0102
0000
0000
0000
0000
0003
0020
0000
,
0000
0030
0110
0010
0110
0000
1001
0000
,
0110
0000
1001
0000
1000
0100
0010
0001
,
0100
0010
1000
0000
1001
0000
0110
0000
,
1001
0000
0110
0000
0001
0100
0010
1000
,
0100
0010
0001
0000
1000
0001
0100
0000
,
0001
1000
0100
0000
1000
0001
0010
0000
,
0001
1000
0010
0000
1000
0001
0100
0010
,
1000
0000
0001
0000
0100
0000
0010
0000
2000
0000
3001
0100
0020
0000
1030
0100
,
0020
0000
0031
0100
0020
0000
1030
0100
0000
0000
0000
0000
2000
0000
0000
0000
,
0002
0000
0000
0000
,
0000
0000
3003
0000
0000
0000
0000
0000
1001
0000
0001
0100
1000
0100
0001
1000
,
0100
0001
0100
1000
0100
0010
0002
0000
1003
0000
1000
0100
0001
0100
1000
0001
,
0100
1000
0100
0001
0100
0010
2000
0000
3010
1000
0001
0020
0000
0030
0010
0000
,
0010
0001
1000
0020
0000
0030
0010
0000
0010
1000
0001
0020
0000
0030
0010
0000
,
0001
1000
0100
1000
0100
1000
0001
0000
1001
0000
0000
0000
0001
0000
0100
0000
,
0010
0100
0001
0010
0100
0010
0001
0100
,
0010
1000
0001
0000
1001
0000
1000
0100
,
0010
0100
1000
0010
0100
0010
1000
0100
,
0010
0001
1000
0000
0010
1000
0001
0020
,
0000
0030
0010
0000
0010
0001
1000
0020
,
0000
0030
0010
0000
1000
0001
0100
0010
,
1000
0000
0001
0000
0100
0000
0010
0000
1000
0100
1000
0000
0001
0100
0001
0000
,
1000
0100
1000
0000
0001
0100
0001
0000
0020
0000
0000
0000
0230
0000
0000
0000
,
2300
3002
0203
2300
,
3200
0302
0203
0320
,
2030
3002
0023
0230
,
2300
0000
3001
1000
0020
0000
0230
0000
,
0302
2003
3200
0302
,
0203
2300
3200
0320
,
0032
2003
3020
0230
,
0302
0000
1003
0001
1001
0000
1001
0000
,
1001
1001
1010
1010
,
1010
1010
0110
0110
,
0110
0110
0101
0101
,
0101
0101
1001
1100
,
1001
0101
1001
1010
,
1001
0011
0110
1100
,
0101
0110
1010
1001
,
0110
1001
0000
0000
,
1000
0000
0100
0000
0000
0000
1000
0000
0100
0000
0000
1000
0000
0100
0000
1000
,
0000
0100
0000
0000
1000
0100
1000
0000
0002
0000
1003
0000
0000
0000
0000
0000
,
0000
0000
0000
0000
0000
0000
0001
0100
0001
0000
0000
0000
0001
0100
0001
0000
,
0000
0001
0000
0100
0000
0001
0100
0001
0000
0000
0001
0100
0001
0000
2000
0000
,
3001
0000
0000
0000
0000
0000
0000
0000
1000
0000
1000
0100
1000
0000
0200
0000
,
0000
0300
1000
0000
0001
0000
0000
0000
0000
0000
0000
0000
0001
0100
0001
0100
,
0001
0000
2000
0000
0000
3000
0001
0000
0100
0000
0000
0000
0001
0000
1000
0000
,
0200
0000
0000
0300
1000
0000
0001
0000
0200
0000
0000
0300
0001
0000
1000
0000
,
0020
0000
0000
0030
1000
0000
0100
0000
0020
0000
0000
0030
0001
0000
1000
0000
,
0100
0010
0001
1000
0100
0010
0001
1010
,
0001
1010
0001
1010
0001
1010
0220
0000
,
0000
0000
0000
0000
,
0000
0000
0330
0000
0000
0000
1000
0100
,
0010
0001
0100
0010
1000
0100
0010
0001
,
0100
0010
1000
0100
0010
0001
1000
0010
,
0100
0001
0010
0100
1000
0010
0100
0001
,
0010
0100
1000
0010
0100
0001
1000
0100
,
0010
0001
0100
1000
0100
0001
0010
1000
,
0010
0001
0010
0100
1000
0001
0100
0010
,
1000
0100
0001
0100
1000
0010
0001
0010
,
1000
0010
0100
0001
1000
0001
0101
0100
,
0010
0001
0100
0010
1000
0100
1100
1000
,
0001
0010
1000
0010
0001
1000
1010
0010
,
0100
0001
0010
0001
1000
0001
0011
0100
,
0010
0100
1000
0010
0100
0001
1000
0000
,
0000
1000
0001
0000
0000
0001
0100
0000
,
0000
0100
0010
0000
0000
0010
1000
0000
,
1001
0000
0001
0000
1001
0000
1000
0001
,
1000
0000
0001
0000
1000
0010
1000
0010
1000
0010
1000
0000
0001
0000
1000
0000
,
0001
0000
1000
0000
0001
0010
0001
0010
0001
0010
0001
0000
1000
0000
0001
0000
,
1000
0010
1000
0000
0001
0000
1000
0000
0001
0010
0001
0000
0010
0100
0010
0100
,
0010
0100
0010
0100
1000
0100
1000
0100
1000
0100
1000
0100
0000
0000
0000
0000
,
0000
2002
0000
0000
,
0000
0000
0000
0000
,
0000
0000
0000
0000
,
0000
0000
0000
3003
;

//---------------dance-single - ----------------
#NOTES:
     dance-single:
     :
     Hard:
     14:
     0.843976,1.000000,0.202265,0.648935,0.539374,600.000000,24.000000,77.000000,0.000000,0.000000,0.000000,0.843976,1.000000,0.202265,0.648935,0.539374,600.000000,24.000000,77.000000,0.000000,0.000000,0.000000:
0000
0000
0000
0000
,
0000
0000
0000
0000
,
0000
0000
0000
0000
,
0000
0000
0000
0000
,
1000
0001
0100
0000
0001
1000
0000
1000
0001
1000
0100
0000
1000
0001
0000
0001
,
1000
0001
0100
0000
0001
1000
0000
1000
0001
1000
0100
0000
1000
0001
0000
0001
,
1000
0001
0010
0000
0001
1000
0000
1000
0001
1000
0010
0000
1000
0001
0000
0001
,
0000
0000
0000
0000
0000
0000
0000
0000
2100
0000
0000
0000
0000
3000
0020
0000
,
0000
0000
0000
0000
0130
0000
0000
0000
0102
0000
0000
0000
0000
0003
0020
0000
,
0000
0000
0000
0000
0130
0000
0000
0000
2100
0000
0000
0000
0000
3000
0020
0000
,
0000
0000
0000
0000
0130
0000
0000
0000
0102
0000
0000
0000
0000
0003
0020
0000
,
0000
0000
0000
0000
0130
0000
0100
0000
2100
0000
0000
0000
0000
3000
0020
0000
,
0000
0000
0030
0000
0110
0000
0000
0000
0102
0000
0000
0000
0000
0003
0020
0000
,
0000
0000
0030
0000
0110
0000
0000
0000
2100
0000
0000
0000
0000
3000
0020
0000
,
0000
0000
0030
0000
0110
0000
0000
0000
0102
0000
0000
0000
0000
0003
0020
0000
,
0000
0000
0030
0000
1001
0000
0001
0010
0001
0000
1000
0000
0100
0000
1000
0000
,
0020
0100
1030
0000
1000
0001
0100
0001
,
0020
0100
0031
0000
0001
1000
0100
1000
,
0002
0100
0013
0000
1000
0001
0100
0001
,
2000
0100
3010
0000
1000
0001
0100
0010
,
0000
1000
0100
0010
0000
0010
0001
0100
,
0000
0010
1000
0100
0000
1000
0100
0010
,
0001
0000
1000
0000
0100
0000
0010
0000
0002
0000
1003
0100
0002
0000
1003
0010
,
0002
0000
1003
0100
0002
0000
1003
0010
0000
0000
0000
0000
0002
0000
0000
0000
,
2000
0000
0000
0000
,
0000
0000
0000
0000
3003
0000
0000
0000
0000
0000
0000
0000
0000
0000
0000
0000
1001
0000
0000
0000
1000
0000
0001
0000
1000
0100
1000
0000
0100
1000
0100
0000
,
0010
0000
0001
0000
0100
0000
1000
0000
0100
0000
0010
0000
2000
0000
0000
0000
3001
0000
0000
0000
0001
0000
1000
0000
0001
0100
0001
0000
0100
0001
0100
0000
,
0010
0000
1000
0000
0100
0000
0001
0000
0100
0000
0010
0000
0002
0000
0000
0000
0013
0001
0010
0001
1000
0000
0020
0000
0000
0000
0030
0000
0010
0000
0000
0000
,
0010
1000
0010
1000
0001
0000
0020
0000
0000
0000
0030
0000
0010
0000
0000
0000
0010
0001
0010
0001
1000
0000
0020
0000
0000
0000
0030
0000
0010
0000
0000
0000
,
1000
0000
0001
0000
1000
0100
1000
0100
1000
0000
0001
0000
0020
0000
0030
0000
1001
0000
0000
0000
0000
0000
0000
0000
1000
0000
0000
0000
0100
0000
0000
0000
,
0010
0001
0100
0000
0100
0001
0010
0000
0001
0000
1000
0000
0100
0000
0010
0000
,
1000
0010
0001
0000
1001
0000
0001
0100
,
0010
1000
0100
0000
0100
1000
0010
0000
1000
0000
0001
0000
0100
0000
0010
0000
,
0001
0000
0010
0000
1000
0000
0000
0000
0010
1000
0010
1000
0001
0000
0020
0000
,
0000
0000
0030
0000
0010
0000
0000
0000
0010
0001
0010
0001
1000
0000
0020
0000
,
0000
0030
0010
0000
1000
0001
0100
0010
,
1000
0000
0001
0000
0100
0000
0010
0000
1000
0001
1000
0001
1000
0001
1000
0001
,
1000
0001
1000
0001
1000
0001
1000
0001
0020
0000
0000
0000
0230
0000
0000
0000
,
2300
3002
0203
2300
,
3200
0302
0203
0320
,
2030
3002
0023
0230
,
2300
0000
3001
1000
0020
0000
0230
0000
,
0302
2003
3200
0302
,
0203
2300
3200
0320
,
0032
2003
3020
0230
,
0302
0000
0003
0000
0101
0000
0100
0001
1000
0000
0010
0000
0100
0000
0001
0000
,
0100
0010
1000
0001
0010
0100
1000
0100
,
0010
0001
1000
0010
0001
0010
0100
0001
,
1000
0001
0010
1000
0010
0100
1000
0001
,
1000
0100
0001
0100
1000
0001
0010
0100
,
1000
0001
0010
0100
1000
0001
0100
0010
,
1000
0001
0100
0010
1000
0001
1000
0010
,
0100
0001
1000
0010
0100
0001
1000
0100
,
0010
0002
0003
0000
0000
0000
0000
0000
,
1000
0000
0100
0000
0000
0000
1000
0000
0100
0000
0000
1000
0000
0100
0000
1000
,
0000
0100
0000
0000
1000
0100
1000
0000
0002
0000
1003
0000
0000
0000
0000
0000
,
0000
0000
0000
0000
0000
0000
0001
0100
0001
0000
0000
0000
0001
0100
0001
0000
,
0000
0001
0000
0100
0000
0001
0100
0001
0000
0000
0001
0100
0001
0000
2000
0000
,
3001
0000
0000
0000
0000
0000
0000
0000
1000
0000
1000
0100
1000
0000
0200
0000
,
0000
0300
1000
0000
0001
0000
0000
0000
0000
0000
0000
0000
0001
0100
0001
0100
,
0001
0000
2000
0000
0000
3000
0001
0000
0100
0000
0000
0000
0000
0000
0000
0000
,
0020
0030
0200
0300
,
0002
0000
0003
0000
2000
0000
3010
0100
,
0001
0000
0000
0000
1000
0000
0000
0000
0010
0000
0000
0000
0100
0000
0000
0000
0001
0000
0000
0000
1000
0000
0000
0000
0001
0100
1000
0000
0001
0100
1000
0000
,
0001
0100
1000
0000
0001
0100
1000
0000
0001
0100
1000
0000
0001
0100
1000
0000
0001
0100
1000
0000
0001
0100
1000
0000
2002
0000
0000
0000
0000
0000
0000
0000
,
0000
0000
0000
0000
,
0000
0000
3003
0000
0000
0000
0100
1000
,
0100
0010
0001
0010
0100
1000
0100
0001
,
0100
1000
0001
1000
0100
1000
0001
0100
,
0001
0100
0010
1000
0010
0100
0001
0100
,
1000
0100
0001
1000
0001
0100
0001
0100
,
0001
1000
0010
1000
0001
0010
0100
1000
,
0001
0100
0010
1000
0001
0100
0001
0010
,
0001
1000
0100
1000
0001
0100
0010
1000
,
0001
0010
0100
1000
0001
0010
0001
0010
,
0100
1000
0100
0010
0001
1000
0100
0010
,
0001
0010
0100
1000
0001
0100
0010
1000
,
0010
0100
0001
1000
0010
0100
0001
0100
,
0010
1000
0001
0100
0001
1000
0001
0000
,
0000
1000
0001
0000
0000
0001
0100
0000
,
0000
0100
0010
0000
0000
0010
1000
0000
,
1001
0000
0001
0000
1001
0000
1000
0001
,
1000
0000
0001
0000
1000
0010
1000
0010
1000
0010
1000
0010
0100
0000
0001
0000
,
1000
0000
0001
0000
1000
0000
0010
1000
0010
1000
0010
1000
0010
1000
0001
0000
,
1000
0010
1000
0010
0100
0000
0001
0000
1000
0010
1000
0010
1000
0101
1000
0101
,
1000
0000
0000
0101
0000
0000
1000
0000
0000
0101
0000
0000
1000
0000
0100
0000
0001
0000
1000
0000
0100
0000
0001
0000
1000
0000
0100
0000
0001
0000
1000
0000
0100
0000
0001
0000
0000
0000
0000
0000
0000
0000
0000
0000
0000
0000
0000
0000
,
0000
2002
0000
0000
,
0000
0000
0000
0000
,
0000
0000
0000
0000
,
0000
0000
0000
3003
;

//---------------dance-single - ----------------
#NOTES:
     dance-single:
     :
     Challenge:
     17:
     0.963168,1.000000,1.000000,0.151699,0.644721,646.000000,136.000000,18.000000,0.000000,0.000000,0.000000,0.963168,1.000000,1.000000,0.151699,0.644721,646.000000,136.000000,18.000000,0.000000,0.000000,0.000000:
// measure 0
0000
0000
0000
0000
,  // measure 1
0000
0000
0000
0000
,  // measure 2
0000
0000
0000
0000
,  // measure 3
0000
0000
0000
0000
,  // measure 4
1000
0100
0010
0100
1000
0001
0000
0001
1000
0010
0100
0010
1000
0001
0000
0001
,  // measure 5
1000
0100
0010
0100
1000
0001
0000
0001
1000
0010
0100
0010
1000
0001
0000
1000
,  // measure 6
0001
0100
0010
0100
0001
1000
0000
1000
0001
0010
0100
0010
0001
1000
0000
1000
,  // measure 7
0000
0000
0000
0000
0001
0000
0000
1100
,  // measure 8
0000
0000
0110
0000
0001
0000
0000
1100
,  // measure 9
0000
0000
0110
0000
0001
0000
0000
1100
,  // measure 10
0000
0000
0110
0000
0001
0000
0000
1100
,  // measure 11
0000
0000
0110
0001
1000
0000
0000
0101
,  // measure 12
0000
0000
0110
0000
1000
0000
0000
0101
,  // measure 13
0000
0000
0110
0000
1000
0000
0000
0101
,  // measure 14
0000
0000
0110
0000
1000
0000
0000
0101
,  // measure 15
0000
0000
0000
0000
0110
0000
1000
0010
1000
0000
0001
0000
0100
0000
0001
0000
,  // measure 16
0010
0100
1000
0000
0001
1000
0100
1000
,  // measure 17
0010
0100
0001
0000
1000
0001
0100
0001
,  // measure 18
0010
0100
1000
0000
0001
1000
0100
1000
,  // measure 19
0010
0100
0001
0100
1010
0000
0000
0100
,  // measure 20
0011
0000
0000
0100
1010
0000
0000
0100
,  // measure 21
0011
0000
0000
0100
1010
0100
0011
0100
,  // measure 22
1010
0100
0011
0100
1000
0010
0001
0010
,  // measure 23
1000
0100
0010
0001
0000
0000
1020
0000
,  // measure 24
0200
0000
0000
0000
,  // measure 25
0000
0000
0000
0000
0000
0000
0000
0000
0330
0000
0000
0000
0000
0000
0000
0000
1000
0000
0001
0000
1000
0000
0100
0000
0001
0100
0001
0000
0100
0010
0100
0000
,  // measure 26
1000
0000
0001
0000
0010
0000
0100
0000
1000
0000
0001
0000
0100
0000
0000
0000
0001
0000
1000
0000
0001
0000
0100
0000
1000
0100
1000
0000
0100
0010
0100
0000
,  // measure 27
0001
0000
1000
0000
0010
0000
0100
0000
0001
0000
1000
0000
0100
0000
0000
0000
1000
0001
1000
0001
1000
0000
0020
0000
0000
0000
0100
0000
0130
0000
0000
0000
,  // measure 28
0001
1000
0001
1000
0001
0000
0020
0000
0000
0000
0100
0000
0130
0000
0000
0000
1000
0001
1000
0001
1000
0000
0200
0000
0000
0000
0010
0000
0310
0000
0000
0000
,  // measure 29
0100
0000
0010
0000
0001
1000
0001
1000
0001
0000
2000
0000
3010
0000
1000
0001
0100
0000
0000
0000
0010
0000
0000
0000
1000
0000
0000
0000
0010
0000
0000
0000
,  // measure 30
0100
0001
0010
0000
0100
1000
0010
0000
1000
0000
0001
0000
0010
0000
0100
0000
,  // measure 31
1000
0001
0100
0000
0100
0010
0001
0010
,  // measure 32
0100
1000
0010
0000
0100
0001
0010
0000
0001
0000
1000
0000
0010
0000
0100
0000
,  // measure 33
0001
0000
1000
0000
0100
0000
0000
0000
1000
0100
1000
0100
1000
0000
0002
0000
,  // measure 34
0100
0000
0010
0000
0103
0000
0000
0000
0001
0100
0001
0100
0001
0000
2000
0000
,  // measure 35
0100
0010
3100
0000
1001
1001
1001
1001
,  // measure 36
1001
0000
1001
0000
1001
0000
1001
0000
1000
0001
1000
0001
1000
0001
1000
0001
,  // measure 37
1000
0001
1000
0001
1000
0001
1000
0001
1001
0000
0000
0000
1001
0000
0000
0000
,  // measure 38
1001
1001
1001
1001
,  // measure 39
1001
1001
0011
0011
,  // measure 40
0011
0011
0011
0011
,  // measure 41
0011
0000
0011
0001
0110
0000
0110
0000
,  // measure 42
0110
0110
0110
0110
,  // measure 43
0110
0110
1100
1100
,  // measure 44
1100
1100
1001
1001
,  // measure 45
1001
0000
0000
0000
0000
0000
1001
0000
0001
0000
1000
0000
0011
0000
0000
1000
0000
0000
0011
0000
0000
1000
0000
0000
,  // measure 46
0011
1000
0011
1000
0011
1000
0011
1000
,  // measure 47
0011
1000
0011
0100
0011
0100
0011
0100
,  // measure 48
0011
0100
0011
0100
0011
0100
0011
0100
,  // measure 49
0011
0100
1000
0001
1010
0001
1010
0001
,  // measure 50
1010
0001
1010
0001
1010
0001
1010
0001
,  // measure 51
1010
0001
1010
0001
1010
0100
1010
0100
,  // measure 52
1010
0100
1010
0100
1010
0001
1100
0010
,  // measure 53
0101
1000
0011
0100
0000
0000
0000
0000
,  // measure 54
0100
0000
0010
0000
0000
0000
0100
0000
0010
0000
0000
0100
0000
0010
0000
0100
,  // measure 55
0000
0010
0000
0000
0100
0010
0100
0000
0010
0000
0200
0000
0300
0000
0000
0000
,  // measure 56
0000
0000
0000
0000
0000
0000
1000
0001
1000
0000
0000
0000
0001
1000
0001
0000
,  // measure 57
0000
1000
0000
0001
0000
1000
0001
1000
0000
0000
0001
1000
0001
0000
1000
0000
,  // measure 58
0002
0000
0003
0000
0000
0000
0000
0000
1000
0000
0010
1000
0010
0000
2000
0000
,  // measure 59
3000
0000
0010
0000
2000
0000
3000
0000
0000
0000
0000
0000
0001
0100
0001
0100
,  // measure 60
0001
0200
0300
0001
0200
0300
0100
0001
,  // measure 61
1001
0000
0010
1000
1001
0000
0100
0001
,  // measure 62
1001
0000
0010
1000
1001
0000
1001
0100
,  // measure 63
1001
0010
1001
0100
1001
0010
0110
0001
,  // measure 64
0110
1000
0110
1001
0110
1001
0220
0000
,  // measure 65
0000
0000
0000
0000
,  // measure 66
0000
0000
0330
0000
0000
0000
0010
0001
,  // measure 67
0100
0000
0010
0000
0001
0000
1000
0000
0100
0000
0001
0000
1000
0010
1000
0010
,  // measure 68
0100
0001
1000
0010
1000
0001
0010
0100
1000
0001
0100
0010
1000
0000
0001
0000
,  // measure 69
0010
0000
0100
0000
1000
0000
0001
0000
0100
0000
0010
0000
1000
0001
1000
0001
,  // measure 70
0100
0010
1000
0001
0100
0001
1000
0010
0100
0001
1000
0100
0010
0000
1000
0000
,  // measure 71
0010
0000
0001
0000
1000
0000
0010
0000
0001
0000
0010
0000
1000
0100
1000
0100
,  // measure 72
0010
0001
1000
0100
1000
0001
0010
0100
1000
0001
0010
0001
1000
0000
0001
0000
,  // measure 73
0100
0000
0001
0000
1000
0000
0010
0000
1000
0000
0001
0000
1000
0001
0010
0001
,  // measure 74
1000
0010
1000
0001
0010
0100
1000
0100
0010
0001
0010
0100
1000
0000
0100
0000
,  // measure 75
0010
0100
1000
0001
0010
0100
0010
0001
,  // measure 76
1000
0010
0100
0010
1000
0001
0100
0010
,  // measure 77
0100
0001
1000
0010
1000
0001
0010
0001
,  // measure 78
1000
0100
1000
0001
0100
0001
0011
0001
,  // measure 79
0010
0100
1100
1000
0100
0010
0011
0001
,  // measure 80
0010
0100
1100
1000
0100
0010
0011
0000
,  // measure 81
1100
0000
0011
0000
1100
0000
1000
0100
,  // measure 82
0100
0000
1000
0000
0101
0010
0101
0010
0101
0010
0101
0010
0001
0000
0100
0000
,  // measure 83
0100
0000
0001
0000
1100
0010
1100
0010
1100
0010
1100
0010
1000
0000
0001
0000
,  // measure 84
1010
0001
1010
0000
0001
0000
1000
0000
1000
0000
0011
1000
0011
1000
0101
1000
,  // measure 85
0101
0000
0000
1000
0000
0000
0101
0000
0000
1000
0000
0000
0101
0000
1000
0000
0001
0000
0100
0000
1000
0000
0001
0000
0100
0000
1000
0000
0001
0000
0100
0000
1000
0000
0001
0000
0100
0000
1000
0000
0000
0000
0000
0000
0000
0000
0000
0000
,  // measure 86
0000
2002
0000
0000
,  // measure 87
0000
0000
0000
0000
,  // measure 88
0000
0000
0000
0000
,  // measure 89
0000
0000
0000
3003
;
