#TITLE:Hungarian Dance V;
#SUBTITLE:;
#ARTIST:BanYa;
#TITLETRANSLIT:;
#SUBTITLETRANSLIT:;
#ARTISTTRANSLIT:;
#GENRE:;
#CREDIT:;
#BANNER:Hungarian Dance V-banner.png;
#BACKGROUND:Hungarian Dance V-background.png;
#LYRICSPATH:;
#CDTITLE:;
#MUSIC:Hungarian Dance V.mp3;
#OFFSET:-0.040458;
#SAMPLESTART:82.789230;
#SAMPLELENGTH:12.000000;
#SELECTABLE:YES;
#BPMS:0.000000=145.000000
;
#STOPS:
;
#BGCHANGES:0.000=Hungarian Dance V.avi=1.000=0=0=0=StretchNoLoop====,
99999=-nosongbg-=1.000=0=0=0 // don't automatically add -songbackground-
;
#KEYSOUNDS:;
#ATTACKS:;

//---------------dance-single - ----------------
#NOTES:
     dance-single:
     :
     Medium:
     6:
     0.491329,0.557713,0.423892,0.048170,0.096339,357.000000,313.000000,44.000000,5.000000,0.000000,0.000000,0.491329,0.557713,0.423892,0.048170,0.096339,357.000000,313.000000,44.000000,5.000000,0.000000,0.000000:
// measure 0
0000
0000
0000
0000
,  // measure 1
0000
0000
0000
0000
,  // measure 2
0000
0000
0000
0000
,  // measure 3
0000
0000
0000
0000
,  // measure 4
1001
0000
0000
0001
1000
0000
0000
1000
,  // measure 5
0001
0000
0000
0000
0000
0000
0001
0100
0001
0000
0000
0000
0000
0000
0000
0000
,  // measure 6
1000
0000
0000
0000
0000
0000
1000
0100
1000
0000
0000
0000
0000
0000
0000
0000
,  // measure 7
0001
0100
0001
0000
0000
0000
1000
0000
0010
0000
0000
0000
0000
0000
0000
0000
,  // measure 8
1001
0000
0000
0000
0000
0000
0001
0010
0001
0000
0000
0000
0000
0000
0001
0000
,  // measure 9
1000
0000
0000
0000
0000
0000
1000
0010
1000
0000
0000
0000
0000
0000
0000
0000
,  // measure 10
1000
0010
0100
0001
1000
0100
0010
0001
,  // measure 11
0100
0001
0100
0000
0000
0000
0010
0000
1000
0000
0000
0000
1001
0000
0000
0000
,  // measure 12
0001
0001
0000
0001
1000
1000
0000
1000
,  // measure 13
0001
0000
0001
0000
0000
0000
0001
0010
0001
0000
0000
0000
0000
0000
0000
0000
,  // measure 14
1000
0001
0000
0001
1000
1000
0000
1000
,  // measure 15
0001
0000
0001
0000
0000
0000
0001
0100
0001
0000
0000
0000
0000
0000
0000
0000
,  // measure 16
0001
0100
0010
1000
0100
0000
1000
0001
,  // measure 17
0100
0000
0000
0000
0000
0000
0001
0010
0001
0000
0000
0000
0000
0000
0000
0000
,  // measure 18
0001
0010
0100
1000
0001
0100
0010
1000
,  // measure 19
0100
1000
0100
0000
0000
0000
0010
0000
0001
0000
0000
0000
0011
0000
0000
0000
,  // measure 20
1001
0000
0000
0100
0000
0000
0100
0000
,  // measure 21
0110
0000
0000
0010
0000
0000
0010
0000
,  // measure 22
0011
0000
0000
0100
0000
0000
0100
0000
,  // measure 23
1100
0000
0000
0010
0000
0000
0010
0000
,  // measure 24
1100
1010
1001
0011
,  // measure 25
0101
1001
1100
1010
,  // measure 26
1001
0101
0110
1010
,  // measure 27
1002
0000
0003
0000
,  // measure 28
1000
0001
1000
0010
1000
0001
0010
0100
,  // measure 29
1000
0010
0100
0100
,  // measure 30
0001
1000
0001
0010
0001
1000
0010
0100
,  // measure 31
0001
1001
0110
0000
,  // measure 32
0100
0000
0100
0000
,  // measure 33
2002
0000
3003
0000
,  // measure 34
0001
1000
0100
1000
0010
0100
0001
1000
,  // measure 35
0001
0100
0001
1000
0100
1000
0001
0100
,  // measure 36
0020
0000
0000
0030
,  // measure 37
1000
0001
0010
0100
1000
0001
1000
0000
,  // measure 38
0001
1000
0010
1000
0001
0010
0001
0010
,  // measure 39
0100
1000
0001
0100
0001
1000
0100
0010
,  // measure 40
0001
1000
0001
0010
0001
1000
0001
1000
,  // measure 41
0010
0100
0001
1000
0100
0010
0001
0000
,  // measure 42
1000
0001
1000
0001
1000
0010
1000
0010
,  // measure 43
1000
0000
0001
0000
1000
0000
0001
0000
1000
0010
1000
0010
1000
0000
0000
0000
,  // measure 44
0001
1000
0001
1000
0001
0010
0001
0010
,  // measure 45
0001
0000
1000
0000
0001
0000
1000
0000
0001
0010
0001
0010
0001
0000
0000
0000
,  // measure 46
0011
0101
1001
1100
,  // measure 47
1010
1001
0011
0101
,  // measure 48
1001
1010
0110
0101
,  // measure 49
1001
1001
1001
0000
,  // measure 50
1000
1000
0000
1000
0001
0001
0000
0001
,  // measure 51
1000
0000
1000
0000
0000
0000
1000
0010
1000
0000
0000
0000
0000
0000
0000
0000
,  // measure 52
0001
1000
0000
1000
0001
0001
0000
0001
,  // measure 53
1000
0000
1000
0000
0000
0000
1000
0100
1000
0000
0000
0000
0000
0000
0000
0000
,  // measure 54
0010
0100
0001
1000
0100
0010
0100
1000
,  // measure 55
0001
0000
0100
0000
0010
0000
1000
0010
1000
0000
0000
0000
1001
0000
0000
0000
,  // measure 56
0001
0100
1000
0100
0001
0100
1000
0100
,  // measure 57
0001
0010
0001
0000
0000
0000
1000
0000
0100
0000
0000
0000
1001
0000
0000
0000
,  // measure 58
1000
0100
0001
0100
1000
0100
0001
0100
,  // measure 59
1000
0010
1000
0000
0000
0000
0001
0000
0100
0000
0000
0000
1001
0000
0000
0000
,  // measure 60
1000
0000
1010
0000
0000
0000
0001
0000
0011
0000
0000
0000
2000
0000
0000
3001
;

//---------------dance-single - ----------------
#NOTES:
     dance-single:
     :
     Easy:
     4:
     0.331682,0.469653,0.202312,0.019268,0.004817,241.000000,220.000000,21.000000,2.000000,0.000000,0.000000,0.331682,0.469653,0.202312,0.019268,0.004817,241.000000,220.000000,21.000000,2.000000,0.000000,0.000000:
0000
0000
0000
0000
,
0000
0000
0000
0000
,
0000
0000
0000
0000
,
0000
0000
0000
0000
,
1001
0000
0000
0001
1000
0000
0000
1000
,
0001
0000
0000
0001
0010
0000
0000
0000
,
0110
0000
0000
0100
0010
0000
0000
0000
,
0010
0100
1000
0001
0100
0000
0000
0000
,
0110
0000
0000
0100
0010
0000
0000
0010
,
0100
0000
0000
0100
0001
0000
0000
0000
,
1000
0010
0100
0001
,
1000
0010
0000
0100
0001
0000
1001
0000
,
0001
0010
0000
0000
0010
0100
0000
0000
,
0100
1000
0000
0000
1001
0000
0000
0000
,
1000
0010
0000
0000
0010
0100
0000
0000
,
0100
0001
0000
0000
1001
0000
0000
0000
,
0001
0010
0100
1000
,
0010
0100
0001
0000
,
0001
0010
0100
1000
0001
0100
0010
1000
,
0100
0100
0000
1000
0001
0000
0100
0000
,
1001
0000
0000
0000
,
0110
0000
0000
0000
,
1010
0000
0000
0000
,
0101
0000
0000
0000
,
0001
0100
0010
1000
,
0001
0100
0010
1000
,
0001
1000
0100
0010
,
0001
0001
0001
0000
,
0010
0100
1000
0100
,
0010
0000
0000
0000
,
0010
0100
0001
0100
,
0010
1000
1010
0000
,
0100
0000
0100
0000
,
0200
0000
0300
0000
,
0010
0000
1000
0000
0010
0100
0001
0000
,
0010
0000
0001
0000
0010
0100
1000
0000
,
0002
0000
0000
0003
,
1000
0000
0001
0000
0100
0010
1000
0000
,
0001
0000
1000
0000
0001
0100
0010
0000
,
1000
0000
0001
0000
1000
0100
0010
0000
,
0001
0101
1000
1100
,
0001
0000
1000
0000
0001
1000
0001
0000
,
0010
0010
0100
0100
,
0010
0000
0100
0000
0010
0100
1000
0000
,
0010
0010
0100
0100
,
0010
0000
0100
0000
0010
0100
0001
0000
,
1000
0100
0010
0001
,
1000
0100
0010
0001
,
1000
0001
0100
0010
,
0110
0110
0110
0000
,
0001
0010
0000
0000
0010
0100
0000
0000
,
0100
1000
0000
0000
1001
0000
0000
0000
,
1000
0010
0000
0000
0010
0100
0000
0000
,
0100
0001
0000
0000
1001
0000
0000
0000
,
0001
0010
0100
1000
,
0010
0100
0001
0000
,
0001
0010
0100
1000
0001
0100
0010
1000
,
0100
0100
0000
1000
0001
0000
1001
0000
,
1000
0010
0100
0001
1000
0100
0010
0001
,
0100
0100
0000
0001
1000
0000
1001
0000
,
0010
0000
1000
0000
0000
0000
0001
0000
0100
0000
0000
0000
0010
0000
0000
1001
;

//---------------dance-single - ----------------
#NOTES:
     dance-single:
     :
     Beginner:
     3:
     0.217451,0.293533,0.077071,0.009634,0.004817,158.000000,150.000000,8.000000,1.000000,0.000000,0.000000,0.217451,0.293533,0.077071,0.009634,0.004817,158.000000,150.000000,8.000000,1.000000,0.000000,0.000000:
0000
0000
0000
0000
,
0000
0000
0000
0000
,
0000
0000
0000
0000
,
0000
0000
0000
0000
,
0001
0000
1000
0000
,
0001
0000
0100
0000
,
0001
0000
1000
0000
,
0001
0000
0010
0000
,
0100
0000
0010
0000
,
0100
0000
1000
0000
,
0001
1000
0001
1000
,
0100
0000
0100
0000
,
1000
0000
1000
0000
,
1000
0000
0010
0000
,
1000
0000
1000
0000
,
1000
0000
0100
0000
,
1000
0000
0010
0000
,
0100
0000
0001
0000
,
1000
0100
0010
0001
,
0100
0000
0100
0000
,
1010
0000
0000
0000
,
1010
0000
0000
0000
,
0101
0000
0000
0000
,
0101
0000
0000
0000
,
0001
0001
0100
0100
,
0010
0010
1000
1000
,
0001
0100
0010
1000
,
0100
0000
0000
0000
,
0010
0000
0100
0000
,
1000
0001
1000
0000
,
0010
0000
0100
0000
,
0001
1000
1001
0000
,
0000
0000
0000
0000
,
0000
0000
0000
0000
,
0010
1000
0010
1000
,
0001
0100
0001
0100
,
0020
0000
0000
0030
,
1000
0010
0100
0100
,
0001
0100
0001
0100
,
0010
1000
0010
1000
,
0001
0001
1000
1000
,
0001
1000
1001
0000
,
0010
0010
0100
0100
,
0010
0100
1000
0000
,
0010
0010
0100
0100
,
0010
0100
0001
0000
,
1000
1000
0100
0100
,
0010
0010
0001
0001
,
0100
0001
1000
0100
,
0010
0001
0011
0000
,
0001
0000
0001
0000
,
0001
0000
0010
0000
,
0001
0000
0001
0000
,
0001
0000
0100
0000
,
0001
0000
0010
0000
,
0100
0000
1000
0000
,
0001
0100
0010
1000
,
0100
0000
0100
0000
,
1000
0010
0100
0001
,
1000
0000
0100
0000
,
0010
0000
0001
0000
0000
0000
0010
0000
0001
0000
0000
0000
0100
0000
0000
1001
;

//---------------dance-single - ----------------
#NOTES:
     dance-single:
     :
     Hard:
     13:
     0.789981,0.968660,0.568401,0.934489,0.751445,574.000000,515.000000,59.000000,97.000000,0.000000,0.000000,0.789981,0.968660,0.568401,0.934489,0.751445,574.000000,515.000000,59.000000,97.000000,0.000000,0.000000:
// measure 0
0000
0000
0000
0000
,  // measure 1
0000
0000
0000
0000
,  // measure 2
0000
0000
0000
0000
,  // measure 3
0000
0000
0000
0000
,  // measure 4
1000
0000
1100
1000
0001
0000
0011
0001
,  // measure 5
1000
0000
0000
0000
1010
0000
0010
1000
0001
0000
0000
0000
0101
0000
0000
0000
,  // measure 6
1001
0000
0000
0000
1100
0000
0100
1000
0001
0000
0000
0000
0011
0000
0000
0000
,  // measure 7
0001
0010
0100
1000
0001
0000
0010
0000
0100
0000
0000
0000
1100
0000
0000
0000
,  // measure 8
2000
0000
0000
0000
3000
0000
0001
0100
0020
0000
0000
0000
0030
0000
1000
0100
,  // measure 9
0020
0000
0000
0000
0030
0000
0001
0010
2000
0000
0000
0000
3010
0000
0000
0000
,  // measure 10
0100
1000
0010
1000
0100
1000
0010
1000
0100
0010
1000
0010
0100
0010
1000
0010
,  // measure 11
0100
0010
0002
0003
0200
0300
0020
0030
0002
0003
0020
0030
1000
0001
1000
0001
,  // measure 12
0010
0011
0000
0001
1010
0010
0000
1000
,  // measure 13
0101
0000
0100
0000
0000
0000
0001
1000
0200
0000
0000
0000
0300
0000
0000
0000
,  // measure 14
1100
0100
0000
1000
0011
0010
0000
0001
,  // measure 15
1100
0100
0000
1000
0021
0000
0030
0000
,  // measure 16
1010
0000
0010
0100
0001
1000
0100
0010
0002
0000
0000
0000
0003
0000
0100
0010
,  // measure 17
2000
0000
0000
0000
3000
0000
0010
0001
0020
0000
0000
0000
0130
0000
0000
0000
,  // measure 18
0100
0001
0010
0001
0100
0001
0010
0001
0100
0010
0001
0010
0100
0010
0001
0010
,  // measure 19
0100
0010
1000
0100
0010
0000
0001
0000
1000
0100
1000
0100
0010
0001
0010
0001
,  // measure 20
0012
0000
0003
2001
0000
3000
1200
0000
,  // measure 21
0310
0000
0010
0200
0000
0300
1000
0100
0010
1000
0010
0100
2000
0000
3000
0000
,  // measure 22
1002
0000
0003
2001
0000
3000
1020
0000
,  // measure 23
1030
0000
0010
0200
0000
0300
0001
0100
0010
0001
0010
0100
0002
0000
0003
0000
,  // measure 24
2000
3000
0020
0030
0002
0003
0020
0030
2000
3000
0002
0003
0020
0030
2000
3000
,  // measure 25
0020
0030
0200
0300
0020
0030
0200
0300
2000
3000
0002
0003
0200
0300
0020
0030
,  // measure 26
2000
3000
0200
0300
0020
0030
2000
3000
0020
0030
0200
0300
2000
3000
0020
0030
,  // measure 27
0100
0001
0100
0001
0010
0001
0100
0010
2000
0000
0000
0000
0000
0000
3000
0000
,  // measure 28
1001
0000
0001
0000
0101
0000
0001
0000
1001
0000
1000
0001
0100
0000
0010
0000
,  // measure 29
1002
0100
0010
1003
,  // measure 30
1001
0000
1000
0000
1100
0000
1000
0000
1001
0000
0001
1000
0100
0000
0010
0000
,  // measure 31
0011
0000
1001
0000
0110
0000
0001
0100
,  // measure 32
1001
0000
0000
0000
1000
0000
0100
0010
0001
0100
0001
0000
0010
0000
0100
0000
,  // measure 33
2000
0000
0000
0000
0000
0000
3000
0000
0001
0010
0001
0010
0001
0100
0001
0100
,  // measure 34
0001
0010
0100
1000
0001
0100
0010
1000
0001
0100
0010
1000
0001
0010
0100
1000
,  // measure 35
0010
0100
0010
1000
0010
0100
0001
1000
0010
0100
0001
1000
0001
0010
0100
1000
,  // measure 36
0002
0000
0000
0000
0000
0000
0000
0000
0000
0000
0000
0000
0000
0003
0020
0000
,  // measure 37
0000
0000
0000
0000
0000
0000
0000
0030
0200
0300
2000
3000
0020
0030
0200
0300
,  // measure 38
0001
1000
0100
0010
0001
1000
0100
0010
0001
0100
0001
0010
0100
1000
0001
0100
,  // measure 39
0010
1000
0010
0100
0001
0100
0010
1000
0100
1000
0010
1000
0001
0100
0001
1000
,  // measure 40
0001
0100
0010
1000
0010
0001
0010
0100
0001
1000
0100
0010
0001
0010
1000
0010
,  // measure 41
0100
1000
0010
0100
0001
0010
0100
1000
0020
0000
0000
0030
0200
0000
0000
0300
,  // measure 42
0001
0010
0100
0000
1000
0001
0100
0000
0010
1000
0100
1000
0010
0000
0100
0000
,  // measure 43
0001
0000
0020
0000
0130
0000
1000
0100
0010
1000
0010
0100
2000
0000
3000
0000
,  // measure 44
1000
0010
0100
0000
0001
1000
0100
0000
0010
0001
0100
0001
0010
0000
0100
0000
,  // measure 45
1000
0000
0020
0000
0130
0000
0001
0100
0010
0001
0010
0100
0002
0000
0003
0000
,  // measure 46
2001
0100
3010
1020
0100
1030
2001
3100
,  // measure 47
1002
0100
0013
0021
0001
0130
1002
0103
,  // measure 48
2010
0001
3100
1002
0010
0103
2001
3100
,  // measure 49
0010
0100
1000
0010
0100
0001
0010
0100
2000
0020
0000
0000
0000
0000
3030
0000
,  // measure 50
0011
2001
0000
3100
1100
1002
0000
0103
,  // measure 51
0011
2001
0000
3010
2002
0000
3003
0000
,  // measure 52
0101
2000
0000
3100
1010
1002
0000
0013
,  // measure 53
0101
2001
0000
3100
0022
0000
0033
0000
,  // measure 54
1001
0000
0001
0100
0010
1000
0010
0100
0002
0003
0020
0030
2000
3000
0010
0100
,  // measure 55
2000
3000
0020
0030
0002
0003
0010
0100
0002
0003
0020
0030
0200
0000
0300
0000
,  // measure 56
1000
0010
0100
0001
0010
0001
0100
0010
1000
0001
0010
1000
0010
1000
0010
0001
,  // measure 57
0010
0100
2000
3000
0020
0030
0200
0300
0010
1000
0100
1000
0001
0100
0010
1000
,  // measure 58
0001
1000
0100
0010
1000
0010
0100
1000
0001
1000
0100
0010
0001
0010
0100
1000
,  // measure 59
0001
0100
0010
0001
0010
0100
0001
1000
0100
0010
1000
0010
0001
0010
0100
1000
,  // measure 60
0001
0000
1001
0000
0000
0000
1000
0000
1001
0000
0000
0000
0210
0000
0000
0310
;

//---------------dance-single - ----------------
#NOTES:
     dance-single:
     :
     Challenge:
     14:
     0.737682,1.203486,0.635838,0.895954,0.650289,536.000000,470.000000,66.000000,93.000000,0.000000,0.000000,0.737682,1.203486,0.635838,0.895954,0.650289,536.000000,470.000000,66.000000,93.000000,0.000000,0.000000:
// measure 0
0000
0000
0000
0000
,  // measure 1
0000
0000
0000
0000
,  // measure 2
0000
0000
0000
0000
,  // measure 3
0000
0000
0000
0000
,  // measure 4
2100
3000
0001
0010
0102
0003
1000
0010
,  // measure 5
2100
0000
3000
0000
1100
0000
0010
1000
0001
0000
0010
0000
0101
0000
0000
0000
,  // measure 6
2010
0000
3000
0000
0011
0000
0100
0001
1000
0000
0100
0000
1010
0000
0000
0000
,  // measure 7
0010
0100
1000
0001
0100
0000
0010
0000
1000
0000
0001
0000
0101
0000
0000
0000
,  // measure 8
2000
0000
0000
3000
0010
0000
0010
1000
0002
0000
0000
0003
0100
0000
0100
0001
,  // measure 9
2000
0000
0000
3000
0010
0000
0010
1000
0002
0000
0000
0003
0100
0000
0010
0000
,  // measure 10
1000
0010
0100
0001
1000
0100
0010
1000
0010
0100
1000
0001
0100
0010
1000
0100
,  // measure 11
1000
0010
0100
0010
0002
0003
0020
0030
2000
0000
0000
0000
0000
0000
3000
0000
,  // measure 12
0001
0021
0030
0100
1100
2100
3000
0001
,  // measure 13
0011
0000
0012
0000
0003
0000
0010
0100
2000
0000
0000
0000
0000
0000
3000
0000
,  // measure 14
1000
1020
0030
0100
0101
0102
0003
1000
,  // measure 15
1010
0000
2010
0000
3000
0000
0010
0100
0002
0000
0000
0000
0000
0000
0003
0000
,  // measure 16
0011
0000
0010
0100
1000
0001
0100
0010
2000
0000
0000
3000
0010
0000
0100
0001
,  // measure 17
2000
0000
0000
3000
0100
0000
1000
0001
0020
0000
0000
0000
0000
0000
0030
0000
,  // measure 18
0001
0010
0100
1000
0001
0100
0010
0001
0010
0100
0001
1000
0100
0010
0001
0100
,  // measure 19
0001
0010
0100
0010
2000
3000
0020
0030
0002
0000
0000
0000
0000
0000
0003
0000
,  // measure 20
1100
0000
0000
1010
0000
0000
0011
0000
,  // measure 21
0101
0000
0001
0000
0100
0000
0001
0100
1000
0100
0001
1000
0100
0000
0000
0000
,  // measure 22
0101
0000
0000
0011
0000
0000
1010
0000
,  // measure 23
1100
0000
1000
0000
0100
0000
1000
0100
0001
0100
1000
0001
0100
0000
0001
0000
,  // measure 24
2000
3000
0020
0030
0200
0300
0002
0003
0020
0030
2000
3000
0002
0003
0200
0300
,  // measure 25
2000
3000
0002
0003
0200
0300
0020
0030
0002
0003
0020
0030
0200
0300
0002
0003
,  // measure 26
2000
3000
0200
0300
0020
0030
0002
0003
2000
3000
0020
0030
0002
0003
0020
0000
,  // measure 27
2000
0000
0000
0000
0030
3000
0000
0000
,  // measure 28
1010
0010
0100
0010
1000
0100
0010
0100
,  // measure 29
2000
0000
0010
0000
0010
0000
0010
3000
,  // measure 30
0011
0000
0010
0000
0100
0000
0010
0000
0001
0000
0100
0010
0100
0001
0010
0001
,  // measure 31
0011
1010
1001
0000
,  // measure 32
1000
0010
1000
0010
0001
0000
0001
0010
0001
0010
1000
0000
1000
0001
0000
0000
,  // measure 33
2002
0000
0000
0000
0000
0000
0000
3003
,  // measure 34
1000
0100
1000
0100
1000
0001
1000
0001
0010
0001
0010
0001
1000
0010
1000
0010
,  // measure 35
1000
0100
0010
0001
0100
0001
0100
0010
1000
0100
1000
0100
0010
0001
0100
0010
,  // measure 36
2000
0000
0000
0000
0000
0000
0000
0000
0000
0000
0000
0000
0000
3000
0020
0000
,  // measure 37
0000
0000
0000
0000
0000
0000
0000
0030
0200
0300
0002
0003
2000
0000
0000
3000
,  // measure 38
0001
0100
0001
0100
0001
1000
0001
1000
0010
1000
0010
1000
0001
0010
0001
0010
,  // measure 39
0001
0100
0010
1000
0100
1000
0100
0010
0001
0100
0001
0100
0010
1000
0100
0010
,  // measure 40
0001
0100
0001
0100
0001
0100
0001
1000
0001
1000
0001
1000
0010
1000
0010
1000
0010
1000
0010
0100
0010
0100
0010
0100
,  // measure 41
0001
0000
0100
0001
0010
0100
1000
0001
0010
0000
0100
0000
1001
0000
0000
0000
,  // measure 42
2010
3000
1002
0003
0012
0003
2000
3001
,  // measure 43
0002
0000
1003
0000
1001
0000
1000
0001
1000
0100
0001
0100
1000
0000
0000
0000
,  // measure 44
0012
0003
1002
0003
2010
3000
0002
1003
,  // measure 45
2000
0000
3001
0000
1001
0000
0001
1000
0001
0100
1000
0100
0001
0000
0000
0000
,  // measure 46
2010
0001
3100
2001
0100
0001
3010
0000
,  // measure 47
0012
1000
0103
1002
0100
1000
0013
0000
,  // measure 48
2010
0001
3100
2001
0100
0001
3010
0000
,  // measure 49
1001
0000
0100
1000
0001
0000
0100
0001
2000
0000
0000
0000
0000
0000
3000
0000
,  // measure 50
1000
1020
0030
0100
0101
0102
0003
1000
,  // measure 51
1010
0000
2010
0000
3000
0000
0010
0100
0002
0000
0000
0000
0000
0000
0003
0000
,  // measure 52
0001
0021
0030
0100
1100
2100
3000
0001
,  // measure 53
0011
0000
0012
0000
0003
0000
0010
0100
2000
0000
0000
0000
0000
0000
3000
0000
,  // measure 54
1010
0000
0010
0100
0001
1000
0100
0010
0002
0000
0000
0003
0010
0000
0100
1000
,  // measure 55
0002
0000
0000
0003
0100
0000
0001
1000
0020
0000
0000
0000
0000
0000
0030
0000
,  // measure 56
1000
0010
0100
0001
1000
0100
0010
1000
0010
0100
1000
0001
0100
0010
1000
0100
,  // measure 57
1000
0010
0100
0010
0002
0003
0020
0030
2000
0000
0000
0000
0000
0000
3000
0000
,  // measure 58
0001
0010
0100
1000
0001
0100
0010
0001
0010
0100
0001
1000
0100
0010
0001
0100
,  // measure 59
0001
0010
0100
0010
2000
3000
0020
0030
0002
0000
0000
0000
0000
0000
0003
0000
,  // measure 60
1100
0000
1100
0000
0000
0000
0011
0000
0011
0000
0000
0000
0120
0000
0000
0130
;
