#VERSION:0.82;
#TITLE:Holiday;
#SUBTITLE:;
#ARTIST:F2 Systems;
#TITLETRANSLIT:;
#SUBTITLETRANSLIT:;
#ARTISTTRANSLIT:;
#GENRE:;
#ORIGIN:;
#CREDIT:;
#BANNER:Banner.png;
#BACKGROUND:Background.BMP;
#PREVIEWVID:;
#JACKET:;
#CDIMAGE:;
#DISCIMAGE:;
#LYRICSPATH:;
#CDTITLE:;
#MUSIC:Holiday.mp3;
#OFFSET:-0.171676;
#SAMPLESTART:27.969223;
#SAMPLELENGTH:12.000000;
#SELECTABLE:YES;
#BPMS:0.000=189.900;
#STOPS:;
#DELAYS:;
#WARPS:;
#TIMESIGNATURES:0.000=4=4;
#TICKCOUNTS:0.000=4;
#COMBOS:0.000=1;
#SPEEDS:0.000=1.000=0.000=0;
#SCROLLS:0.000=1.000;
#FAKES:;
#LABELS:0.000=Song Start;
#BGCHANGES:0.000=Holiday.avi=1.000=0=0=0=StretchNoLoop====,
99999=-nosongbg-=1.000=0=0=0 // don't automatically add -songbackground-
;
#KEYSOUNDS:;
#ATTACKS:
;

//---------------dance-single - ----------------
#NOTEDATA:;
#CHARTNAME:;
#STEPSTYPE:dance-single;
#DESCRIPTION:;
#CHARTSTYLE:;
#DIFFICULTY:Hard;
#METER:10;
#RADARVALUES:0.757070,0.830323,1.000000,0.020823,0.010412,367.000000,140.000000,2.000000,0.000000,0.000000,0.000000,0.000000,0.000000,0.757070,0.830323,1.000000,0.020823,0.010412,367.000000,140.000000,2.000000,0.000000,0.000000,0.000000,0.000000,0.000000;
#CREDIT:;
#NOTES:
// measure 0
0000
0000
0000
0000
,  // measure 1
0000
0000
0000
0000
,  // measure 2
0000
0000
0000
0000
,  // measure 3
0000
0000
0000
0000
0000
0100
0100
0100
,  // measure 4
1010
0000
0101
0000
0100
1010
0000
1001
,  // measure 5
0000
0001
1000
0100
0010
0001
0010
0001
,  // measure 6
0011
0000
1100
0000
0100
0011
0000
1001
,  // measure 7
0000
1000
0001
0100
0010
1000
0010
1000
,  // measure 8
1010
0000
0011
0000
0101
1100
0000
1001
,  // measure 9
0000
0001
1000
0100
0010
0001
0010
0001
,  // measure 10
0011
0000
1010
0000
1100
0101
0000
1001
,  // measure 11
0000
1000
0001
0100
0010
1000
0010
1000
,  // measure 12
1010
0000
0101
0000
1100
0011
0000
1001
,  // measure 13
0000
0100
1000
0001
0100
0001
0010
0100
,  // measure 14
0011
0000
1010
0000
1100
0000
0000
0011
,  // measure 15
0000
0010
1000
0001
0100
0010
0001
0010
,  // measure 16
1000
0000
1000
0000
0001
0100
0000
1001
,  // measure 17
0000
0100
0001
1000
0100
0010
0001
0100
,  // measure 18
1001
0000
0000
0110
0000
0000
1010
0000
,  // measure 19
0000
1100
0101
0000
1100
1000
0001
0010
,  // measure 20
0011
0000
0000
0000
,  // measure 21
0010
0010
0010
0010
,  // measure 22
1001
0000
0110
0000
0010
1000
0000
1000
,  // measure 23
0001
0000
0001
0000
0001
1000
0001
0100
,  // measure 24
1001
0000
0110
0000
0010
0001
0000
0001
,  // measure 25
1000
0000
1000
0100
0010
0001
1000
0100
,  // measure 26
1001
0000
0110
0000
0010
1000
0000
1001
,  // measure 27
0000
0010
1000
0000
0010
0001
1000
0000
,  // measure 28
0001
0000
1000
0000
1001
0000
0010
0011
,  // measure 29
0000
0010
1010
0000
1001
0000
0000
0000
,  // measure 30
1000
0000
0001
0000
1001
0000
0010
1010
,  // measure 31
0000
0010
0011
0000
1001
0000
0100
0000
,  // measure 32
0001
0000
1000
0000
1001
0000
0100
0101
,  // measure 33
0000
0100
1100
0000
1001
0000
0000
0000
,  // measure 34
1000
0000
0001
0000
1001
0000
0100
1100
,  // measure 35
0000
0100
0101
0000
1001
0000
0100
0000
,  // measure 36
1000
0000
0001
0000
,  // measure 37
0100
0000
0000
0000
0001
0000
0000
0000
1000
0000
0000
0000
0001
0010
0001
1000
,  // measure 38
0001
0000
0001
0000
0100
0010
0000
1000
,  // measure 39
0000
0000
0000
0000
0000
0001
1000
0001
,  // measure 40
0100
0000
0100
0000
0010
1000
0000
1001
,  // measure 41
0000
1000
0001
0100
0010
1000
0010
1000
,  // measure 42
1010
0000
0011
0000
1001
1001
0000
1000
,  // measure 43
0000
0001
1000
0100
0010
0001
1000
0100
,  // measure 44
1100
0000
0101
0000
1001
1001
0000
1000
,  // measure 45
0000
0001
1000
0100
0010
0001
1000
0001
,  // measure 46
0011
0000
1010
0000
1001
1001
0000
0001
,  // measure 47
0000
1000
0001
0100
0010
1000
0001
0100
,  // measure 48
0101
0000
1100
0000
1001
0000
0000
0010
,  // measure 49
0000
0001
1000
0100
0010
0001
1000
0001
,  // measure 50
0011
0000
1100
0000
0101
1010
0000
1001
,  // measure 51
0000
1000
0001
0100
0010
1000
0010
0001
,  // measure 52
0011
0000
0000
0110
0000
0000
1010
0000
,  // measure 53
0000
1001
1001
0000
1001
0010
0001
0100
,  // measure 54
0101
0000
1001
0000
1010
0011
0000
1001
,  // measure 55
0000
0001
1000
0100
0010
0001
1000
0001
,  // measure 56
0011
0000
1001
0000
1100
0101
0000
1001
,  // measure 57
0000
0001
1000
0010
0100
0001
1000
0001
,  // measure 58
1001
0000
0011
0000
0011
0011
0000
1100
,  // measure 59
0000
0001
1000
0010
0100
0001
1000
0001
,  // measure 60
1001
0000
1100
0000
1100
1100
0000
0011
,  // measure 61
0000
0001
1000
0010
1000
0001
0100
0001
,  // measure 62
0101
0000
0110
0000
1010
1010
0000
0101
,  // measure 63
0000
1000
0001
0100
0100
0010
0010
1000
,  // measure 64
1100
0000
0110
0000
0011
0011
0000
1100
,  // measure 65
0000
0001
1000
0100
0100
0010
0010
0001
,  // measure 66
1001
0000
0110
0000
1001
0110
0000
1001
,  // measure 67
0000
0100
1001
0010
1001
0100
1001
0010
,  // measure 68
0011
0000
0000
1010
0000
0000
0011
0000
,  // measure 69
0000
1100
1100
0000
0110
1000
0011
1000
,  // measure 70
0011
0000
0000
1001
0000
0000
0110
0000
,  // measure 71
0000
1001
0110
0000
1001
1001
0110
0110
,  // measure 72
2002
0000
3003
0000
;

//---------------dance-single - ----------------
#NOTEDATA:;
#CHARTNAME:;
#STEPSTYPE:dance-single;
#DESCRIPTION:;
#CHARTSTYLE:;
#DIFFICULTY:Challenge;
#METER:13;
#RADARVALUES:0.813590,0.836049,1.000000,0.020823,0.140556,434.000000,111.000000,2.000000,0.000000,0.000000,0.000000,0.000000,0.000000,0.813590,0.836049,1.000000,0.020823,0.140556,434.000000,111.000000,2.000000,0.000000,0.000000,0.000000,0.000000,0.000000;
#CREDIT:;
#NOTES:
// measure 0
0000
0000
0000
0000
,  // measure 1
0000
0000
0000
0000
,  // measure 2
0000
0000
0000
0000
,  // measure 3
0000
0000
0000
0000
0010
0010
0010
0010
,  // measure 4
1100
0000
1001
0000
1001
0011
0000
0110
,  // measure 5
0000
1000
0100
0010
0001
0100
0010
0001
,  // measure 6
0011
0000
0110
0000
0110
1010
0000
0110
,  // measure 7
0000
0010
0100
0010
0100
0001
0100
0001
,  // measure 8
0101
0000
1001
0000
1001
1010
0000
0110
,  // measure 9
0000
0001
0100
0010
1000
0100
0010
1000
,  // measure 10
1010
0000
0110
0000
0110
0011
0000
0110
,  // measure 11
0000
0010
0100
0010
0100
1000
0100
1000
,  // measure 12
0101
0000
0101
0000
1001
0101
0000
1001
,  // measure 13
0000
0000
0100
0000
1000
0000
0001
0010
0001
0000
0010
0000
0001
0000
0010
0100
,  // measure 14
1100
0000
1100
0000
1001
1100
0000
1001
,  // measure 15
0000
0000
0100
0000
0001
0000
1000
0010
1000
0000
0010
0000
1000
0000
0010
0100
,  // measure 16
0001
0000
1000
0000
1100
0000
0000
0000
0010
0100
0001
0000
0101
0000
1000
0000
,  // measure 17
0000
0000
0010
0000
1000
0000
0001
1000
0010
0000
1000
0000
0010
0000
1000
0001
,  // measure 18
1001
0000
0000
0110
0000
0000
0011
0000
,  // measure 19
0000
0001
0010
0000
0100
0100
0100
0100
,  // measure 20
1000
0000
0000
0000
,  // measure 21
0100
0000
0000
0000
0100
0000
0000
0000
0100
0000
0000
0000
0100
0010
0100
0010
,  // measure 22
0001
0000
0001
0000
1000
0100
0000
0010
,  // measure 23
0000
0000
0000
0000
0000
0100
0010
1000
,  // measure 24
0010
0000
0001
0000
0001
1000
0000
0010
,  // measure 25
0000
0100
0010
0000
0000
0100
0010
0001
,  // measure 26
0010
0000
1000
0000
0001
0100
0000
0010
,  // measure 27
0000
1000
0100
0000
0000
0000
0000
0000
,  // measure 28
1010
0000
1000
0001
0011
0000
0010
1100
,  // measure 29
0000
0000
0010
0000
1100
0000
0000
0000
1001
0000
0001
0000
0000
0000
0010
0100
,  // measure 30
0010
0000
0001
0010
0011
0000
1010
1000
,  // measure 31
0000
0010
1001
0000
1010
0100
1001
0100
,  // measure 32
0011
0000
0001
1000
1010
0000
0010
0101
,  // measure 33
0000
0000
0010
0000
0101
0000
0000
0000
1001
0000
1000
0000
0000
0000
0010
0100
,  // measure 34
0010
0000
1000
0010
1010
0000
0011
0001
,  // measure 35
0000
0010
1001
0000
0011
0100
1001
0100
,  // measure 36
0001
0000
1000
0000
,  // measure 37
0001
0000
1000
0100
1000
0000
1000
0100
1000
0000
0001
0010
0001
0010
0001
0010
,  // measure 38
0011
0000
0011
0000
1000
0001
0000
1001
,  // measure 39
0000
0000
0000
0000
0000
0001
1100
0001
,  // measure 40
1000
0000
1010
1000
0001
0010
0001
1000
,  // measure 41
0010
0100
0001
1000
0010
0100
0001
0010
,  // measure 42
0001
0000
0000
0000
0101
0000
1000
0100
1000
0000
0001
0000
0010
0000
0001
0010
,  // measure 43
0001
0000
1000
0000
0010
0000
0001
0000
0010
0000
0100
0000
0010
0000
0100
0001
,  // measure 44
0010
0000
0000
0000
0011
0000
0010
1000
0100
0000
1000
0000
0001
0000
1000
0000
,  // measure 45
0100
0001
0100
1000
0100
0001
0100
1000
,  // measure 46
0001
1000
0001
0100
1001
1001
0000
1001
,  // measure 47
0000
0000
0010
0000
0001
0000
1000
0100
1000
0000
0100
0000
0010
0000
0000
0000
,  // measure 48
0011
0000
0001
1000
0100
0010
0100
0110
,  // measure 49
0010
0100
1000
0001
1000
1000
0010
0100
,  // measure 50
1010
0000
0001
1000
0001
1000
0100
0010
,  // measure 51
0000
0000
0001
0000
1000
0000
0100
0010
0100
0000
1000
0000
0010
0000
0000
0000
,  // measure 52
0101
0000
0000
1001
0000
0000
1010
0000
,  // measure 53
0000
0010
0110
0000
1001
1001
0110
0110
,  // measure 54
1001
0000
1001
0000
1010
0101
0000
1001
,  // measure 55
0001
0000
0001
0010
0100
1000
0001
0100
,  // measure 56
0001
0000
0011
0001
1000
0010
1000
0001
,  // measure 57
0010
0100
1000
0001
0010
0100
1000
0010
,  // measure 58
1000
0000
0000
0000
1100
0000
0001
0100
0001
0000
1000
0000
0010
0000
1000
0010
,  // measure 59
1000
0000
0001
0000
0010
0000
1000
0000
0010
0000
0100
0000
0010
0000
0100
1000
,  // measure 60
0010
0000
0000
0000
1010
0000
0010
0001
0100
0000
0001
0000
1000
0000
0001
0000
,  // measure 61
0100
1000
0100
0001
0100
1000
0100
0001
,  // measure 62
1000
0001
1000
0100
1001
1001
0000
1001
,  // measure 63
0000
0000
0010
0000
1000
0000
0001
0100
0001
0000
0100
0000
0010
0000
0000
0000
,  // measure 64
1010
0000
1000
0001
0100
0010
0100
0110
,  // measure 65
0010
0100
0001
1000
0001
0001
0010
0100
,  // measure 66
0011
0000
1000
0001
1000
0001
0100
0010
,  // measure 67
0000
0100
1010
0100
1001
0010
1001
0010
,  // measure 68
0101
0000
0000
1001
0000
0000
1010
0000
,  // measure 69
0000
0010
0110
0000
1001
1001
0110
0110
,  // measure 70
1100
0000
0000
1001
0000
0000
0011
0000
,  // measure 71
0000
1001
0110
0000
1001
1001
0110
0110
,  // measure 72
2002
0000
0000
0000
,  // measure 73
3003
0000
0000
0000
;
