#VERSION:0.83;
#TITLE:Hellfire;
#SUBTITLE:;
#ARTIST:Memme;
#TITLETRANSLIT:;
#SUBTITLETRANSLIT:;
#ARTISTTRANSLIT:;
#GENRE:;
#ORIGIN:;
#CREDIT:;
#BANNER:Hellfire-banner.png;
#BACKGROUND:Hellfire-background.png;
#PREVIEWVID:;
#JACKET:;
#CDIMAGE:;
#DISCIMAGE:;
#LYRICSPATH:;
#CDTITLE:;
#MUSIC:Hellfire.ogg;
#OFFSET:-0.185000;
#SAMPLESTART:71.831436;
#SAMPLELENGTH:12.000000;
#SELECTABLE:YES;
#BPMS:0.000=170.000,
152.000=85.000,
155.000=170.000,
311.000=85.000,
312.000=170.000;
#STOPS:;
#DELAYS:;
#WARPS:;
#TIMESIGNATURES:0.000=4=4;
#TICKCOUNTS:0.000=4;
#COMBOS:0.000=1;
#SPEEDS:0.000=1.000=0.000=0;
#SCROLLS:0.000=1.000;
#FAKES:;
#LABELS:0.000=Song Start;
#BGCHANGES:0.000=Hellfire.avi=1.000=0=0=0=StretchNoLoop====,
99999=-nosongbg-=1.000=0=0=0 // don't automatically add -songbackground-
;
#KEYSOUNDS:;
#ATTACKS:
;

//---------------dance-single - ----------------
#NOTEDATA:;
#CHARTNAME:;
#STEPSTYPE:dance-single;
#DESCRIPTION:;
#CHARTSTYLE:;
#DIFFICULTY:Hard;
#METER:11;
#RADARVALUES:0.745450,0.976697,0.221686,0.520109,0.520109,612.000000,586.000000,26.000000,61.000000,0.000000,0.000000,0.000000,0.000000,0.000000,0.745450,0.976697,0.221686,0.520109,0.520109,612.000000,586.000000,26.000000,61.000000,0.000000,0.000000,0.000000,0.000000,0.000000;
#CREDIT:;
#NOTES:
0000
0000
0000
0000
,
0000
0000
0000
0000
,
0000
0000
2001
0000
0000
3000
0100
0100
,
1002
0000
0000
0003
0010
0010
2001
0000
,
0000
0000
3000
0000
0100
0000
0100
0000
1002
0000
0000
0000
0003
0000
0010
0001
,
1000
0010
2001
0000
0000
3000
0100
0100
,
1002
0000
0000
0003
0010
0010
2001
0000
,
0000
3000
0100
0100
1002
0000
0000
0003
,
0100
0000
0100
0000
0001
0000
0100
0001
0100
0000
0001
0100
0001
0100
0001
0000
,
0100
0001
0100
0001
0010
0001
0010
0001
0010
0100
0010
0100
2000
0000
0000
0000
,
0000
0000
0000
3000
0100
1000
0010
0100
,
0001
1000
0002
0000
0000
0000
0000
0003
,
0100
0001
0010
0100
1000
0001
2000
0000
,
0000
0000
0000
3000
0100
0010
1000
0010
,
0001
0100
0020
0000
0000
0000
0000
0030
,
0100
0000
0010
0000
0001
0000
0010
0000
1000
0000
0100
1000
0010
1000
0010
1000
,
0010
1000
0010
1000
0010
1000
0010
1000
0100
0000
0000
0000
1001
0000
0000
0000
,
2002
0000
3003
0000
1000
0010
1000
0010
1000
0010
1000
0010
1000
0000
0000
0000
,
0001
0100
0001
0100
0001
0100
0001
0100
0001
0000
0000
0000
1000
0100
1000
0100
,
1000
0100
1000
0100
1000
0000
0000
0000
0001
0010
0001
0010
0001
0010
0001
0010
,
0001
0000
2000
0000
0000
0000
0000
3000
,
0010
1000
0010
1000
0010
1000
0010
1000
0001
0000
0000
0000
0100
0001
0100
0001
,
0100
0001
0100
0001
1000
0000
0000
0000
0100
1000
0100
1000
0100
1000
0100
1000
,
0001
0000
0010
0001
1000
0000
0010
1000
0010
0000
1000
0010
1000
0000
0010
1000
,
0001
0000
0100
0001
0100
0000
0001
0100
0001
0000
0100
0001
1000
0000
0100
1000
,
0100
0000
1000
0100
1000
0000
0100
1000
0001
0000
0001
0000
0010
0000
0010
0000
,
0100
0100
0010
0010
0001
0001
1000
1000
,
0100
0100
1000
1000
0010
0010
0100
0100
,
0001
0001
0010
0010
0100
0100
1000
1000
,
0001
0001
0100
0100
0010
0010
1000
1000
,
0100
1000
0001
1000
0100
1000
0010
0100
0001
1000
0001
0100
0001
1000
0001
0100
,
0010
1000
0100
1000
0001
0100
0010
1000
0100
0000
0000
0000
1001
0000
0000
0000
,
2010
3000
0002
0003
0200
0300
0020
0030
,
2000
3000
0002
0003
0020
0030
0200
0300
,
2000
3000
0002
0000
0000
0003
0010
0100
,
2000
3000
0020
0030
0200
0300
0002
0003
,
0020
0030
2000
3000
0020
0030
0002
0003
,
2000
3000
0200
0000
0000
0000
0000
0300
,
0000
0000
0000
0000
0000
0000
1000
0100
,
1000
0000
0100
0000
1000
0000
0100
1000
0001
0000
0100
0000
0001
0000
0100
0000
,
0001
0000
0100
0001
1000
0000
0010
0000
1000
0000
0010
0000
1000
0000
0010
1000
,
0001
1000
0001
1000
0001
1000
0001
1000
0002
0000
0003
0000
0020
0000
0030
0000
,
0100
1000
0001
0100
0020
0030
0100
0010
,
1000
0001
0020
0030
0100
1000
0001
0100
,
2000
3000
0100
0001
1000
0100
0002
0003
,
0100
1000
0001
0100
2000
3000
0100
0001
,
1000
0000
0100
0000
0001
0000
0100
1000
0001
0000
0010
0001
1000
0000
0100
1000
,
0001
0000
0001
0000
0100
0000
0100
0000
0010
0000
0010
0000
1000
0010
1000
0010
,
1000
0010
1000
0010
1000
0010
1000
0010
1000
0000
0010
0000
0100
0000
0001
0000
,
2000
3010
1000
0100
0010
0002
0103
0000
,
2001
0000
0000
3000
0010
0010
1002
0000
,
0000
0003
0100
0100
2001
0000
0000
3000
,
0100
0000
0100
0000
1002
0000
0000
0000
0003
0000
0100
0001
1000
0000
0100
0000
,
2001
0000
0000
3000
0100
0100
1002
0000
,
0000
0003
0010
0010
2001
0000
0000
3000
,
0010
0000
0010
0000
1000
0010
1000
0010
0100
0010
0100
0010
0100
0001
0100
0001
,
0010
0000
0010
0000
0010
0000
0010
0001
,
0010
0100
1000
0010
2000
0000
0100
0000
,
0100
3000
0100
1000
0010
0100
0001
0010
,
0002
0000
0100
0000
0100
0003
0100
0010
,
0001
0010
1000
0100
0020
0000
0100
0000
,
0100
0030
0100
0010
1000
0010
0001
0100
,
1010
0000
0100
0001
1000
0000
0010
1000
0001
0000
0000
0000
0100
0000
0000
0000
,
0100
0000
0100
0000
0102
0003
0010
0100
,
1000
0010
0001
0010
1000
0010
0100
0000
,
0102
0000
0003
0000
0010
0000
0100
0000
1000
0000
0010
0000
1000
0100
1000
0100
,
1000
0001
1000
0001
0100
0000
0000
0000
0012
0000
0003
0000
1000
0000
0100
0000
,
0010
1000
0001
0100
1000
0001
0100
0000
,
0012
0000
0003
0000
0100
0000
0010
0000
1000
0000
0100
0000
1000
0010
1000
0010
,
1000
0010
0100
0001
2000
0000
3000
0000
0001
0000
0100
0001
0100
0000
0001
0100
,
0001
0000
0100
0001
1000
0000
0100
1000
0100
0000
1000
0100
1000
0000
0100
1000
,
0001
0001
1000
1000
0010
0010
0100
0100
,
0010
0000
0010
0000
1000
0000
1000
0000
0001
0000
0100
0001
0100
0000
0001
0100
,
0001
0000
0100
0001
1000
0000
0010
1000
0010
0000
1000
0010
1000
0000
0010
1000
,
0001
0001
1000
1000
0001
0001
0010
0010
,
0100
0000
0100
0000
0010
0000
0010
0000
0100
0000
1000
0001
0100
0000
0001
0010
,
0100
0000
1000
0001
0100
0000
0010
1000
0100
0000
0100
0000
1000
0000
1000
0000
,
0001
0010
0100
1000
0001
0100
0010
0001
0010
1000
0010
0100
0001
0000
0000
0000
,
0220
0000
0000
0330
,
1001
0000
0000
0000
;

//---------------dance-single - ----------------
#NOTEDATA:;
#CHARTNAME:;
#STEPSTYPE:dance-single;
#DESCRIPTION:;
#CHARTSTYLE:;
#DIFFICULTY:Medium;
#METER:8;
#RADARVALUES:0.562741,0.572547,0.093790,0.409266,0.089527,462.000000,451.000000,11.000000,48.000000,0.000000,0.000000,0.000000,0.000000,0.000000,0.562741,0.572547,0.093790,0.409266,0.089527,462.000000,451.000000,11.000000,48.000000,0.000000,0.000000,0.000000,0.000000,0.000000;
#CREDIT:;
#NOTES:
0000
0000
0000
0000
,
0000
0000
0000
0000
,
0000
0000
0012
0000
0003
0000
1000
0100
,
0020
0000
0030
0000
0001
0100
0020
0000
,
0030
0000
0100
0002
2000
0000
3003
0000
,
0000
0000
2010
0000
3000
0000
0001
0100
,
0020
0000
0030
0000
1000
0100
0020
0000
,
0030
0000
0100
2000
0002
0000
3003
0000
,
0000
0000
1000
0100
0001
0100
1000
0000
,
0001
0100
0010
1000
0100
0010
0001
0000
,
0001
0001
0001
0001
,
0001
0100
0100
0100
,
0100
0000
0100
0000
0100
0000
0010
1000
,
0010
1000
0010
1000
0010
1000
0010
1000
,
0010
1000
0001
0100
0001
0100
0001
0100
,
0010
0100
0001
0100
0001
0100
0010
1000
,
0010
0100
0001
1000
0100
0000
0100
0000
,
0100
0000
1000
0010
0001
0010
1000
0000
,
0001
0010
1000
0010
0001
0000
1000
0100
,
0001
0100
1000
0000
0001
0100
1000
0100
,
0001
2002
0000
3003
,
0001
0010
1000
0010
0001
0000
1000
0010
,
0001
0010
1000
0000
0001
0100
1000
0100
,
0001
0000
0000
0000
1000
0010
0000
0000
1000
0010
0000
0000
1000
0010
0000
0000
,
0001
0010
0000
0000
0001
0010
0000
0000
0001
0010
0000
0000
1000
0010
0000
0000
,
0001
0010
0000
0000
1000
0010
0000
0000
1000
0000
0001
0000
1000
0000
0100
0000
,
1000
0001
0100
0010
0100
0001
0100
0010
,
0001
0010
1000
0010
0001
0010
0100
0001
,
0010
0001
0100
0001
0010
0100
1000
0001
,
0100
0010
1000
0100
0010
0001
0100
0001
,
0020
0030
0001
0010
1000
0010
0100
0010
,
1000
0010
0001
1000
0010
0000
1001
0000
,
0002
0003
0200
0300
0020
0030
2000
3000
,
0200
0300
0020
0030
0002
0003
0200
0300
,
0020
0030
2000
0000
0000
3000
0100
1000
,
0020
0030
0002
0003
0020
0030
2000
3000
,
0002
0003
0020
0030
2000
3000
0020
0030
,
0002
0003
2000
0000
0000
0000
3000
0000
,
1001
0000
0000
0000
0000
0000
0001
0100
,
0001
0100
0001
1000
0100
0010
0100
0010
,
0100
1000
0010
0100
0010
0100
0010
1000
,
0100
0001
0100
1000
0001
0000
1001
0000
,
0000
1000
0100
0010
1000
0000
0000
0010
,
0100
1000
0010
0000
0000
0100
0001
0010
,
0100
0000
0000
0010
0001
0100
0010
0000
,
0000
0001
0010
0100
0001
0000
0000
0010
,
0100
1000
0001
0010
0100
1000
0010
0100
,
0001
1000
0100
0010
0001
1000
0010
0001
,
0010
1000
0010
0001
0010
1000
0100
0010
,
2000
3000
0010
0001
0010
0100
1000
0000
,
2010
0000
3000
0000
0001
0100
0020
0000
,
0030
0000
1000
0100
0020
0000
0030
0000
,
0100
2000
0002
0000
3003
0000
0000
0000
,
0012
0000
0003
0000
1000
0100
0020
0000
,
0030
0000
0001
0100
0020
0000
0030
0000
,
0100
0001
0010
0100
1000
0001
0100
0010
,
1000
1000
1000
1000
,
1000
1000
0100
0100
,
0100
0100
0100
0100
,
0010
0001
0010
0001
0010
0001
0010
0001
,
0010
0001
0010
0001
1000
0100
1000
0100
,
1000
0100
0010
0100
1000
0100
1000
0001
,
0010
1000
0010
0001
0100
0000
1001
0000
,
0000
0000
0002
0010
,
0010
0003
0010
0100
1000
0010
0200
0300
,
0001
0100
0010
1000
0010
0001
0010
1000
,
0100
1000
0001
0000
2000
0000
0010
0000
,
0010
3000
0010
0100
0001
0010
0200
0300
,
1000
0100
0010
0001
0100
0010
0001
0010
,
0100
0000
0010
0000
1000
0000
0000
0000
0001
0010
0000
0000
0001
0010
0000
0000
,
0001
0010
0000
0000
1000
0010
0000
0000
1000
0010
0000
0000
1000
0010
0000
0000
,
0001
0100
0010
1000
0010
0001
0010
0001
,
0010
0000
1000
0000
0100
0000
0100
0000
1000
0010
0000
0000
1000
0010
0000
0000
,
1000
0010
0000
0000
0001
0010
0000
0000
0001
0010
0000
0000
0001
0010
0000
0000
,
1000
0100
0010
0001
0010
1000
0010
1000
,
0010
0001
0100
0100
0001
0100
0010
1000
,
0001
0010
0100
1000
0010
0001
0010
1000
,
0001
0010
1000
0010
0100
1000
0001
0000
,
2020
0000
3030
0000
,
0110
0000
0000
0000
;

//---------------dance-single - ----------------
#NOTEDATA:;
#CHARTNAME:;
#STEPSTYPE:dance-single;
#DESCRIPTION:;
#CHARTSTYLE:;
#DIFFICULTY:Easy;
#METER:4;
#RADARVALUES:0.412921,0.572547,0.298423,0.366635,0.000000,339.000000,304.000000,35.000000,43.000000,0.000000,0.000000,0.000000,0.000000,0.000000,0.412921,0.572547,0.298423,0.366635,0.000000,339.000000,304.000000,35.000000,43.000000,0.000000,0.000000,0.000000,0.000000,0.000000;
#CREDIT:;
#NOTES:
0000
0000
0000
0000
,
0000
0000
0000
0000
,
0000
0202
0303
0000
,
2002
3003
0000
2200
,
3300
0000
2020
3030
,
0000
2200
3300
0000
,
2002
3003
0000
0202
,
0303
0000
0022
0033
,
0000
0100
0100
0100
,
0001
0010
0100
1000
0001
0100
0001
0000
,
0000
0000
0001
0000
,
0000
0010
0000
0000
,
0010
0000
0000
0100
,
0000
0000
0100
0000
,
0000
1000
0000
0000
,
1000
0000
0000
0001
,
0001
0001
1001
0000
,
0000
0000
1000
0010
1000
0010
1000
0000
,
0001
0010
0001
0010
0001
0000
1000
0100
,
1000
0100
1000
0000
0001
0100
0001
0100
,
0001
2000
0000
3000
,
0001
0100
0001
0100
0001
0000
1000
0100
,
1000
0100
1000
0000
0001
0010
0001
0010
,
0001
0010
0100
1000
,
0001
0100
0010
1000
,
0010
0000
1000
0000
0010
0100
0001
0100
,
0010
0000
1000
0100
0010
0100
1000
0000
,
0001
0100
0010
0100
0001
0000
0010
0100
,
1000
0100
0010
0000
0001
0100
0010
1000
,
0100
0000
1000
0100
0010
0001
0100
0000
,
1001
0000
0010
0100
1000
0010
0100
0001
,
1000
0100
1000
0100
0010
0000
0001
0000
,
1001
0100
0001
0100
,
0001
0100
0010
1000
,
0020
2000
3030
0000
,
1001
0100
1000
0100
,
1000
0100
0010
0001
,
0020
0002
0033
0000
,
1001
0000
0000
0001
,
0001
0001
0100
0100
,
0100
0010
0010
0010
,
1000
0010
1000
0010
1000
0000
1010
0000
,
0000
0001
0100
0001
1000
0000
0000
1000
,
0100
1000
0001
0000
0000
0001
0010
0001
,
1000
0000
0000
1000
0010
1000
0001
0000
,
0000
0001
0100
0001
1000
0000
0000
1000
,
0100
1000
0010
0100
0001
1000
0100
0010
,
0100
1000
0001
0100
0010
1000
0100
1000
,
0001
1000
0100
1000
0001
0100
0010
1000
,
0100
0000
1000
0010
0100
0001
1000
0000
,
2200
3300
0000
2002
,
3003
0000
0202
0303
,
0000
0022
0033
0000
,
0202
0303
0000
2002
,
3003
0000
2200
3300
,
0000
0000
1000
0100
1000
0001
0100
0010
,
1000
0000
0000
1000
,
0000
0000
0010
0000
,
0000
0010
0000
0000
,
0100
0000
0000
0100
,
0000
0000
0001
0000
,
0000
0001
0000
0000
,
1000
0100
1000
0100
1000
0000
1001
0000
,
0000
0000
2000
0000
,
3000
0002
0100
0103
,
2000
0000
0000
0000
3100
0000
0010
0100
,
0010
0100
1000
0000
0002
0000
0000
0000
,
0003
2000
0100
3100
,
0002
0000
0000
0000
0103
0000
0001
0010
,
0100
1000
0001
0000
1000
0000
1000
0000
,
1000
1010
1010
1010
,
0001
0100
0001
1000
0001
0100
0010
1000
,
0010
0100
0001
1000
0001
0000
0001
0000
,
0001
0011
0011
0011
,
1000
0100
1000
0001
1000
0100
0010
0001
,
0010
0100
1000
0001
1000
0000
1010
0000
,
1001
0011
0110
1100
,
0001
1000
0001
0100
0010
1000
0001
0000
,
0220
0000
0330
0000
,
1001
0000
0000
0000
;

//---------------dance-single - ----------------
#NOTEDATA:;
#CHARTNAME:;
#STEPSTYPE:dance-single;
#DESCRIPTION:;
#CHARTSTYLE:;
#DIFFICULTY:Challenge;
#METER:13;
#RADARVALUES:0.818533,1.111414,0.144949,0.750322,0.925113,672.000000,655.000000,17.000000,88.000000,0.000000,0.000000,0.000000,0.000000,0.000000,0.818533,1.111414,0.144949,0.750322,0.925113,672.000000,655.000000,17.000000,88.000000,0.000000,0.000000,0.000000,0.000000,0.000000;
#CREDIT:;
#NOTES:
// measure 0
0000
0000
0000
0000
,  // measure 1
0000
0000
0000
0000
,  // measure 2
0000
0000
2020
0000
3000
0030
0100
0002
,  // measure 3
0200
0000
0003
0300
0010
2000
0020
0000
,  // measure 4
3000
0030
0100
0002
2000
0000
0000
0000
,  // measure 5
3003
0000
0022
0000
0003
0030
0100
2000
,  // measure 6
0200
0000
3000
0300
0010
0002
0020
0000
,  // measure 7
0003
0030
0100
2000
0002
0000
0000
0000
,  // measure 8
3003
0000
0000
0000
2000
3000
0010
1000
0002
0003
0010
0001
1000
0010
2000
3000
,  // measure 9
0001
1000
0100
1000
0001
1000
0100
1000
0001
1000
0100
1000
0002
0000
0000
0000
,  // measure 10
0100
0100
0100
0100
,  // measure 11
0100
0003
2000
0000
0100
0000
0100
0000
,  // measure 12
0100
0000
0100
0000
0100
3000
0002
0010
,  // measure 13
0010
0010
0010
0010
0010
0010
0010
0010
,  // measure 14
0010
0000
0010
0003
2000
0000
0010
0000
0010
0000
0010
0000
3010
0000
1000
0010
,  // measure 15
2000
0000
0010
0000
0010
0000
0010
0000
3010
0000
1000
0010
1000
0001
0100
0001
,  // measure 16
1000
0001
0100
0001
1000
0001
0100
0001
2000
0000
0000
0000
0100
0000
0000
0000
,  // measure 17
3001
0000
0000
0000
1000
0010
1000
0010
1000
0010
0100
0001
1000
0000
0000
0000
,  // measure 18
0001
0010
0001
0010
0001
1000
0100
0010
0001
0000
0000
0000
1000
0010
1000
0010
,  // measure 19
1000
0001
0100
0010
1000
0000
0000
0000
0001
0010
0001
0010
0001
1000
0100
0010
,  // measure 20
0001
0000
0022
0000
0000
0000
0030
0003
,  // measure 21
1000
0100
1000
0100
1000
0010
0100
0001
1000
0000
0000
0000
0001
0100
0001
0100
,  // measure 22
0001
0010
0100
1000
0001
0000
0000
0000
1000
0100
0010
0001
0100
0001
0010
0100
,  // measure 23
1000
0000
0000
0000
0001
0010
0001
1000
0001
0010
0001
1000
0100
1000
0001
1000
,  // measure 24
0100
1000
0001
0100
0001
1000
0001
0100
0001
0010
0100
1000
0001
0010
0001
1000
,  // measure 25
0010
0100
0001
1000
0100
0010
0001
0100
0001
1000
0001
1000
0001
1000
0001
1000
,  // measure 26
0001
1000
0010
0100
0010
0100
0010
0100
0010
0100
0010
0100
0010
0100
0001
1000
,  // measure 27
0010
1000
0010
1000
0010
1000
0010
1000
0010
0100
0001
0010
0100
1000
0100
1000
,  // measure 28
0100
1000
0100
1000
0100
0010
0001
0100
0010
1000
0100
1000
0001
1000
0100
1000
,  // measure 29
0010
0100
0001
1000
0100
0010
0001
0010
0100
1000
0001
0100
0010
1000
0100
1000
,  // measure 30
0002
0003
1000
0100
0010
0001
0100
0001
1000
0001
0100
0010
1000
0100
1000
0001
,  // measure 31
0100
0010
1000
0100
1000
0010
0100
0001
1000
0000
0000
0000
1001
0000
0000
0000
,  // measure 32
0020
0000
0000
0000
0100
0000
0000
0030
2000
0000
0000
0000
0100
0000
0000
3000
,  // measure 33
0002
0000
0000
0000
0100
0000
0000
0003
2000
0000
0000
3000
0020
0000
0000
0000
,  // measure 34
0100
0000
2000
0000
3030
0000
1000
0001
,  // measure 35
0020
0000
0000
0000
0100
0000
0000
0030
0002
0000
0000
0000
0100
0000
0000
0003
,  // measure 36
2000
0000
0000
0000
0100
0000
0000
3000
0002
0000
0000
0003
0020
0000
0000
0000
,  // measure 37
0100
0002
0000
0033
,  // measure 38
0110
0000
0000
0000
0000
0000
0002
0010
,  // measure 39
0010
0000
0010
0000
0013
0000
1000
0010
2000
0000
0010
0000
0010
0000
0010
0000
,  // measure 40
3010
0000
0001
0010
0002
0000
0010
0000
0010
0000
0010
0000
0013
0000
1000
0010
,  // measure 41
1000
0001
0100
0001
1000
0001
0100
0001
1000
0000
0000
0000
0110
0000
0000
0000
,  // measure 42
0000
0010
0100
1000
1001
0000
0000
0010
,  // measure 43
0100
0001
1001
0000
0000
0010
0100
1000
,  // measure 44
1100
0000
0000
0010
0100
0001
0101
0000
,  // measure 45
0000
1000
0010
0100
0110
0000
0000
0001
,  // measure 46
0010
0000
0100
0000
0010
0001
0100
0010
0100
0001
0010
0001
0100
0010
1000
0100
,  // measure 47
1000
0010
1000
0100
0010
0100
1000
0001
0100
0010
1000
0100
1000
0001
1000
0001
,  // measure 48
1000
0001
1000
0001
1000
0001
1000
0001
0100
0001
1000
0100
1000
0001
0100
0010
,  // measure 49
2000
0000
3100
0000
0100
1000
0010
0100
0001
0010
0100
1000
0001
0000
0000
0000
,  // measure 50
0022
0000
0003
0030
0100
2000
0200
0000
,  // measure 51
3000
0300
0010
0002
0020
0000
0003
0030
,  // measure 52
0100
2000
0002
0000
0000
0000
3003
0000
,  // measure 53
2020
0000
3000
0030
0100
0002
0200
0000
,  // measure 54
0003
0300
0010
2000
0020
0000
3000
0030
,  // measure 55
0100
0000
0001
0000
1000
0001
0100
0001
1000
0001
0100
0001
1000
0001
0100
0001
,  // measure 56
2000
0100
0100
0100
,  // measure 57
0100
0000
0100
3000
0002
0000
0100
0000
,  // measure 58
0100
0000
0100
0000
0100
0000
0100
0003
,  // measure 59
2000
0010
0010
0010
0010
0010
0010
0010
,  // measure 60
0010
0010
0010
3010
0002
0010
0010
0010
,  // measure 61
0013
0000
0001
0010
0002
0000
0010
0000
0010
0000
0010
0000
0013
0000
0001
0010
,  // measure 62
0001
1000
0100
1000
0001
1000
0100
1000
2002
0000
3003
0000
0110
0000
0000
0000
,  // measure 63
0000
0000
0000
0000
0000
0000
0000
0000
0002
0000
0000
0003
0020
0000
0000
0000
,  // measure 64
0000
0000
0000
0030
0100
0000
1000
0000
0001
0000
0100
0000
0020
0000
0000
0030
,  // measure 65
2000
0000
0000
3000
0100
0000
0010
0000
0001
0000
0100
0000
0001
1000
0100
0010
,  // measure 66
0001
0100
0001
0010
0100
0000
0000
0000
2000
0000
0000
3000
0020
0000
0000
0000
,  // measure 67
0000
0000
0000
0030
0100
0000
0001
0000
1000
0000
0100
0000
0020
0000
0000
0030
,  // measure 68
0002
0000
0000
0003
0100
0000
0001
0000
0010
0000
0100
0000
1000
0001
0100
0010
,  // measure 69
0001
0010
0100
0010
2000
0000
0000
3000
0001
0020
0030
0000
0010
0200
0300
0000
,  // measure 70
0100
2000
3000
0000
1000
0002
0003
0000
0001
0200
0300
0000
0100
0020
0030
0000
,  // measure 71
1000
0010
1000
0010
1000
0010
1000
0010
1000
0010
1000
0010
0100
0001
0010
0001
,  // measure 72
0010
0001
0010
0001
0010
0100
1000
0100
1000
0020
0030
0000
0010
0200
0300
0000
,  // measure 73
0100
0002
0003
0000
0001
2000
3000
0000
1000
0200
0300
0000
0100
0020
0030
0000
,  // measure 74
0001
0010
0001
0010
0001
0010
0001
0010
0001
0010
0001
0010
0100
1000
0010
1000
,  // measure 75
0010
1000
0010
1000
0100
0010
0001
0100
0010
1000
0100
1000
0010
1000
0100
0010
,  // measure 76
0100
1000
0001
0100
0010
0100
0001
0010
0001
0010
1000
0010
0100
1000
0010
1000
,  // measure 77
0010
0001
0010
0100
0001
0010
0100
1000
0001
0100
0010
1000
0100
0000
0000
0000
,  // measure 78
2002
0000
0000
0000
0000
3003
0000
0000
,  // measure 79
0110
0000
0000
0000
;
