#VERSION:0.83;
#TITLE:Get Up (and Go);
#SUBTITLE:;
#ARTIST:BanYa;
#TITLETRANSLIT:;
#SUBTITLETRANSLIT:;
#ARTISTTRANSLIT:;
#GENRE:;
#ORIGIN:;
#CREDIT:;
#BANNER:Get Up (and Go)-banner.png;
#BACKGROUND:Get Up (and Go)-back.png;
#PREVIEWVID:;
#JACKET:;
#CDIMAGE:;
#DISCIMAGE:;
#LYRICSPATH:;
#CDTITLE:;
#MUSIC:Get Up (and Go).mp3;
#OFFSET:-0.121843;
#SAMPLESTART:68.910469;
#SAMPLELENGTH:12.000000;
#SELECTABLE:YES;
#BPMS:0.000=164.000;
#STOPS:;
#DELAYS:;
#WARPS:;
#TIMESIGNATURES:0.000=4=4;
#TICKCOUNTS:0.000=4;
#COMBOS:0.000=1;
#SPEEDS:0.000=1.000=0.000=0;
#SCROLLS:0.000=1.000;
#FAKES:;
#LABELS:0.000=Song Start;
#BGCHANGES:0.000=Get Up (and Go).avi=1.000=0=0=0=StretchNoLoop====,
99999=-nosongbg-=1.000=0=0=0 // don't automatically add -songbackground-
;
#KEYSOUNDS:;
#ATTACKS:
;

//---------------dance-single - ----------------
#NOTEDATA:;
#CHARTNAME:;
#STEPSTYPE:dance-single;
#DESCRIPTION:;
#CHARTSTYLE:;
#DIFFICULTY:Hard;
#METER:7;
#RADARVALUES:0.566062,0.563706,0.180977,0.219077,0.028575,416.000000,397.000000,19.000000,23.000000,0.000000,0.000000,0.000000,0.000000,0.000000,0.566062,0.563706,0.180977,0.219077,0.028575,416.000000,397.000000,19.000000,23.000000,0.000000,0.000000,0.000000,0.000000,0.000000;
#CREDIT:;
#NOTES:
// measure 0
0000
0000
0000
0000
,  // measure 1
0000
0000
0000
0000
,  // measure 2
0000
0000
0000
0000
,  // measure 3
0000
0000
0000
0000
,  // measure 4
0001
1000
0010
1000
0010
0100
0001
0000
,  // measure 5
0010
0100
1000
0001
1000
0100
0010
0000
,  // measure 6
0001
0100
0010
0000
0001
0010
0100
0000
,  // measure 7
0001
0010
0100
1000
0010
0000
1010
0000
,  // measure 8
1000
0001
0010
0001
0010
0100
1000
0000
,  // measure 9
0010
0100
0001
1000
0001
0100
0010
1000
,  // measure 10
0100
1000
0001
0000
0010
0100
1000
0001
,  // measure 11
0020
0000
0030
0001
0100
0000
0101
0000
,  // measure 12
1000
1010
0001
0011
,  // measure 13
1000
0000
0100
1000
0001
0000
0101
0000
,  // measure 14
1000
0000
0000
0010
0000
0000
1000
0000
0010
0000
0100
0000
0001
0000
0000
0000
,  // measure 15
1001
0000
0000
0000
0100
0000
0000
0000
1010
0000
0000
0000
0002
0000
0000
0003
,  // measure 16
0000
1000
0100
0000
1000
0000
0010
0000
,  // measure 17
0100
0001
1000
0001
0100
0010
1000
0100
,  // measure 18
1000
0010
0100
0000
0001
0010
0100
0000
,  // measure 19
2000
0000
3000
0001
1000
0000
1001
0000
,  // measure 20
0010
1000
0100
0100
0010
0001
0100
0100
,  // measure 21
0010
1000
0100
0010
0001
0100
0001
0000
,  // measure 22
0010
0001
0100
0000
0010
1000
0100
0000
,  // measure 23
0010
0001
1000
0000
0010
1000
0001
0000
,  // measure 24
0100
0001
0010
0000
0100
1000
0010
0000
,  // measure 25
0100
0001
0010
0100
1000
0010
0100
0000
,  // measure 26
0002
0000
0003
0010
0100
0000
1000
0000
0002
0000
0003
0010
0100
0000
1000
0000
,  // measure 27
0002
0000
0003
0010
0100
0000
1000
0000
0002
0000
0003
0010
0100
0000
1000
0000
,  // measure 28
0001
0010
0001
0100
0010
0001
0010
0100
,  // measure 29
0001
1000
0100
0010
0002
0003
2000
3000
,  // measure 30
0001
1000
0001
1000
0100
1000
0010
0100
,  // measure 31
0001
1000
0001
1000
0100
0000
0110
0000
,  // measure 32
0001
0000
1000
0001
0010
0100
1000
0000
,  // measure 33
0001
0001
1000
0100
0010
0000
0101
0000
,  // measure 34
1000
0000
0001
1000
0010
0100
0001
0000
,  // measure 35
1000
1000
0001
0100
0010
0000
1100
0000
,  // measure 36
2002
0000
0000
0000
,  // measure 37
0000
0000
0000
3003
,  // measure 38
0100
0100
0100
0110
,  // measure 39
0001
1000
0010
1000
0001
0100
0010
0000
,  // measure 40
1000
0100
1000
0001
0100
0010
1000
0000
,  // measure 41
0100
0000
0000
1000
0000
0000
0010
0000
0100
0000
0001
0000
1000
0000
0010
0000
,  // measure 42
0001
0010
1000
0001
0100
0000
0020
0000
,  // measure 43
0030
1000
0001
0000
0002
0000
1003
0000
,  // measure 44
2000
0000
0000
3000
0010
0000
0100
0000
0001
0000
1000
0000
0010
0000
0000
0000
,  // measure 45
2000
3001
0002
0103
,  // measure 46
0200
0000
0300
0010
1000
0000
0002
0003
,  // measure 47
0010
0100
0010
0100
1000
0100
1000
0100
,  // measure 48
1000
0010
1000
0010
0001
0010
0001
0010
,  // measure 49
1000
0010
0100
0001
1000
0100
0010
1000
,  // measure 50
0010
0001
0100
0010
2000
0000
3000
0000
,  // measure 51
0010
0100
0010
0100
0001
0100
0001
0100
,  // measure 52
0001
0010
0001
0010
1000
0010
1000
0010
,  // measure 53
0001
0010
0100
1000
0001
0100
0010
0001
,  // measure 54
0010
1000
0100
0010
0002
0000
0003
0000
,  // measure 55
1000
1010
0001
0011
,  // measure 56
1000
0000
0100
1000
0001
0000
0101
0000
,  // measure 57
1000
0000
0010
1000
0010
0100
0001
0000
,  // measure 58
1001
0100
1010
0000
,  // measure 59
0202
0000
0303
0000
0001
1000
0010
1000
,  // measure 60
0010
0100
0001
0000
0010
0100
1000
0001
,  // measure 61
1000
0100
0010
0000
0001
0100
0010
0000
,  // measure 62
0001
0010
0100
0000
0001
0010
0100
1000
,  // measure 63
0010
0001
0010
1000
0100
0010
1000
0010
,  // measure 64
0001
1000
0010
0100
0001
1000
0001
0010
,  // measure 65
0100
1000
0100
1000
0010
0100
0001
1000
,  // measure 66
0010
0001
0010
1000
0001
0010
0100
1000
,  // measure 67
0010
0100
0001
0010
0100
1000
0010
0100
,  // measure 68
0001
0010
0100
1000
0002
0000
0000
0000
,  // measure 69
0000
0000
0000
0000
0000
0003
0000
0000
;

//---------------dance-single - ----------------
#NOTEDATA:;
#CHARTNAME:;
#STEPSTYPE:dance-single;
#DESCRIPTION:;
#CHARTSTYLE:;
#DIFFICULTY:Medium;
#METER:5;
#RADARVALUES:0.444957,0.563706,0.257177,0.209552,0.000000,327.000000,300.000000,27.000000,22.000000,0.000000,0.000000,0.000000,0.000000,0.000000,0.444957,0.563706,0.257177,0.209552,0.000000,327.000000,300.000000,27.000000,22.000000,0.000000,0.000000,0.000000,0.000000,0.000000;
#CREDIT:;
#NOTES:
// measure 0
0000
0000
0000
0000
,  // measure 1
0000
0000
0000
0000
,  // measure 2
0000
0000
0000
0000
,  // measure 3
0000
0000
0000
0000
,  // measure 4
0010
1000
0010
1000
,  // measure 5
0010
0100
0001
0000
0010
0100
1000
0000
,  // measure 6
0001
0001
0100
0100
,  // measure 7
0101
0000
0000
0000
0001
0010
0100
1000
,  // measure 8
0001
0100
0001
0100
,  // measure 9
0001
0100
0010
0000
1000
0100
0010
0000
,  // measure 10
0001
0001
0100
0100
,  // measure 11
0202
0303
0101
0000
,  // measure 12
0001
0001
0010
0010
,  // measure 13
0100
0000
1000
0001
0100
0000
0001
0000
,  // measure 14
1000
0000
0100
1000
0010
0100
0001
0000
,  // measure 15
1001
0100
1010
2020
,  // measure 16
3030
0001
0000
1000
,  // measure 17
0000
0000
0001
0000
0100
0001
0010
0100
,  // measure 18
1000
0000
0100
0000
1000
0010
0100
0000
,  // measure 19
0002
0000
1003
0000
,  // measure 20
0010
0010
0100
0100
,  // measure 21
0010
0000
0100
0000
0010
0100
0001
0000
,  // measure 22
0010
0001
0100
0000
0010
1000
0100
0000
,  // measure 23
0010
0001
1000
0000
0010
1000
0001
0000
,  // measure 24
0100
0001
0010
0000
0100
1000
0010
0000
,  // measure 25
0100
0001
0010
0100
1000
0010
0100
0000
,  // measure 26
1001
1010
1001
0011
,  // measure 27
1001
1010
1001
0011
,  // measure 28
0001
0010
0001
0010
0100
1000
0001
0100
,  // measure 29
0010
1000
0010
1000
0200
0300
2000
3000
,  // measure 30
0001
1000
0001
1000
0100
1000
0010
0100
,  // measure 31
0001
1000
0001
1000
0100
0000
0110
0000
,  // measure 32
0001
0001
0010
0010
,  // measure 33
0001
0010
0100
1000
0001
0000
0011
0000
,  // measure 34
1000
1000
0010
0010
,  // measure 35
1000
0010
0100
0001
1000
0000
1010
0000
,  // measure 36
2002
0000
0000
0000
,  // measure 37
0000
0000
0000
3003
,  // measure 38
0100
0100
0100
0000
,  // measure 39
1001
0000
0000
0000
0001
0100
0001
0000
,  // measure 40
1000
0100
1000
0001
0100
0010
1000
0000
,  // measure 41
0100
0000
1000
0000
0001
0100
0010
0000
,  // measure 42
1000
0001
0100
0001
1000
0000
0020
0000
,  // measure 43
0000
0130
0200
0301
,  // measure 44
0002
1003
2000
3010
,  // measure 45
0020
0130
0200
0301
,  // measure 46
0002
0000
1003
0000
,  // measure 47
0010
0010
0100
0100
,  // measure 48
0001
0001
1000
1000
,  // measure 49
0100
0100
0010
0010
,  // measure 50
0001
0000
0011
0000
,  // measure 51
0001
0010
0001
0010
0001
0100
0001
0100
,  // measure 52
0001
1000
0001
1000
0100
1000
0100
1000
,  // measure 53
0100
0010
0100
0010
0001
0010
0001
0010
,  // measure 54
0001
0100
0001
0100
0001
0000
1001
0000
,  // measure 55
0001
0011
1000
1010
,  // measure 56
0001
0000
0100
0001
1000
0000
1100
0000
,  // measure 57
0001
0000
0100
0001
0010
0100
1000
0000
,  // measure 58
1001
0100
0011
0000
,  // measure 59
0022
0033
0001
0001
,  // measure 60
1000
0000
1000
0000
0010
0100
0001
0000
,  // measure 61
0010
0100
1000
0000
0001
0000
0001
0000
,  // measure 62
1000
1000
0200
0000
,  // measure 63
0000
0000
0000
0300
2000
0000
0000
0000
,  // measure 64
0000
0000
0002
0000
,  // measure 65
0000
0000
0000
0000
3003
0000
0001
0010
,  // measure 66
0100
1000
0001
0100
0010
0100
0001
1000
,  // measure 67
0010
0100
0001
1000
0100
0010
0100
1000
,  // measure 68
0010
0100
0001
1000
0200
0000
0000
0000
,  // measure 69
0000
0000
0000
0000
0000
0300
0000
0000
;

//---------------dance-single - ----------------
#NOTEDATA:;
#CHARTNAME:;
#STEPSTYPE:dance-single;
#DESCRIPTION:;
#CHARTSTYLE:;
#DIFFICULTY:Easy;
#METER:3;
#RADARVALUES:0.314328,0.397910,0.133351,0.333378,0.000000,231.000000,217.000000,14.000000,35.000000,0.000000,0.000000,0.000000,0.000000,0.000000,0.314328,0.397910,0.133351,0.333378,0.000000,231.000000,217.000000,14.000000,35.000000,0.000000,0.000000,0.000000,0.000000,0.000000;
#CREDIT:;
#NOTES:
// measure 0
0000
0000
0000
0000
,  // measure 1
0000
0000
0000
0000
,  // measure 2
0000
0000
0000
0000
,  // measure 3
0000
0000
0000
0000
,  // measure 4
0010
0010
1000
1000
,  // measure 5
0010
0100
0001
1000
,  // measure 6
0100
0100
0010
0010
,  // measure 7
0002
0003
0011
0000
,  // measure 8
0001
0001
0100
0100
,  // measure 9
0001
0100
0010
1000
,  // measure 10
0100
0100
1000
1000
,  // measure 11
0002
0003
1001
0000
,  // measure 12
0001
1000
0001
1000
,  // measure 13
0100
0010
0001
0100
,  // measure 14
0001
1000
0001
1000
,  // measure 15
1001
0100
1010
2020
,  // measure 16
3030
0001
0000
1000
,  // measure 17
0000
0001
1000
0001
,  // measure 18
0100
0010
1000
0100
,  // measure 19
2000
0000
3001
0000
,  // measure 20
0020
0030
0200
0300
,  // measure 21
0010
0100
2000
3010
,  // measure 22
0002
0013
2000
3010
,  // measure 23
0002
0013
2000
3010
,  // measure 24
0002
0103
2000
3100
,  // measure 25
0002
0000
0103
0000
1000
0100
1000
0000
,  // measure 26
0002
1003
2000
3001
,  // measure 27
0002
1003
2000
3001
,  // measure 28
0001
1000
0100
0010
,  // measure 29
0001
0100
0001
1001
,  // measure 30
1000
0001
0100
0010
,  // measure 31
1000
0100
1000
0000
,  // measure 32
0010
0010
0100
0001
,  // measure 33
1000
0001
0100
0001
,  // measure 34
0010
0010
0100
1000
,  // measure 35
0001
1000
0100
1000
,  // measure 36
2002
0000
0000
0000
,  // measure 37
0000
0000
0000
0000
0000
0000
0000
3003
,  // measure 38
0000
0000
0000
0100
,  // measure 39
1001
0000
0001
0000
,  // measure 40
1000
0000
0001
0000
,  // measure 41
1000
0001
1000
0001
,  // measure 42
0100
0100
0100
0020
,  // measure 43
0000
1030
2000
3100
,  // measure 44
0200
1300
2000
3001
,  // measure 45
0002
0103
0200
0310
,  // measure 46
0020
0000
1030
0000
,  // measure 47
0010
0010
0100
0100
,  // measure 48
0001
0001
1000
1000
,  // measure 49
0100
0100
0010
0010
,  // measure 50
0001
0000
1001
0000
,  // measure 51
0010
0010
0100
0100
,  // measure 52
1000
1000
0001
0001
,  // measure 53
0100
0100
0010
0010
,  // measure 54
0110
0000
0110
0000
,  // measure 55
0010
0100
0001
0100
,  // measure 56
0010
1000
0100
1000
,  // measure 57
0001
0100
0010
0100
,  // measure 58
0001
1000
1001
0000
,  // measure 59
2002
3003
0001
0001
,  // measure 60
1000
0000
1000
0000
0010
0100
0001
0000
,  // measure 61
0010
0100
1000
0000
0001
0000
0001
0000
,  // measure 62
1000
1000
0200
0000
,  // measure 63
0000
0000
0000
0300
2000
0000
0000
0000
,  // measure 64
0000
0000
0002
0000
,  // measure 65
0000
0000
3003
0001
,  // measure 66
0010
0100
1000
0100
,  // measure 67
0010
0001
0100
0001
,  // measure 68
0100
0010
0220
0000
,  // measure 69
0000
0000
0000
0000
0000
0330
0000
0000
;

//---------------dance-single - ----------------
#NOTEDATA:;
#CHARTNAME:;
#STEPSTYPE:dance-single;
#DESCRIPTION:;
#CHARTSTYLE:;
#DIFFICULTY:Challenge;
#METER:13;
#RADARVALUES:0.842289,1.094253,0.123826,1.266836,0.690568,619.000000,606.000000,13.000000,133.000000,0.000000,0.000000,0.000000,0.000000,0.000000,0.842289,1.094253,0.123826,1.266836,0.690568,619.000000,606.000000,13.000000,133.000000,0.000000,0.000000,0.000000,0.000000,0.000000;
#CREDIT:;
#NOTES:
// measure 0
0000
0000
0000
0000
,  // measure 1
0000
0000
0000
0000
,  // measure 2
0002
0003
0200
0300
0020
0030
2000
3000
0002
0003
0200
0300
0020
0030
2000
3000
,  // measure 3
0002
0003
0200
0300
0002
0003
0020
0030
0200
0300
1000
0010
0100
0001
0100
0010
,  // measure 4
2000
3000
0020
0030
0200
0300
0002
0003
0020
0030
2000
3000
0020
0030
0002
0003
,  // measure 5
0020
0000
0000
0000
0000
0030
0200
0300
2000
3000
0010
0100
0002
0000
0000
0003
,  // measure 6
0020
0030
0200
0300
2000
0000
0000
3000
0020
0030
0200
0300
0002
0000
0000
0003
,  // measure 7
0020
0000
0000
0000
0000
0030
0200
0300
2000
3000
0020
0030
0200
0300
0010
0100
,  // measure 8
0002
0003
0020
0030
0200
0300
2000
3000
0020
0030
0002
0003
0020
0030
2000
3000
,  // measure 9
0020
0000
0000
0000
0000
0030
0200
0300
0002
0003
0010
0100
2000
3000
0020
0030
,  // measure 10
0200
0300
0002
0003
0020
0000
0000
0030
0200
0300
2000
3000
0020
0000
0000
0030
,  // measure 11
0200
0000
0000
0000
0000
0300
0002
0003
2000
3000
0100
0000
1000
0010
0100
0001
,  // measure 12
1000
1100
0001
0101
,  // measure 13
1000
0000
1100
0010
0100
0001
1000
0000
,  // measure 14
0001
0000
0000
0010
0000
0000
0100
0000
1000
0000
0010
0100
0001
0000
0000
0000
,  // measure 15
1000
0000
0100
0000
0010
0000
0000
0000
0001
1000
0100
0010
0002
0000
0000
0000
,  // measure 16
0000
0003
1000
0000
0001
0010
0001
0000
1000
0000
1000
0000
0001
0010
0001
0010
,  // measure 17
0001
0000
0001
0000
1000
0000
0000
0000
0001
0000
1000
0100
0010
0000
1000
0000
,  // measure 18
0010
0001
1000
0010
0001
0010
1000
0100
,  // measure 19
0020
0000
0000
0000
0030
0000
0001
0000
0100
0001
0100
0001
1000
0001
0100
0010
,  // measure 20
1000
1000
0010
0100
0001
0001
0010
0100
,  // measure 21
1000
0010
0100
0001
0011
0100
1001
0000
,  // measure 22
0001
0000
0100
0001
1000
0000
0000
0000
1000
0000
0100
1000
0001
0000
0000
0000
,  // measure 23
0001
0000
0100
0010
1000
0000
0000
0000
1000
0000
0100
0010
0001
0000
0000
0000
,  // measure 24
0001
0000
0001
1000
0010
0000
0000
0000
1000
0000
1000
0001
0010
0000
0000
0000
,  // measure 25
0001
0000
0001
0000
0010
0000
0100
1000
0001
0000
0100
0000
0001
1000
0100
0010
,  // measure 26
0002
0000
0003
0010
0100
0000
1000
0000
0020
0000
0030
0001
0010
0000
1000
0000
,  // measure 27
0002
0000
0003
0010
0100
0000
1000
0000
0020
0000
0030
0001
0010
0000
1000
0000
,  // measure 28
0001
0010
0100
1000
0010
0001
0010
1000
,  // measure 29
0100
0000
0010
0000
0100
0010
0001
0100
0020
0000
0000
0000
0130
0000
0000
0000
,  // measure 30
0001
1000
0001
0100
0001
1000
0001
0100
,  // measure 31
0001
0000
0010
0000
0100
0000
1000
0000
0100
1000
0100
1000
0001
1000
0100
0000
,  // measure 32
1000
1000
0001
0100
0001
1000
0010
0001
,  // measure 33
0010
0000
0010
0000
1000
0000
0001
0000
0010
0000
0100
0000
1000
0000
0100
1000
,  // measure 34
0001
0000
0001
0000
1000
0000
0100
0000
1000
0000
0001
0000
0010
0000
1000
0010
,  // measure 35
0100
0000
0100
0000
1000
0000
1000
0000
0001
0100
0010
1000
0100
0000
0000
0000
,  // measure 36
0100
1000
0100
1000
0001
1000
0100
0010
0001
0100
0001
0100
0001
0010
0100
1000
,  // measure 37
0001
0010
0001
0010
0001
1000
0100
0010
0001
0100
0010
0100
0001
1000
0100
0010
,  // measure 38
0001
0000
0000
0001
1000
0000
0000
1000
0001
0000
0001
1000
0002
0000
0000
0003
,  // measure 39
1000
0000
0100
0000
0010
0000
0001
0010
0001
0000
0010
0000
0100
0000
1000
0000
,  // measure 40
0001
0000
0001
0000
1000
0000
0100
0010
0100
0000
1000
0000
0001
0000
0100
0000
,  // measure 41
0010
0000
0000
0001
0000
0000
0010
1000
0010
0000
1000
0000
0100
0000
0010
0000
,  // measure 42
0001
0000
1000
0000
0010
0000
0100
0001
1000
0000
0100
1000
0002
0000
0000
0000
,  // measure 43
0000
0003
2000
3000
0020
0030
2000
3000
0200
0300
0020
0030
2000
3000
0020
0030
,  // measure 44
0002
0003
0020
0030
0200
0300
1000
0001
0200
0300
0020
0030
2000
0000
0000
3000
,  // measure 45
0020
0030
0200
0300
0002
0000
0000
0003
0020
0030
0200
0300
2000
0000
0000
3000
,  // measure 46
0020
0000
0000
0000
0000
0030
0200
0000
0301
0000
0000
0000
2002
0000
3003
0000
,  // measure 47
0010
0100
0002
0003
0100
0010
0002
0003
0010
0100
0002
0003
0100
0001
2000
3000
,  // measure 48
0100
0010
2000
3000
0010
0100
2000
3000
0010
0100
2000
3000
0100
0010
2000
3000
,  // measure 49
0100
1000
0002
0003
0100
0010
0002
0003
0010
0100
0002
0003
0100
0001
0020
0030
,  // measure 50
0100
1000
0002
0003
1000
0010
0200
0300
0001
1000
0100
0010
0100
1000
0001
0100
,  // measure 51
0010
1000
0200
0300
1000
0010
0200
0300
0010
1000
0200
0300
0010
1000
0020
0030
,  // measure 52
0001
1000
0020
0030
0001
0010
0200
0300
0001
0010
0200
0300
1000
0010
0200
0300
,  // measure 53
0001
0010
0200
0300
1000
0001
0200
0300
0010
1000
0200
0300
0010
0001
0200
0300
,  // measure 54
0001
1000
0001
0100
0010
1000
0100
1000
0001
0000
0010
0100
1000
0010
0100
0001
,  // measure 55
1000
1100
0001
0101
,  // measure 56
1000
0000
1100
0010
0100
0001
1000
0000
,  // measure 57
0001
0000
0011
0100
0010
1000
0001
0000
,  // measure 58
0100
0001
1000
0000
0010
1000
0001
0000
2002
0000
0000
0000
3003
0000
0000
0000
,  // measure 59
0001
1000
0001
1000
0001
1000
0001
1000
0002
0003
0020
0030
0200
0300
2000
3000
,  // measure 60
0020
0030
0002
0003
0020
0030
2000
3000
0002
0003
0020
0030
0200
0300
1000
0001
,  // measure 61
0200
0300
0020
0030
2000
0000
0000
3000
0001
0000
0000
0000
0011
0000
0000
0000
,  // measure 62
1000
0000
0000
0000
1100
0000
0000
0000
0010
0000
1000
0000
0010
0100
0001
0000
,  // measure 63
0010
0000
0001
0000
0010
0100
1000
0010
0100
0000
0001
0000
1000
0010
0100
0000
,  // measure 64
0001
0000
1000
0000
0001
0010
0100
1000
0001
0000
0100
0000
0001
0010
0100
0000
,  // measure 65
1000
0010
0100
0001
1000
0010
1000
0000
0001
0010
0100
1000
0001
0010
0001
0000
,  // measure 66
1000
0010
0100
0001
1000
0010
1000
0010
0100
0001
0100
0010
1000
0100
1000
0001
,  // measure 67
1000
0100
0010
0001
1000
0001
0100
0010
1000
0001
0100
0010
1000
0100
0010
0001
,  // measure 68
1000
0100
0010
0001
0100
0010
1000
0100
0020
0000
0000
0000
0000
0000
0000
0000
,  // measure 69
0000
0000
0000
0000
0000
0030
0000
0000
;
