#TITLE:Forever Love;
#SUBTITLE:;
#ARTIST:Fin.K.L;
#TITLETRANSLIT:;
#SUBTITLETRANSLIT:;
#ARTISTTRANSLIT:;
#GENRE:;
#CREDIT:;
#BANNER:Forever Love-banner.png;
#BACKGROUND:Forever Love-bg.png;
#LYRICSPATH:;
#CDTITLE:;
#MUSIC:Forever Love.ogg;
#OFFSET:-0.074000;
#SAMPLESTART:56.040001;
#SAMPLELENGTH:12.000000;
#SELECTABLE:YES;
#BPMS:0.000000=138.000000
;
#STOPS:
;
#BGCHANGES:0.000=Forever Love.avi=1.000=0=0=0=StretchNoLoop====,
99999=-nosongbg-=1.000=0=0=0 // don't automatically add -songbackground-
;
#KEYSOUNDS:;
#ATTACKS:;

//---------------dance-single - ----------------
#NOTES:
     dance-single:
     :
     Easy:
     1:
     0.119325,0.217560,0.009713,0.000000,0.000000,85.000000,1.000000,0.000000,0.000000,0.000000,0.000000,0.119325,0.217560,0.009713,0.000000,0.000000,85.000000,1.000000,0.000000,0.000000,0.000000,0.000000:
0000
0000
0000
0000
,
0000
0000
0000
0000
,
0000
0000
0000
0000
,
0000
0000
0000
0000
,
0000
0000
0000
0000
,
0000
0000
0000
0000
,
0000
0000
0000
0000
,
0001
0000
0000
0000
,
0010
0000
0000
0000
,
0100
0000
0000
0000
,
1000
0000
0000
0000
,
0100
0000
0000
0000
,
1000
0000
0000
0000
,
0001
0000
0000
0000
,
0010
0000
0000
0000
,
0001
0000
0000
0000
,
0100
0100
0000
0000
,
1000
1000
0000
0000
,
1000
0000
0010
0000
,
1000
0000
0000
0000
,
0001
0000
0100
0000
,
0001
0000
0000
0000
,
0010
0100
0010
0100
,
0010
0000
0000
0000
,
0001
0000
0000
0000
,
1000
0000
0000
0000
,
0100
0000
0000
0000
,
1000
0000
1000
0000
,
0001
0000
0001
0000
,
0010
0000
0000
0000
,
1000
0000
0000
0000
,
0000
0000
0000
0000
,
1000
0000
0100
0000
,
0010
0000
0001
0000
,
1000
0000
0001
0000
,
1000
0000
0001
0000
,
1000
0000
1000
0000
,
0001
0000
0001
0000
,
0010
0000
1000
0000
,
0001
0000
0010
0000
,
1000
0000
0100
0000
,
0010
0000
0001
0000
,
1000
0000
0001
0000
,
1000
0000
0001
0000
,
1000
1000
0000
0000
,
0001
0001
0000
0000
,
1000
0010
0100
0001
,
1000
0000
0000
0000
,
1000
0000
0100
0000
,
0010
0000
0001
0000
,
1000
0000
0001
0000
,
1000
0000
0001
0000
,
1000
0000
1000
0000
,
0001
0000
0001
0000
,
0100
0000
0100
0000
,
1000
0001
1000
0001
,
1001
0000
0000
0000
;

//---------------dance-single - ----------------
#NOTES:
     dance-single:
     :
     Hard:
     10:
     0.685426,0.878011,0.747863,0.058275,0.354507,411.000000,77.000000,6.000000,0.000000,0.000000,0.000000,0.685426,0.878011,0.747863,0.058275,0.354507,411.000000,77.000000,6.000000,0.000000,0.000000,0.000000:
// measure 0
0000
0000
0000
0000
0000
0000
0000
2000
,  // measure 1
0002
0000
0000
0000
,  // measure 2
0000
0000
0000
0000
,  // measure 3
0000
0000
0000
0000
,  // measure 4
0000
0000
0000
0000
,  // measure 5
0000
0000
0000
0000
,  // measure 6
0000
0000
3003
1000
0001
0000
0100
0000
,  // measure 7
1001
1000
0010
0100
0001
0010
0001
0100
,  // measure 8
0010
0000
1000
0000
0001
0000
0010
0001
0010
0000
0000
0101
0000
0000
1100
0000
,  // measure 9
1010
0010
1010
0010
1010
0010
1010
0010
,  // measure 10
1000
0000
0010
0000
0100
0000
0001
0000
1000
0010
1000
0000
0011
0000
1000
0010
,  // measure 11
1000
0001
1000
0010
0001
0010
1000
0001
,  // measure 12
0010
0000
0100
0000
0010
0000
0100
0010
0001
0000
0000
0101
0000
0000
1010
0000
,  // measure 13
1100
0100
1100
0100
1100
0100
1100
0100
,  // measure 14
0010
0001
0100
0001
0010
0001
0100
0010
0100
0001
0010
0100
1000
0001
0100
0010
,  // measure 15
1000
0000
0001
0000
1000
0000
0001
0010
0100
0000
1000
0000
0001
0000
0100
0000
,  // measure 16
0010
1000
0011
0000
1100
0000
0101
0000
,  // measure 17
1010
1000
0010
0100
0010
1000
0001
0010
,  // measure 18
0011
1100
0011
1100
,  // measure 19
0100
1000
0001
0000
0010
0000
0001
0000
1000
0000
0010
0000
1000
0000
0001
0000
,  // measure 20
1010
0000
0101
0000
1000
0010
1000
0000
,  // measure 21
0011
1100
0011
1010
,  // measure 22
0011
0000
0010
0000
0001
0000
1000
0000
0001
0010
0001
0010
0100
1000
0100
1000
,  // measure 23
0010
0100
0001
0000
0001
1000
0100
0000
,  // measure 24
0100
0010
0001
0000
0001
1000
0010
0000
,  // measure 25
1010
0011
1100
0101
,  // measure 26
0001
1000
0100
1000
0001
0100
0010
1000
,  // measure 27
0010
1000
0100
0000
1000
0010
0100
0000
,  // measure 28
0001
1000
0010
0000
0010
1000
0001
0000
,  // measure 29
0011
0011
1100
1100
,  // measure 30
0101
0101
1010
1010
,  // measure 31
1000
0000
0010
0000
0100
0000
0001
0000
0100
0001
0010
0100
1000
0010
0100
0001
,  // measure 32
0100
0000
0010
0100
0001
0000
0101
0000
0100
0001
0010
0100
1000
0000
1010
0000
,  // measure 33
1100
0000
0100
0010
1000
0000
0101
0000
1010
0000
0000
0011
0000
0000
1000
0100
,  // measure 34
1000
0000
0100
0000
0010
0000
0001
0010
0001
0000
0010
0000
0001
0000
1000
0001
,  // measure 35
1000
0000
0001
0000
0100
0000
0001
1000
0001
1000
0001
0000
0100
0000
0010
0000
,  // measure 36
1000
0000
0100
0000
0010
0000
0001
0100
0010
0000
1000
0000
0001
0000
0010
0100
,  // measure 37
1000
0000
0001
0000
0100
0000
0010
1000
0010
0000
0000
0000
1010
0000
0000
0000
,  // measure 38
0101
0100
0001
0010
0100
1000
0001
0100
,  // measure 39
0010
0000
1000
0010
1000
0010
1000
0100
1000
0100
0010
0001
0010
0001
0100
0001
,  // measure 40
0100
0001
0101
0000
0001
0010
0100
0000
1100
0000
1010
0000
1000
0010
0100
0000
,  // measure 41
0101
0000
0011
0000
0001
0010
0100
0000
1100
0000
1010
0000
0011
0000
1010
0000
,  // measure 42
0002
0100
1003
1001
,  // measure 43
0001
0000
1000
0000
0100
0000
0010
0000
0100
1000
0010
0100
0001
0000
0000
0000
,  // measure 44
0101
0000
1010
0000
1000
0001
0100
0000
,  // measure 45
0011
0000
0000
0000
0101
0000
0000
0000
0001
0000
0100
0000
0010
0000
1000
0010
,  // measure 46
0100
0001
0100
0010
0100
0001
0010
0100
1000
0001
0010
0100
1000
0001
0100
0001
,  // measure 47
2100
0000
0000
0100
0001
0000
3100
0000
,  // measure 48
1001
1000
0010
0100
0001
0100
0001
0100
,  // measure 49
0010
0000
1000
0000
0001
0000
0010
0001
0010
0000
0000
0011
0000
0000
1010
0000
,  // measure 50
1100
0100
0101
0100
1100
0100
0101
0100
,  // measure 51
1000
0000
0001
0000
0100
0000
0010
0000
1000
0000
0100
0000
1000
0000
0010
0100
,  // measure 52
0001
1000
0001
0100
0001
1000
0100
0010
,  // measure 53
0001
0000
0100
0000
0001
0000
0010
0100
1000
0000
0000
0101
0000
0000
1100
0000
,  // measure 54
1010
0010
0011
0010
1010
0010
0011
0010
,  // measure 55
1000
0100
0001
0100
1000
0010
0001
0010
1000
0100
0010
0001
0100
1000
0100
0001
,  // measure 56
2000
0020
0000
0000
0000
0000
0000
0000
3030
0000
0000
0000
0000
0000
0000
0000
;

//---------------dance-single - ----------------
#NOTES:
     dance-single:
     :
     Challenge:
     11:
     0.710401,0.881896,0.349650,0.038850,0.490482,472.000000,36.000000,4.000000,0.000000,0.000000,0.000000,0.710401,0.881896,0.349650,0.038850,0.490482,472.000000,36.000000,4.000000,0.000000,0.000000,0.000000:
// measure 0
0000
0000
0000
0000
,  // measure 1
0000
0000
0000
0000
,  // measure 2
0000
0000
0000
0000
,  // measure 3
0000
0000
0000
0000
,  // measure 4
0000
0000
0000
0000
,  // measure 5
0000
0000
0000
0000
,  // measure 6
0000
0000
0000
0000
,  // measure 7
1010
0100
0001
1000
0100
1000
0001
1000
,  // measure 8
0010
0000
0100
0000
1001
0000
0001
0010
0100
0000
1000
0000
0001
0000
0010
0000
,  // measure 9
0100
1001
0100
1001
0100
1001
0100
0000
,  // measure 10
1000
0010
0100
0001
0010
0001
1010
0000
,  // measure 11
0001
0010
0100
1000
0010
1000
0011
0000
,  // measure 12
1000
0010
1000
0000
0001
0000
1000
0010
0100
0000
0001
0000
0000
0010
0000
0000
,  // measure 13
0100
0000
1001
0000
0100
0000
1001
0000
0100
0000
1001
0000
0100
0000
0001
0010
,  // measure 14
0100
0000
1000
0100
0010
0001
0010
0100
1000
0001
0010
0100
1000
0100
0010
0001
,  // measure 15
0010
0100
1000
0010
0001
0010
1000
0001
,  // measure 16
1000
0010
1000
0000
0001
0000
0010
0000
1000
0000
0010
0000
0001
0000
1000
0000
,  // measure 17
0010
0000
0100
0001
1000
0000
0100
1000
0001
0000
0100
0001
1000
0000
0001
0000
,  // measure 18
1000
0000
0010
1000
0001
0000
0010
0001
1000
0000
0010
1000
0001
0000
1000
0000
,  // measure 19
0010
0000
0100
0001
1000
0000
0010
1000
0001
0000
0100
0001
1000
0000
0100
0000
,  // measure 20
1000
0000
0100
1000
0001
0000
0010
0001
1000
0000
0100
1000
0001
0000
1000
0000
,  // measure 21
0001
0000
0100
0001
1000
0000
0010
1000
0001
0000
0100
0001
1000
0000
0100
0000
,  // measure 22
0010
0000
0010
0000
0001
0000
0001
0010
0001
0000
0010
0001
0000
1000
0010
1000
,  // measure 23
0001
1000
1100
0100
1000
0001
0101
0100
,  // measure 24
0010
1000
1010
0010
1000
0011
0011
0000
,  // measure 25
0001
0010
0100
0000
1000
0100
0010
0000
0001
0000
1000
0000
1010
0000
0000
0000
,  // measure 26
0100
1000
0010
0100
0001
1010
1010
0000
,  // measure 27
0001
0010
0001
1000
0100
0010
0100
0000
1000
0000
1100
0000
1100
0000
0100
0000
,  // measure 28
0010
0001
0011
0010
0001
1010
1010
0000
,  // measure 29
1000
0010
0100
0000
0001
0100
0010
0000
0100
0000
0001
0000
0011
0000
0000
0000
,  // measure 30
0100
0000
0001
0000
1000
0000
0100
0000
1000
0010
0000
0010
1000
0000
0001
0000
,  // measure 31
0001
0010
0100
1000
0100
0010
0001
1000
0100
0010
0001
0010
0100
1000
0001
0010
,  // measure 32
0100
1000
0010
1000
0100
0010
0100
0010
,  // measure 33
0100
1000
0010
0100
0001
0000
1000
0000
0010
0000
0100
0000
0001
0000
1000
0000
,  // measure 34
0010
1000
0001
1000
0001
1000
1000
0001
,  // measure 35
0010
0000
0100
0000
0010
0000
0001
0000
0100
0010
0100
0010
1000
0001
1000
0000
,  // measure 36
0010
1000
0100
0010
0001
1000
0010
0100
,  // measure 37
0001
0010
0001
0010
0100
1000
0100
0000
1000
0010
1000
0010
0100
0001
0100
0000
,  // measure 38
0002
1003
2000
3010
0100
0001
1000
0001
,  // measure 39
1000
0100
1000
0001
1000
0000
0001
0000
0101
0000
1000
0000
0001
0100
0001
0000
,  // measure 40
0010
1000
0010
1000
0001
0100
0001
0100
,  // measure 41
1000
0001
0010
0100
1000
0000
0010
0100
0001
0000
0100
0000
0010
0000
0100
0000
,  // measure 42
0001
1000
0100
0010
0100
1000
0001
0010
,  // measure 43
0100
1000
0100
1000
0001
0000
0100
0010
0100
0010
1000
0000
0100
0000
1000
0000
,  // measure 44
0001
0000
0010
0000
1000
0000
0010
0000
0100
1000
0100
0010
0001
0010
0001
0000
,  // measure 45
1000
0010
0001
0010
1000
0100
0100
0010
,  // measure 46
0001
0000
0100
0000
0001
0100
0010
1000
0100
1000
0010
0100
0001
0100
0010
1000
,  // measure 47
0200
0000
0000
0300
,  // measure 48
1000
0100
0010
0000
0011
0000
0001
0000
1000
0001
0100
0000
1001
0000
1000
0000
,  // measure 49
0001
0100
0010
0000
1010
0000
1000
0000
0001
1000
0100
0000
1001
0000
0001
0000
,  // measure 50
0010
0100
1000
0000
1001
0000
0001
0000
1000
0010
0100
0000
1001
0000
1000
0000
,  // measure 51
0010
0100
0001
0000
1001
0000
1000
0000
0001
0010
0100
0000
1001
0000
0001
0000
,  // measure 52
1000
0100
0010
0001
0010
0001
1010
0000
,  // measure 53
0100
0001
1001
0000
0100
1000
1001
0000
,  // measure 54
0001
0000
0100
0000
0010
1000
0010
0100
0010
1000
0010
0100
0010
1000
0010
0100
,  // measure 55
0010
1000
0100
0010
0001
0010
0100
1000
0001
0010
0100
1000
0100
0010
0001
1000
,  // measure 56
0200
0000
0000
0300
;
