#VERSION:0.82;
#TITLE:Follow Me;
#SUBTITLE:;
#ARTIST:SHK;
#TITLETRANSLIT:;
#SUBTITLETRANSLIT:;
#ARTISTTRANSLIT:;
#GENRE:;
#ORIGIN:;
#CREDIT:;
#BANNER:Follow Me-banner.png;
#BACKGROUND:Follow Me.png;
#PREVIEWVID:;
#JACKET:;
#CDIMAGE:;
#DISCIMAGE:;
#LYRICSPATH:;
#CDTITLE:;
#MUSIC:Follow Me.mp3;
#OFFSET:-0.011711;
#SAMPLESTART:28.639214;
#SAMPLELENGTH:12.000000;
#SELECTABLE:YES;
#BPMS:0.000=155.000,
174.000=77.500,
182.000=155.000,
280.000=77.500,
281.000=155.000,
287.000=77.500,
288.000=155.000,
290.000=77.500,
291.000=155.000;
#STOPS:;
#DELAYS:;
#WARPS:;
#TIMESIGNATURES:0.000=4=4;
#TICKCOUNTS:0.000=4;
#COMBOS:0.000=1;
#SPEEDS:0.000=1.000=0.000=0;
#SCROLLS:0.000=1.000;
#FAKES:;
#LABELS:0.000=Song Start;
#BGCHANGES:0.157=Follow Me.png=1.000=0=0=1=Centered====,
0.188=Follow Me.avi=1.000=0=0=0=StretchNoLoop====,
99999=-nosongbg-=1.000=0=0=0 // don't automatically add -songbackground-
;
#KEYSOUNDS:;
#ATTACKS:
;

//---------------dance-single - ----------------
#NOTEDATA:;
#CHARTNAME:;
#STEPSTYPE:dance-single;
#DESCRIPTION:;
#CHARTSTYLE:;
#DIFFICULTY:Hard;
#METER:10;
#RADARVALUES:0.817640,1.000000,0.092179,1.000000,0.284917,534.000000,11.000000,138.000000,0.000000,0.000000,0.000000,0.000000,0.000000,0.817640,1.000000,0.092179,1.000000,0.284917,534.000000,11.000000,138.000000,0.000000,0.000000,0.000000,0.000000,0.000000;
#CREDIT:;
#NOTES:
0000
0000
0000
0000
,
0000
0000
0000
0000
,
0000
0000
0000
0000
,
0000
0000
0000
0000
,
0000
0000
0010
0000
1000
0100
1000
0001
,
1000
0100
1000
0001
1000
0100
1000
0001
,
1000
0100
1000
0001
0010
0001
0010
0100
,
0010
0001
0010
0100
0010
0001
0010
0100
,
0010
0000
0001
0000
0100
0000
0000
0000
0001
0000
1000
0000
0200
0000
0300
0010
,
0001
0010
0001
0000
0010
0000
0100
0000
1000
0000
0001
0000
0100
0000
0010
0000
,
1000
0000
0000
0000
1001
0000
0000
0000
0001
0000
1000
0000
0200
0000
0300
1000
,
0010
1000
0010
0000
1000
0000
0010
0000
1000
0000
0001
0000
0100
0000
0010
0000
,
1000
0000
1001
0000
0010
1000
0100
1000
,
0010
1000
0000
0200
0300
1000
0001
0000
0010
0000
0001
0000
0100
0000
0001
0000
,
0010
0001
0000
0200
0300
0001
1000
0000
0010
0000
0100
0000
0002
0000
0003
1000
,
0010
1000
0010
0000
1000
0000
0001
0000
0100
0000
0010
0000
1000
0000
0100
0000
,
1000
0000
1001
0000
0001
1000
0001
1000
,
0001
1000
0001
1000
2002
0000
0000
0000
,
0000
0000
0000
0000
0000
3003
0000
0000
0001
0000
0100
0000
0020
0000
0030
1000
,
0100
1000
0100
1000
0100
0000
1000
0000
0010
0000
0100
0000
0001
0000
1000
0000
,
0010
0000
1000
0010
1000
0010
1000
0010
1000
0000
0001
0000
0020
0000
0030
0001
,
0100
0001
0100
0001
0100
0000
0001
0000
1000
0000
0100
0000
0010
0000
0001
0000
,
0100
0000
0001
0100
0001
0100
0001
0100
0001
0000
1000
0000
0100
0000
1000
0000
,
0001
1000
0000
0200
0300
1000
0001
0000
1000
0000
0001
0000
0010
0000
0001
0000
,
1000
0001
0000
0020
0030
0001
1000
0000
0100
0000
0010
0000
0002
0000
0003
0100
,
0001
0100
0001
0100
0001
0000
0010
0000
0100
0000
1000
0000
0001
0000
0100
0000
,
0010
0000
0100
0001
1000
0100
0010
0001
0020
0000
0000
0000
0031
0000
0000
0000
,
0200
0000
0301
0000
0200
1300
0020
1030
,
0020
0031
0200
0301
0200
1300
0200
0301
,
0200
1300
0200
0301
0020
1030
0020
0031
,
0020
1030
0020
0031
0200
0000
0301
0000
,
0020
0000
0031
0000
0020
1030
0200
1300
,
0200
0301
0020
0031
0020
1030
0020
0031
,
0020
1030
0020
0031
0200
1300
0200
0301
,
0200
1300
0200
0301
1000
0001
1000
0001
,
1000
0000
0000
0000
0010
0000
0000
0000
1000
0000
0000
0000
0010
0000
0000
0000
2000
3000
0020
0030
2000
3000
0020
0030
2000
3000
0020
0030
2000
3000
0020
0030
,
2000
3000
0020
0030
2000
3000
0020
0030
2000
3000
0020
0030
0000
0000
0000
0000
1000
0000
0000
0000
0001
0000
0000
0000
1000
0000
0000
0000
0001
0000
0000
0000
,
0100
0000
0000
0000
0001
0000
0000
0000
0100
0000
0000
0000
0001
0000
0000
0000
0200
0300
0002
0003
0200
0300
0002
0003
0200
0300
0002
0003
0200
0300
0002
0003
,
0200
0300
0002
0003
0200
0300
0002
0003
0200
0300
0002
0003
0000
0000
0000
0000
0100
0000
0000
0000
0010
0000
1000
0000
0100
0000
0000
0000
0010
0000
0001
0000
,
0100
0000
0010
1000
0100
0000
1000
0000
0001
0000
0100
0000
0001
0000
1000
0000
,
0001
0100
0001
1000
0001
0100
0001
1000
,
0001
0100
0001
1000
0001
0010
0001
1000
,
0001
0010
0001
1000
0001
0010
0001
1000
,
0001
1000
0010
0000
1002
0000
0000
0000
,
0100
0100
0100
0103
2001
0000
0000
0000
,
0010
0010
0010
3010
0100
1000
0010
1000
,
0100
1000
0000
0020
0030
1000
0001
0000
0100
0000
0001
0000
0010
0000
0001
0000
,
0100
0001
0000
0020
0030
0001
1000
0000
0001
0000
0100
0000
0020
0000
0030
1000
,
0100
1000
0100
1000
0100
0000
1000
0000
0010
0000
0100
0000
0001
0000
1000
0000
,
0020
0000
0000
0000
,
0000
0000
0000
0000
0000
0030
0000
0000
2000
0000
0000
0000
3010
0000
0000
0000
,
2000
0000
3100
0000
0002
0103
0002
0013
,
2000
3010
2000
3100
0002
0103
2000
3100
,
0002
0103
2000
3100
0002
0013
2000
3010
,
0002
0013
2000
3010
2000
0000
3100
0000
,
2000
0000
3010
0000
0002
0013
0002
0103
,
2000
3100
2000
3010
0002
0013
2000
3010
,
0002
0013
2000
3010
0002
0103
2000
3100
,
0002
0103
2000
3100
2000
3010
0002
0013
,
2000
3100
0002
0103
2000
3010
0002
0103
,
2000
3100
0002
0013
2000
3010
0002
0103
,
2000
3010
0002
0103
2000
3100
0002
0013
,
2000
3100
0002
0013
2000
3100
0002
0103
,
2000
3010
0002
0013
2000
3100
0002
0013
,
2000
3010
0002
0103
2000
3100
0002
0103
,
0002
0013
2000
3010
2000
3100
2000
3010
,
0002
0013
0002
0103
0011
0000
0000
0000
,
0011
0011
2200
0000
,
0000
0000
0000
0000
0000
3300
0000
0000
0001
0000
1000
0000
0020
0000
0030
1000
,
0100
1000
0100
1000
0100
0000
1000
0000
0100
0000
1000
0000
0001
0000
0100
0000
,
0010
0000
0000
0000
1000
0000
0010
0000
0200
0000
0300
0001
0100
0001
0100
0001
,
0100
0001
0100
0010
1000
0100
1000
0000
,
0010
0100
0001
1000
0100
0000
0010
0100
,
1000
0001
1001
0000
0000
0000
0000
0000
;

//---------------dance-single - ----------------
#NOTEDATA:;
#CHARTNAME:;
#STEPSTYPE:dance-single;
#DESCRIPTION:;
#CHARTSTYLE:;
#DIFFICULTY:Challenge;
#METER:13;
#RADARVALUES:0.907425,1.000000,0.343576,0.946930,0.448325,604.000000,41.000000,113.000000,0.000000,0.000000,0.000000,0.000000,0.000000,0.907425,1.000000,0.343576,0.946930,0.448325,604.000000,41.000000,113.000000,0.000000,0.000000,0.000000,0.000000,0.000000;
#CREDIT:;
#NOTES:
0000
0000
0000
0000
,
0000
0000
0000
0000
,
0000
0000
0000
0000
,
0000
0000
0000
0000
,
0000
0000
0010
0000
1000
0100
1000
0001
,
1000
0100
1000
0001
1000
0100
1000
0001
,
1000
0100
1000
0001
0010
0001
0010
0100
,
0010
0001
0010
0100
0010
0001
0010
0100
,
0010
0000
0001
0000
0100
0000
0000
0000
0001
0000
1000
0000
0200
0000
0300
1000
,
0001
0010
0001
0000
0010
0000
0100
0000
1000
0000
0001
0000
0100
0000
0010
0000
,
1000
0000
0000
0000
1001
0000
0000
0000
1000
0000
0001
0000
0020
0000
0030
0001
,
1000
0100
1000
0000
0001
0000
0100
0000
0010
0000
1000
0000
0100
0000
1000
0000
,
0001
0000
1001
0000
1000
0001
1000
0010
,
1000
0001
0000
2000
3000
0010
1000
0001
0010
0000
0001
0000
1000
0000
0001
0000
,
0010
0001
0000
2000
3000
0001
0010
0001
0010
0000
0100
0000
2000
0000
3000
0001
,
1000
0100
0010
0000
0001
0000
0100
0000
0001
0000
0010
0000
0100
0000
1000
0000
,
0001
0000
1001
0000
0001
0100
0001
0100
,
0001
0000
0010
0000
0001
0000
0010
0000
0001
1000
0001
1000
0100
1000
0100
0010
,
0001
0100
0001
0100
0001
0000
0010
0000
0100
0000
1000
0000
0002
0000
0003
0100
,
0001
0010
0100
1000
0001
0000
0010
0000
0001
0000
1000
0000
0100
0000
0010
0000
,
0001
0000
0100
0010
1000
0100
0010
0001
0100
0000
0001
0000
2000
0000
3000
0100
,
1000
0010
0100
0001
1000
0000
0010
0000
1000
0000
0001
0000
0100
0000
0010
0000
,
1000
0000
0100
0010
0001
0100
0010
1000
0100
0000
1000
0000
0001
0000
1000
0000
,
0100
0010
0000
0002
0003
1000
0100
0010
0001
0000
0100
0000
0001
0000
1000
0000
,
0010
0100
0000
0002
0003
0010
0100
1000
0001
0000
0100
0000
0020
0000
0030
1000
,
0100
1000
0010
0100
0001
0000
1000
0000
0100
0000
0010
0000
0100
0000
1000
0000
,
0001
0000
0100
0001
0100
0010
1000
0100
2000
0000
0000
0000
3010
0000
0100
0000
,
0002
0000
0000
0000
1003
0000
0000
0000
0200
0300
2000
3000
0002
0003
0200
0300
,
0020
0030
2000
3000
0200
0300
1000
0001
0200
0000
0301
0000
2000
0000
3001
0000
,
0200
0301
2000
3001
0020
0031
2000
3001
,
0020
0031
2000
3001
0020
0000
0031
1000
,
0020
0000
0000
0000
1030
0000
0000
0000
0002
0003
0200
0300
0002
0003
0020
0030
,
0200
0300
2000
3000
0002
0003
0100
0001
2000
0000
3001
0000
0020
0000
0031
0000
,
2000
3001
0020
0031
2000
3001
0200
0301
,
2000
3001
0200
0301
0101
0001
0100
0010
,
1000
0000
0010
0000
0001
0000
0010
0000
1000
0100
0001
0100
1000
0010
1000
0001
,
0010
0001
0100
1000
0100
0001
0010
0001
1000
0000
1000
0000
0100
0000
0010
0000
,
1000
0000
0010
0000
0001
0000
1000
0000
0001
0100
1000
0100
0001
0010
0001
1000
,
0010
1000
0100
0001
0100
1000
0010
1000
0001
0000
0010
0001
1000
0000
0010
0001
,
1000
0000
0010
0001
1000
0000
0001
0000
0100
0000
0001
0000
1000
0000
0001
0000
,
0100
0001
1000
0001
0100
0001
1000
0001
,
0100
0001
1000
0001
0010
0001
1000
0001
,
0010
0001
1000
0001
0010
0001
1000
0001
,
0010
0001
1000
0000
1002
0000
0000
0000
,
0010
0100
1000
0103
2001
0000
0000
0000
,
0010
0000
0000
0000
0100
0000
0000
0000
3001
0000
0000
0000
0100
1000
0001
0000
0100
0000
0000
0000
0101
0000
0000
0000
0010
0000
0000
0000
0011
0000
0000
0000
,
0010
0001
0000
2000
3000
0100
1000
0100
0010
0000
0011
0000
0010
0000
0110
0000
,
0010
0001
0000
2000
3000
0010
0100
0001
1000
0000
0100
0000
0020
0000
0030
0001
,
0100
0001
0010
0100
1000
0000
0001
0000
0100
0000
0010
0000
0100
0000
0001
0000
,
1000
0000
0001
0100
0010
1000
0100
0010
0001
0100
0001
0100
0001
0010
0100
1000
,
0001
1000
0001
1000
0100
0010
0001
0100
0002
0000
0000
0000
0013
0000
0001
0000
,
2000
0000
0000
0000
3010
0000
0000
0000
0020
0030
2000
3000
0002
0003
0200
0300
,
0002
0003
0020
0030
0200
0300
1000
0001
0200
0000
0301
0000
2000
0000
3001
0000
,
0200
0301
2000
3001
0020
0031
2000
3001
,
0200
0301
2000
3001
0200
0000
0301
1000
,
0200
0000
0000
0000
1300
0000
0000
0000
0002
0003
0200
0300
0002
0003
2000
3000
,
0020
0030
0200
0300
0002
0003
1000
0100
0020
0000
0130
0000
2000
0000
3100
0000
,
0020
0130
2000
3100
2000
3010
0200
0310
,
2000
3100
0020
0031
0012
0100
1000
0103
,
2001
3010
1002
0103
2010
0100
0001
3100
,
1002
0103
2001
3010
1002
0103
2001
3010
,
1002
0103
2001
3010
0120
1030
0210
0301
,
1002
0013
2001
3100
2010
0100
0001
3100
,
1002
0013
2000
3100
0012
0100
1000
0103
,
2001
3100
1002
0013
2001
3100
1002
0013
,
2001
3100
1002
0013
0210
1300
0120
0031
,
2001
3010
1002
0103
0011
0000
0000
0000
,
0011
0000
0000
0000
0011
0000
0000
0000
0001
0010
0001
0010
0100
0010
0100
0010
,
0100
1000
0100
1000
0001
1000
0001
1000
0100
0000
0010
0000
0002
0000
0003
0010
,
0001
1000
0010
1000
0001
0000
0100
0000
0010
0000
1000
0000
0100
0000
1000
0000
,
0001
0000
0000
0000
0001
0000
1000
0000
0020
0000
0030
1000
0010
0100
0010
1000
,
0100
0010
0001
0010
0100
1000
0001
0000
,
0001
0010
0100
1000
0001
0000
0001
1000
,
0010
0100
0110
0000
0000
0000
0000
0000
;

//---------------dance-single - ----------------
#NOTEDATA:;
#CHARTNAME:;
#STEPSTYPE:dance-single;
#DESCRIPTION:;
#CHARTSTYLE:;
#DIFFICULTY:Medium;
#METER:7;
#RADARVALUES:0.639268,0.613829,1.000000,0.100559,0.000000,281.000000,241.000000,12.000000,0.000000,0.000000,0.000000,0.000000,0.000000,0.639268,0.613829,1.000000,0.100559,0.000000,281.000000,241.000000,12.000000,0.000000,0.000000,0.000000,0.000000,0.000000;
#CREDIT:;
#NOTES:
0000
0000
0000
0000
,
0000
0000
0000
0000
,
0000
0000
0000
0000
,
0000
0000
0000
0000
,
0000
1001
1010
0011
,
1010
0011
1010
0011
,
1010
0011
1100
0101
,
1100
0101
1100
0101
,
1100
1001
0011
1010
,
0011
1010
1100
1001
,
0101
0011
1010
0011
,
1010
0011
0101
1001
,
1100
1010
0101
1010
,
0101
1010
1100
0011
,
1100
0011
1001
1010
,
1100
1001
0101
1001
,
1100
0000
1010
0000
1000
0001
1000
0001
,
0010
0001
0010
0001
0100
0001
1000
0100
,
1000
0010
0100
0001
0011
0000
1100
0000
,
0101
1010
0011
1100
,
0101
1010
0101
1010
,
0011
1100
0101
1010
,
0011
1001
1010
0101
,
1010
0101
1100
0011
,
1100
0011
1001
1010
,
1001
0011
0101
1001
,
1100
1010
1001
1010
,
1001
0011
1001
1010
,
1100
1001
0101
1010
,
0101
1010
1100
0011
,
1100
0011
1100
1010
,
1001
0011
0101
0011
,
1001
1010
1100
0011
,
1100
0011
1010
0101
,
1010
0000
0101
0000
1000
0010
1000
0010
,
0100
0001
0100
0001
2002
0000
0000
0000
,
0000
0000
3003
0000
0001
1000
0001
1000
,
0010
0100
0010
0100
0220
0000
0000
0000
,
0000
0330
0110
0110
,
0110
0110
1010
0011
,
1010
0011
1010
0011
,
1010
0011
1100
0101
,
1100
0101
1100
0101
,
1100
0000
1001
0000
0202
0000
0000
0303
,
2002
0000
0000
3003
2200
0000
0000
3300
,
2020
0000
0000
3030
1001
0000
1010
0000
,
1100
1001
1100
1010
,
1001
0011
0101
1100
,
0011
1010
0101
1100
,
1001
0000
0000
0000
,
0000
0000
0101
1010
,
1100
0011
1001
1010
,
0101
1001
1100
1100
,
1100
1100
0101
0101
,
1010
1010
0011
1001
,
1010
1001
0101
1001
,
1100
1010
0011
0011
,
0011
0011
1010
1010
,
0101
0101
1100
0101
,
1010
0011
1100
1010
,
1001
0011
0101
1100
,
0101
1100
0011
1010
,
0101
1100
0011
1010
,
0101
1100
0101
1010
,
0011
1100
1001
0101
,
1001
1100
0011
1001
,
1010
1001
0110
0000
,
0110
0000
0110
0000
0010
1000
0100
1000
,
0010
0100
0001
1000
1001
0000
1010
0000
,
1001
0011
0110
1010
,
1001
1010
1001
0011
,
1001
0110
1010
1001
,
0101
0011
1001
1010
,
1100
1001
0000
0000
;

//---------------dance-single - ----------------
#NOTEDATA:;
#CHARTNAME:;
#STEPSTYPE:dance-single;
#DESCRIPTION:;
#CHARTSTYLE:;
#DIFFICULTY:Beginner;
#METER:3;
#RADARVALUES:0.226258,0.337606,0.243017,0.050279,0.000000,154.000000,29.000000,6.000000,0.000000,0.000000,0.000000,0.000000,0.000000,0.226258,0.337606,0.243017,0.050279,0.000000,154.000000,29.000000,6.000000,0.000000,0.000000,0.000000,0.000000,0.000000;
#CREDIT:;
#NOTES:
0000
0000
0000
0000
,
0000
0000
0000
0000
,
0000
0000
0000
0000
,
0000
0000
0000
0000
,
0000
0000
1000
0000
,
0100
0000
1000
0000
,
0100
0000
0010
0000
,
0001
0000
0010
0000
,
0001
0000
0100
0000
,
0001
0000
1000
0100
,
0010
0001
0100
0000
,
0001
0000
0010
0100
,
1000
0001
0100
0000
,
0100
0000
0010
0000
,
0010
0000
1000
0000
,
0100
0000
1000
0001
,
0100
0010
1000
0000
,
0000
0000
1001
0000
,
0000
0000
0001
0000
,
1000
0000
0100
0010
,
0001
0100
0001
0000
,
1000
0000
0001
0100
,
0010
1000
0100
0000
,
0100
0000
1000
0000
,
1000
0000
0001
0000
,
0100
0000
0001
0010
,
0100
1000
0100
0000
,
0100
0000
1000
0000
,
1000
0000
1100
0000
,
1100
0000
0011
0000
,
0011
0000
0001
0000
,
0001
0000
0010
0000
,
0010
0000
0011
0000
,
0011
0000
1100
0000
,
1100
0000
0001
0000
,
0000
0000
0002
0000
,
0000
0003
1000
0000
,
0000
0000
2000
0000
,
0000
3000
0100
0100
,
0100
0100
0010
0000
,
0001
0000
1000
0000
,
0100
0000
0010
0000
,
0001
0000
1000
0000
,
0100
0000
0020
0030
,
0002
0003
2000
3000
,
0200
0300
1000
0000
,
1000
0000
0001
0000
,
0001
0000
0010
0000
,
0100
0000
1000
0001
,
0100
0000
0000
0000
,
0000
0000
0100
0000
,
0100
0000
1000
0000
,
1000
0000
1100
0000
,
1100
0000
0011
0000
,
0011
0000
0001
0000
,
0001
0000
1000
0000
,
1000
0000
1001
0000
,
1001
0000
0110
0000
,
0110
0000
0100
0000
,
0100
0000
0001
0000
,
0001
0000
0101
0000
,
0101
0000
1010
0000
,
1010
0000
1000
0000
,
1000
0000
0001
0000
,
0001
0000
1001
0000
,
1001
0000
0110
0000
,
0110
0000
0110
0000
,
0110
0110
0010
0100
,
0001
1000
0100
0000
,
1000
0000
0010
0100
,
0001
1000
0000
0001
,
0000
0010
0100
1000
,
0001
0100
0010
1000
,
0100
1001
0000
0000
;

//---------------dance-single - ----------------
#NOTEDATA:;
#CHARTNAME:;
#STEPSTYPE:dance-single;
#DESCRIPTION:;
#CHARTSTYLE:;
#DIFFICULTY:Easy;
#METER:4;
#RADARVALUES:0.420193,0.552446,0.486035,0.083799,0.000000,283.000000,58.000000,10.000000,0.000000,0.000000,0.000000,0.000000,0.000000,0.420193,0.552446,0.486035,0.083799,0.000000,283.000000,58.000000,10.000000,0.000000,0.000000,0.000000,0.000000,0.000000;
#CREDIT:;
#NOTES:
// measure 0
0000
0000
0000
0000
,  // measure 1
0000
0000
0000
0000
,  // measure 2
0000
0000
0000
0000
,  // measure 3
0000
0000
0000
0000
,  // measure 4
0000
0000
1000
0100
,  // measure 5
1000
0100
1000
0100
,  // measure 6
1000
0100
0010
0001
,  // measure 7
0010
0001
0010
0001
,  // measure 8
0010
0100
1000
0001
,  // measure 9
0010
0000
0100
0000
1000
0100
0010
0001
,  // measure 10
0100
0001
1000
0100
,  // measure 11
0010
0000
0100
0000
1000
0001
0100
0010
,  // measure 12
1000
0010
1000
1000
,  // measure 13
0001
0001
0010
0010
,  // measure 14
0100
0100
0010
0100
,  // measure 15
1000
0000
0001
0000
1000
0100
0010
0001
,  // measure 16
0100
0001
1000
0000
,  // measure 17
0000
0000
1001
0000
,  // measure 18
0000
0000
0000
0000
0010
0100
0001
0000
,  // measure 19
1000
0000
0001
0000
0100
0010
1000
0100
,  // measure 20
1000
0000
0001
0000
0010
0100
1000
0000
,  // measure 21
0001
0000
1000
0000
0100
0010
0001
0100
,  // measure 22
0001
1000
0010
0010
,  // measure 23
1000
0001
0100
0100
,  // measure 24
0010
0000
1000
0000
0001
0010
0100
0000
,  // measure 25
1000
0000
0010
0000
1000
0010
0100
0001
,  // measure 26
1000
0100
0010
0000
,  // measure 27
0001
0000
1000
0100
,  // measure 28
0010
0001
0011
0011
,  // measure 29
0011
0011
1100
1100
,  // measure 30
1100
1100
0100
0000
,  // measure 31
1000
0000
0001
0010
,  // measure 32
0100
1000
1100
1100
,  // measure 33
1100
1100
0011
0011
,  // measure 34
0011
0011
0100
0000
,  // measure 35
0000
0000
0000
0000
0001
0010
0001
0010
,  // measure 36
0001
0010
0001
0010
0100
0000
0000
0000
,  // measure 37
0000
0000
0000
0000
1000
0010
1000
0010
,  // measure 38
1000
0010
1000
0010
1000
0000
1000
0000
,  // measure 39
1000
1000
1000
0001
,  // measure 40
0010
0001
0010
0001
,  // measure 41
0010
0001
1000
0100
,  // measure 42
1000
0100
1000
0100
,  // measure 43
1000
0001
0022
0033
,  // measure 44
2002
3003
2020
3030
,  // measure 45
2200
3300
0001
0100
,  // measure 46
0010
0010
1000
0100
,  // measure 47
1000
0000
1000
0000
0100
0010
0001
0000
,  // measure 48
0100
0000
0001
0000
0010
0100
1000
0001
,  // measure 49
0100
0000
0000
0000
,  // measure 50
0000
0000
0010
0100
,  // measure 51
0001
1000
0010
0100
,  // measure 52
0001
0100
0101
0101
,  // measure 53
0101
0101
1001
1001
,  // measure 54
1001
1001
1000
0001
,  // measure 55
0010
0100
1000
0001
,  // measure 56
0100
0010
1010
1010
,  // measure 57
1010
1010
1001
1001
,  // measure 58
1001
1001
1000
0010
,  // measure 59
0100
0001
0100
0010
,  // measure 60
1000
0100
1100
1100
,  // measure 61
1100
1100
0011
0011
,  // measure 62
0011
0011
0001
0100
,  // measure 63
0010
1000
0100
1000
,  // measure 64
0001
0010
0011
0011
,  // measure 65
0011
0011
1001
1001
,  // measure 66
1001
1001
1001
0000
,  // measure 67
1001
1001
2002
0000
,  // measure 68
0000
0000
3003
0000
0010
0100
0001
0000
,  // measure 69
0100
0000
0010
0000
1000
0010
0100
0001
,  // measure 70
1000
0000
0001
0100
0010
0000
0100
0000
,  // measure 71
0001
0000
1000
0001
0100
0010
1000
0000
,  // measure 72
0010
0100
0001
1000
0100
0000
0010
0100
,  // measure 73
1000
0001
1001
0000
0000
0000
0000
0000
;
