#TITLE:Final Audition 2;
#SUBTITLE:;
#ARTIST:BanYa;
#TITLETRANSLIT:;
#SUBTITLETRANSLIT:;
#ARTISTTRANSLIT:;
#GENRE:;
#CREDIT:;
#BANNER:Final Audition 2.png;
#BACKGROUND:Final Audition 2-bg.png;
#LYRICSPATH:;
#CDTITLE:;
#MUSIC:Final Audition 2.ogg;
#OFFSET:-0.731151;
#SAMPLESTART:38.442982;
#SAMPLELENGTH:18.000000;
#SELECTABLE:YES;
#BPMS:0.000000=130.600006
,14.000000=130.593994
,15.000000=130.600006
,29.000000=130.593994
,30.000000=130.600006
,44.000000=130.593994
,45.000000=130.600006
,58.000000=130.593994
,59.000000=130.600006
,73.000000=130.593994
,74.000000=130.600006
,88.000000=130.593994
,89.000000=130.600006
,102.000000=130.593994
,103.000000=130.600006
,117.000000=130.593994
,118.000000=130.600006
,132.000000=130.593994
,133.000000=130.600006
,147.000000=130.593994
,148.000000=130.600006
,162.000000=130.593994
,163.000000=130.600006
,177.000000=130.593994
,178.000000=130.600006
,188.000000=130.593994
,189.000000=130.600006
,205.000000=130.593994
,206.000000=130.600006
;
#STOPS:
;
#BGCHANGES:-10000.000=songbackground=1.000=0=0=1=====,
0.000=Final Audition 2.avi=1.000=0=0=0=StretchNoLoop====,
99999=-nosongbg-=1.000=0=0=0 // don't automatically add -songbackground-
;
#KEYSOUNDS:;
#ATTACKS:;

//---------------dance-single - ----------------
#NOTES:
     dance-single:
     :
     Hard:
     8:
     0.575713,0.594480,0.371844,0.000000,0.361795,364.000000,37.000000,0.000000,0.000000,0.000000,0.000000,0.575713,0.594480,0.371844,0.000000,0.361795,364.000000,37.000000,0.000000,0.000000,0.000000,0.000000:
// measure 0
0000
0000
0000
0000
,  // measure 1
0000
0000
0000
0000
,  // measure 2
0000
0000
0000
0000
,  // measure 3
0000
0000
0000
0000
,  // measure 4
0000
0000
0000
0000
1000
0000
0100
0000
1000
0000
0001
0010
0001
0000
1000
0000
,  // measure 5
0001
0000
0000
0000
0001
0000
0100
0000
0001
0000
1000
0010
1000
0000
0001
0000
,  // measure 6
1000
0000
0000
0000
0001
0000
0010
0000
0001
0000
1000
0010
1000
0000
0010
0000
,  // measure 7
1000
0000
0001
0010
0001
0000
0010
0000
0001
0000
1000
0100
1000
0000
0100
0000
,  // measure 8
1000
0000
0001
0100
0001
0000
1000
0100
1000
0000
1000
0010
1000
0000
0001
0010
,  // measure 9
0001
0000
0001
0100
0001
0000
1000
0100
1000
0000
1000
0010
1000
0000
0001
0000
,  // measure 10
0010
0000
1000
0100
0001
0100
0011
0100
,  // measure 11
1010
0100
0011
0000
0000
0000
0000
0000
,  // measure 12
0000
0000
0000
0000
0000
0000
0000
0000
0001
0000
1000
0000
0100
0000
1000
0100
,  // measure 13
0000
0001
0100
0000
1000
0000
0100
0000
0010
0000
0001
0000
0100
0000
0001
0100
,  // measure 14
0000
0001
0010
0000
0001
0000
0100
0000
1000
0000
0010
0000
0100
0000
0010
0100
,  // measure 15
0000
1000
0100
0000
1000
0000
0100
0000
0010
0000
0001
0000
0010
0000
0001
0010
,  // measure 16
0000
1000
0010
0000
1001
0000
0000
0000
1000
0000
1000
0000
0001
0000
0010
0001
,  // measure 17
0000
1000
0100
0000
1000
0000
0000
0000
0001
0000
0001
0000
1000
0000
0100
1000
,  // measure 18
0000
0001
0010
0000
0001
0000
0000
0000
0001
0000
0001
0000
1000
0000
0010
1000
,  // measure 19
0000
0001
0100
0000
0001
0000
0000
0000
1000
0000
1000
0000
0001
0000
0100
0001
,  // measure 20
0000
1000
0010
0000
1000
0000
0000
0000
0001
1000
0000
0001
0010
0000
0001
1000
,  // measure 21
0000
0001
0010
0000
1001
0000
0000
0000
0001
0000
0001
0000
1000
0000
0000
0000
,  // measure 22
0100
0000
0100
0000
0010
0000
0100
0000
1000
0001
0000
1000
0100
0000
1000
0001
,  // measure 23
0000
1000
0100
0000
1001
0000
0000
0000
0100
0000
0100
0000
0010
0000
0000
0000
,  // measure 24
1000
0000
1000
0000
0001
0000
1000
0000
0010
0001
0000
0010
1000
0000
0100
1000
,  // measure 25
0000
0100
0001
0000
1000
0000
0000
0000
0001
0000
0010
0000
0001
0000
1000
0000
,  // measure 26
0000
0000
0001
0000
1000
0000
0001
0000
0010
1000
0000
0010
0001
0000
0100
0001
,  // measure 27
0000
0100
1000
0000
0001
0000
0000
0000
1000
0000
0010
0000
1000
0000
0001
0000
,  // measure 28
0100
0000
0000
0000
0100
1000
0010
1000
,  // measure 29
0100
1000
0100
1000
0010
0100
0010
0100
,  // measure 30
1001
0010
0101
0010
0100
0001
0010
0001
,  // measure 31
0100
0001
0100
0001
0010
0100
0010
0100
,  // measure 32
1001
0000
0010
0000
1100
0000
0010
0000
0001
1000
0000
0000
0000
0000
0001
0100
,  // measure 33
0000
0000
0100
0000
0100
0000
1000
0000
1000
0100
0000
1000
0010
0000
1000
0010
,  // measure 34
0000
1000
0100
0000
0001
0000
0000
0000
0100
0000
0000
0000
0100
0000
0000
0000
,  // measure 35
1010
0100
1001
0000
0100
0000
0100
0000
,  // measure 36
0011
0100
1001
0000
0001
0010
1001
0010
,  // measure 37
1000
0010
1001
0100
1000
0100
1001
0100
,  // measure 38
0001
0100
1001
0000
1100
0000
0011
0000
,  // measure 39
0100
0100
1001
0000
0101
0000
1010
0000
,  // measure 40
0100
0100
1001
0000
0010
1000
0100
1000
,  // measure 41
0001
0010
0001
0100
0001
1000
0010
0000
,  // measure 42
0100
0100
1001
0000
1001
0100
1001
0000
,  // measure 43
1001
0010
1001
0000
0001
0100
1000
0100
,  // measure 44
1010
0000
0100
0000
0011
0000
0000
0000
0001
0000
0000
1000
0000
0000
0100
0000
,  // measure 45
0000
0011
1000
0000
1010
1010
0001
0100
,  // measure 46
0000
1000
0100
0000
1000
0000
0000
0000
1000
0000
0000
0001
0000
0000
0100
0000
,  // measure 47
0000
1010
0001
0000
0011
0011
1000
0100
,  // measure 48
0000
0001
0100
0000
0001
0000
0000
0000
1000
0010
0000
1000
0010
0000
0001
0010
,  // measure 49
0000
0001
0010
0000
1000
0000
0000
0000
0010
0100
0000
0010
0100
0000
0010
0100
,  // measure 50
1000
0100
0000
1000
0100
0000
1000
0100
1000
0001
0000
0100
0001
0100
0000
0001
,  // measure 51
0100
0001
0100
0001
0100
0001
0100
0001
0000
0000
0000
0000
0000
0000
0000
0000
;

//---------------dance-single - ----------------
#NOTES:
     dance-single:
     :
     Medium:
     6:
     0.479521,0.465245,0.391944,0.000000,0.241196,295.000000,39.000000,0.000000,0.000000,0.000000,0.000000,0.479521,0.465245,0.391944,0.000000,0.241196,295.000000,39.000000,0.000000,0.000000,0.000000,0.000000:
0000
0000
0000
0000
,
0000
0000
0000
0000
,
0000
0000
0000
0000
,
0000
0000
0000
0000
,
0000
0000
1000
0100
1000
0001
0000
0000
,
1001
0000
0001
0100
0001
1000
0000
0000
,
1001
0000
1000
0010
1000
0001
0000
0100
,
0001
1000
0100
0010
0100
1000
0000
0100
,
1000
0001
0010
0100
0010
0000
0000
1000
,
1000
0000
0001
1000
0001
0000
0000
0001
,
0001
1010
0100
1001
,
0100
0010
0000
0000
,
0000
0000
0000
0000
0110
0100
0000
0000
,
0101
0000
1100
0000
0110
0100
0000
0000
,
1100
0000
0101
0000
1010
0010
0000
0000
,
1010
0100
1001
0000
0101
0001
0000
0000
,
0011
0000
0100
0000
1001
0000
0000
0000
1000
0000
1000
0000
0001
0000
0100
0001
,
0000
1000
0010
0000
1000
0000
0000
0000
0001
0000
0001
0000
1000
0000
0010
1000
,
0000
0001
0100
0000
0001
0000
0000
0000
0001
0000
0001
0000
1000
0000
0100
1000
,
0000
0001
0010
0000
0001
0000
0000
0000
1000
0000
1000
0000
0001
0000
0010
0001
,
0000
1000
0100
0000
1000
0000
0000
0000
0001
0010
0000
0001
0010
0000
0001
0010
,
0000
0001
0010
0000
0100
0000
0000
0000
1000
0000
1000
0000
0001
0000
0000
0000
,
0000
0000
0001
0000
1000
0000
0001
0000
1000
0100
0000
1000
0100
0000
1000
0100
,
0000
1000
0100
0000
0010
0000
0000
0000
0001
0000
0001
0000
1000
0000
0000
0000
,
0000
0000
0100
0000
0100
0000
0000
0000
0001
0010
0000
0001
0010
0000
0001
0100
,
0000
0001
0100
0000
0010
0000
0000
0000
1000
0000
1000
0000
0100
0000
0000
0000
,
0000
0000
0001
0000
1000
0000
0001
0000
1000
0010
0000
1000
0010
0000
1000
0100
,
0000
1000
0100
0000
0010
0000
0000
0000
0001
0000
0001
0000
0100
0000
0000
0000
,
0100
0000
0100
0100
,
0100
0000
0100
0001
0010
0000
0010
0000
,
0001
1000
0001
1000
0001
0100
0001
0100
,
0001
0100
0001
0100
0010
1000
0010
1000
,
0001
0000
1000
0000
0001
0000
1000
0000
0001
0010
0000
0000
0000
0000
0001
0100
,
0000
0000
0100
0000
0100
0000
0010
0000
1000
0100
0000
1000
0010
0000
1000
0010
,
0000
1000
0100
0000
0001
0000
0000
0000
0100
0000
0000
0000
0100
0000
0000
0000
,
1001
0110
0010
0010
,
0110
1000
0011
0000
1001
0000
0010
0000
,
1001
0010
1100
0010
,
0101
0010
1010
1000
,
0100
0100
1001
0000
0011
0000
0001
0000
,
0100
0100
1001
0000
0010
0010
1001
0000
,
0010
0010
1001
0000
0110
0000
1001
0000
,
0100
0100
1001
0000
1001
0100
1001
0000
,
1001
0010
1001
0000
0001
0100
1000
0100
,
1010
0000
0100
0000
0011
0000
0000
0000
0100
0000
0000
0100
0000
0000
0010
0000
,
0000
1000
0001
0000
0100
0100
0001
0100
,
0000
1000
0100
0000
1000
0000
0000
0000
0100
0000
0000
0100
0000
0000
0010
0000
,
0000
0001
1000
0000
0100
0100
1000
0100
,
0000
0001
0100
0000
0001
0000
0000
0000
1000
0010
0000
1000
0010
0000
0001
0010
,
0000
0001
0010
0000
1000
0000
0000
0000
0010
0100
0000
0010
0100
0000
0010
0000
,
1000
0100
0000
1000
0100
0000
1000
0000
0001
1000
0000
0000
0001
1000
0000
0000
,
0001
0100
0001
0100
0001
0100
0001
0100
0000
0000
0000
0000
0000
0000
0000
0000
;

//---------------dance-single - ----------------
#NOTES:
     dance-single:
     :
     Easy:
     5:
     0.403430,0.388175,0.050249,0.020100,0.030150,274.000000,5.000000,2.000000,0.000000,0.000000,0.000000,0.403430,0.388175,0.050249,0.020100,0.030150,274.000000,5.000000,2.000000,0.000000,0.000000,0.000000:
0000
0000
0000
0000
,
0000
0000
0000
0000
,
0000
0000
0000
0000
,
0000
0000
0000
0000
,
0000
0000
1000
0100
1000
0001
0000
0001
,
1000
0000
0001
0100
0001
1000
0000
1000
,
0001
0000
0001
0010
0001
1000
0000
1000
,
0001
0000
1000
0010
1000
0001
0000
0001
,
1000
0000
1000
0100
1000
0001
0010
0001
,
1000
0000
0001
0100
0001
1000
0010
1000
,
0001
0000
1000
0100
1000
0001
0100
0010
,
1000
1001
0000
0000
,
0000
0000
0000
0000
1000
0100
1000
0010
,
0100
0001
1000
0100
1000
0010
0100
0001
,
1000
0100
1000
0000
1000
0100
1000
0010
,
0100
0001
1000
0100
1000
0010
0100
0001
,
1000
0100
0010
0000
0001
0100
0001
0010
,
0100
1000
0001
0100
0001
0010
0100
1000
,
0001
0100
0001
0000
0001
0100
0001
0010
,
0100
1000
0001
0100
0001
0010
0100
1000
,
0001
0000
0100
0000
0010
0000
0000
0000
0100
0000
0000
0100
0000
0000
0100
0000
,
0000
0001
1000
0000
0010
0100
0001
1000
,
0010
0000
0100
0000
0001
0000
1000
0000
0100
0000
0000
0100
0000
0000
0100
0000
,
0000
1000
0001
0000
0010
0100
1000
0001
,
0010
0000
0100
0000
1000
0000
0001
0000
0100
0000
0000
0100
0000
0000
0100
0000
,
0000
0001
1000
0000
0010
0100
0001
1000
,
0100
0000
0010
0000
0001
0000
0010
0000
0100
0000
0000
0100
0000
0000
0100
0000
,
0000
1000
0001
0000
1000
0010
0100
0001
,
1000
0000
0001
0001
,
0001
0001
1000
1000
,
1000
0100
1000
0100
1000
0000
1000
0000
,
1000
1000
0001
0001
,
0001
0100
0001
0100
0001
0000
0000
0000
,
1000
0000
1000
1000
,
1000
1100
0100
1000
,
0001
0101
0100
0001
,
1000
0000
1100
0000
0100
1000
0001
0100
,
0010
1000
0001
0100
0010
1000
0001
0100
,
0001
1000
0010
0000
0100
0001
1000
0100
,
0010
0001
1000
0100
0010
0001
1000
0100
,
1000
0001
0010
0000
0001
0100
0010
1000
,
0100
0010
0001
0100
0010
1000
0100
0010
,
0001
0100
0010
0000
1000
0010
0100
0001
,
0010
0100
1000
0010
0100
0001
0010
0100
,
1000
0000
0010
0000
0100
0000
0000
0000
0010
0000
0000
0010
0000
0000
0010
0000
,
0000
1000
0001
0000
0100
0001
1000
0200
,
0000
0000
0000
0000
0300
0000
0000
0000
0010
0000
0000
0010
0000
0000
0010
0000
,
0000
0001
1000
0000
0100
0001
1000
0200
,
0000
0300
1000
0000
,
1000
0000
0001
0000
,
0001
0000
0010
0000
,
0100
0000
0110
0000
;

//---------------dance-single - ----------------
#NOTES:
     dance-single:
     :
     Beginner:
     3:
     0.231146,0.258784,0.080399,0.000000,0.000000,153.000000,8.000000,0.000000,0.000000,0.000000,0.000000,0.231146,0.258784,0.080399,0.000000,0.000000,153.000000,8.000000,0.000000,0.000000,0.000000,0.000000:
0000
0000
0000
0000
,
0000
0000
0000
0000
,
0000
0000
0000
0000
,
0000
0000
0000
0000
,
0000
1000
0000
1000
,
0000
0001
0000
0001
,
0000
0100
0000
0100
,
0000
0010
0000
0010
,
0000
0100
0000
0010
,
0000
1000
0000
0001
,
0000
0010
0000
0100
,
0000
1001
0000
0000
,
0000
0000
1000
0100
,
1000
0001
0010
0100
,
1000
0100
1000
0001
,
0010
0100
1000
0100
,
1000
0000
0001
0100
,
0001
1000
0010
0100
,
0001
0100
0001
1000
,
0010
0100
0001
0100
,
0001
0000
1000
1000
,
1000
1000
0001
0100
,
0010
0100
0001
0001
,
0001
0001
1000
0100
,
0010
0100
1000
1000
,
0100
0010
0001
1000
,
0100
1000
0001
0001
,
0100
0010
1000
0001
,
1001
0000
1000
1000
,
1000
1000
0001
0001
,
0001
0001
0100
0100
,
0100
0100
0010
0010
,
0010
0010
0100
0000
,
0100
0000
0100
0000
,
0100
1001
0010
0001
,
0100
1001
0100
1000
,
0010
1001
1000
0010
,
1000
0001
0010
0100
,
1000
0010
1000
0001
,
0010
0100
1000
0010
,
1000
0000
0001
0010
,
0001
1000
0010
0100
,
0001
0010
0001
1000
,
0010
0100
0001
0010
,
0001
1000
1010
0000
,
0000
0000
1000
0001
,
1000
0001
0011
0000
,
0000
0000
0001
1000
,
0001
1000
0100
0000
,
0100
0000
0010
0000
,
0010
0000
0001
0000
,
1000
0000
1001
0000
;

//---------------dance-single - ----------------
#NOTES:
     dance-single:
     :
     Challenge:
     12:
     0.815473,0.827102,0.010050,0.030150,1.000000,564.000000,1.000000,3.000000,0.000000,0.000000,0.000000,0.815473,0.827102,0.010050,0.030150,1.000000,564.000000,1.000000,3.000000,0.000000,0.000000,0.000000:
// measure 0
0000
0000
0000
0000
,  // measure 1
0000
0000
0000
0000
,  // measure 2
0000
0000
0000
0000
,  // measure 3
0000
0000
0000
0000
,  // measure 4
0000
0000
0000
0000
1000
0000
0100
0000
1000
0000
0001
0010
0001
0000
1000
0000
,  // measure 5
0001
0000
0000
0000
0001
0000
0100
0000
0001
0000
1000
0010
1000
0000
0001
0000
,  // measure 6
1000
0000
0000
0000
0001
0000
0010
0000
1000
0000
0010
0100
0010
0000
0001
0000
,  // measure 7
0100
0000
0001
0100
0001
0000
1000
0100
1000
0000
0001
0010
0001
0000
1000
0000
,  // measure 8
0001
0000
0000
0000
0100
0000
0001
0000
1000
0000
0100
1000
0100
0000
0010
0000
,  // measure 9
0001
0000
0100
0001
0100
0000
0001
0010
0001
0000
0010
0100
1000
0010
0100
0001
,  // measure 10
1000
0000
0000
0000
0010
0000
1000
0000
0010
0000
1000
0010
0000
0010
0001
0000
,  // measure 11
0010
0100
0001
0000
0000
0000
0000
0000
,  // measure 12
0000
0000
0000
0000
0000
0000
0000
0000
1000
0010
0100
0001
1000
0010
0100
0001
,  // measure 13
1000
0010
0001
0010
1000
0001
0100
0010
1000
0100
1000
0010
0100
0001
0100
0010
,  // measure 14
0001
1000
0100
0001
1000
0100
0001
0100
1000
0001
0010
0001
1000
0010
1000
0001
,  // measure 15
0010
0100
1000
0010
0100
0001
0100
0010
1000
0100
1000
0100
1000
0001
0100
0010
,  // measure 16
1000
0010
1000
0010
0100
0001
0100
0001
1000
0010
0100
0001
0010
0001
0100
0001
,  // measure 17
0100
0010
1000
0001
1000
0010
0100
0001
1000
0100
0010
0001
0100
0001
1000
0010
,  // measure 18
0100
0001
0010
0001
1000
0001
0010
0100
1000
0010
0100
0001
0010
0100
1000
0001
,  // measure 19
0010
1000
0010
1000
0001
0100
0010
0100
1000
0001
0010
1000
0010
0100
0010
0001
,  // measure 20
0100
0010
0001
0010
1000
0010
1000
0100
0010
0100
0000
0010
0100
0000
1000
0100
,  // measure 21
0000
0100
0010
0000
0001
0000
0000
0000
1000
0000
1000
0000
0010
0000
0100
0000
,  // measure 22
0001
0010
1000
0010
0001
0010
1000
0010
0001
0100
0000
0100
0010
0000
0010
1000
,  // measure 23
0000
1000
0100
0000
0010
0000
0000
0000
0001
0000
0001
0000
0010
0000
0100
0000
,  // measure 24
1000
0010
0001
0010
1000
0010
0001
0010
1000
0100
0000
0100
0010
0000
0010
0001
,  // measure 25
0000
0001
0100
0000
0010
0000
0000
0000
1000
0000
0010
0000
1000
0000
0001
0000
,  // measure 26
1000
0010
0001
0010
0100
0001
0010
0100
1000
0100
0000
0100
1000
0000
1000
0010
,  // measure 27
0000
0010
1000
0000
0100
0000
0010
0000
0001
0000
0100
0000
0002
0000
2003
0000
,  // measure 28
3100
0000
0000
0000
0000
0000
0000
0000
0001
1000
0100
1000
0010
0100
0001
0010
,  // measure 29
0001
0100
0010
1000
0001
0100
0010
1000
0100
0010
0001
1000
0010
0100
0001
1000
,  // measure 30
0010
0001
0010
0001
1000
0100
0010
0100
0001
1000
0010
0001
0010
0100
0010
1000
,  // measure 31
0100
0010
1000
0010
0001
1000
0010
0100
0010
0001
0010
1000
0010
0100
0001
1000
,  // measure 32
0100
0010
0001
0010
0100
1000
0100
0010
0100
0000
0000
0000
0000
0000
0100
1000
,  // measure 33
0000
1000
0010
0000
0100
0000
0000
0000
0010
0100
0000
0100
0001
0000
0001
0010
,  // measure 34
0000
0010
0001
0000
1000
0000
0000
0000
0001
0000
0100
0000
0001
0000
1000
0010
,  // measure 35
0100
0001
1000
0100
1000
0000
0000
0000
1000
0000
0100
0000
1000
0000
0001
0010
,  // measure 36
0100
1000
0001
0100
0001
0000
0000
0000
1000
0010
0100
0001
1000
0010
0100
0001
,  // measure 37
1000
0010
0001
0010
1000
0001
0100
0010
1000
0100
1000
0010
0100
0001
0100
0010
,  // measure 38
0001
1000
0100
0001
1000
0100
0001
0100
1000
0001
0010
0001
1000
0010
1000
0001
,  // measure 39
0010
0100
1000
0010
0100
0001
0100
0010
1000
0001
1000
0001
0100
0001
0100
0010
,  // measure 40
1000
0010
1000
0010
0100
0001
0100
0001
1000
0010
0100
0001
0010
0001
0100
0001
,  // measure 41
0100
0010
1000
0100
1000
0010
0100
0001
1000
0100
0010
0001
1000
0100
1000
0010
,  // measure 42
0100
0001
1000
0010
0100
0001
0010
0001
0100
0010
1000
0001
0010
0100
1000
0001
,  // measure 43
0010
1000
0010
1000
0001
0100
0010
0100
1000
0001
0010
1000
0010
0100
0010
0001
,  // measure 44
0100
0010
0001
0010
1000
0010
1000
0100
0010
0000
0000
0010
0000
0000
0010
0000
,  // measure 45
0000
0000
0100
0000
1000
0000
0000
0000
0100
0000
1000
0000
0001
0000
0010
0001
,  // measure 46
1000
0010
0100
0001
0100
0000
0000
0000
0010
0000
0000
0010
0000
0000
0010
0000
,  // measure 47
0000
0000
0100
0000
0001
0000
0000
0000
0100
0000
0010
0000
1000
0000
0010
1000
,  // measure 48
0001
0010
0100
1000
0100
0000
0000
0000
1000
0100
0000
0100
0010
0000
0010
0001
,  // measure 49
0000
0001
0100
0000
0020
0000
0000
0030
1000
0001
0000
0001
0100
0000
0001
0010
,  // measure 50
0001
1000
0000
0001
0010
0000
0100
1000
0001
0100
0000
0100
0001
0010
0000
0001
,  // measure 51
0010
1000
0010
0001
0010
0100
1000
0011
0000
0000
0000
0000
0000
0000
0000
0000
;
