#TITLE:Don't Bother Me (Caution);
#SUBTITLE:;
#ARTIST:타샤니;
#TITLETRANSLIT:;
#SUBTITLETRANSLIT:;
#ARTISTTRANSLIT:Tashannie;
#GENRE:;
#CREDIT:;
#BANNER:Don_t Bother Me (Caution)-banner.png;
#BACKGROUND:Don_t Bother Me (Caution)-background.png;
#LYRICSPATH:;
#CDTITLE:;
#MUSIC:Don_t Bother Me (Caution).ogg;
#OFFSET:0.375000;
#SAMPLESTART:21.513460;
#SAMPLELENGTH:12.000000;
#SELECTABLE:YES;
#BPMS:0.000000=110.000000
;
#STOPS:
;
#BGCHANGES:0.500=Don_t Bother Me (Caution).avi=1.000=0=0=0=StretchNoLoop====,
99999=-nosongbg-=1.000=0=0=0 // don't automatically add -songbackground-
;
#KEYSOUNDS:;
#ATTACKS:;

//---------------dance-single - ----------------
#NOTES:
     dance-single:
     :
     Hard:
     7:
     0.505474,0.626283,0.475146,0.000000,0.166807,350.000000,303.000000,47.000000,0.000000,0.000000,0.000000,0.505474,0.626283,0.475146,0.000000,0.166807,350.000000,303.000000,47.000000,0.000000,0.000000,0.000000:
// measure 0
0000
0000
0000
0000
,  // measure 1
0000
0000
0000
0000
,  // measure 2
0000
0000
0000
0000
,  // measure 3
0000
0000
0000
0000
,  // measure 4
0000
0000
0000
0000
,  // measure 5
0000
0000
0000
0000
,  // measure 6
0000
0000
0000
0000
0010
0100
1000
0001
0010
0000
0001
0000
1000
0000
1100
0000
,  // measure 7
1001
0000
0000
0000
1000
0010
0100
0000
0010
0000
1000
0000
0001
0000
0101
0000
,  // measure 8
0000
0000
1001
0000
1000
0100
0010
0001
1000
0000
0010
0000
1000
0000
0100
0000
,  // measure 9
0010
0001
0000
1010
0000
1100
0000
0101
,  // measure 10
0000
0000
1000
0010
0001
0010
1000
0000
,  // measure 11
0001
0000
1000
1010
0001
1000
0100
0010
,  // measure 12
0001
0000
0010
0100
1000
0000
0001
0100
,  // measure 13
0010
0000
1000
0100
0010
0001
1000
0010
,  // measure 14
0100
0000
0001
0000
1001
0000
1000
0001
,  // measure 15
1100
0000
0010
1000
0001
0100
0010
1000
,  // measure 16
1100
0000
0001
0010
1000
0000
0010
0001
,  // measure 17
0100
0000
0001
0010
1000
0100
0001
0010
,  // measure 18
1000
0000
0000
0000
0100
0001
0100
0010
1000
0010
0100
0001
1000
0000
0010
0000
,  // measure 19
1000
0000
1010
0000
0001
0000
0011
0000
0010
0100
1000
0001
0010
0000
0100
0000
,  // measure 20
1000
0000
0100
1000
0001
0000
0100
0000
0010
0000
1000
0000
0001
0100
0010
1000
,  // measure 21
0000
0001
0010
0001
1000
0000
0001
0100
0010
1000
0100
1000
0000
0000
0010
0000
,  // measure 22
0100
0001
0000
0000
1000
0000
0000
0000
0011
0000
0000
0000
1000
0000
0001
0000
,  // measure 23
0010
0100
1000
0001
0000
0000
1001
0000
0000
0000
1000
0000
0010
0000
0100
0000
,  // measure 24
0001
1000
0001
0010
0100
0110
0100
1000
,  // measure 25
0010
0100
0001
1000
0001
0100
0010
1000
,  // measure 26
1100
0000
0000
0000
0001
0000
1000
0010
1000
0000
0001
0000
1000
0000
1100
0000
,  // measure 27
0001
0100
0010
0000
1000
0000
0001
0000
0100
0000
0010
0000
1000
0000
1010
0000
,  // measure 28
0010
0100
0010
0100
0001
0000
1000
0001
,  // measure 29
0100
0000
0010
0000
1000
0000
1000
0000
0001
0000
0100
0000
0001
0000
0001
0010
,  // measure 30
0001
0010
0100
0000
1000
0000
1000
0000
0001
0000
0001
0000
0010
0000
0001
0010
,  // measure 31
0001
0000
0011
0000
1000
0000
1000
0000
0010
0000
0100
0000
0010
0100
0001
0000
,  // measure 32
1000
0000
0001
0100
0010
0000
1000
0000
0100
0000
0010
0000
0001
0000
0010
0000
,  // measure 33
0011
0000
1010
0000
1001
0000
1001
0000
1001
0000
1001
0000
1001
0000
0100
1000
,  // measure 34
0010
0100
0001
1000
0010
0000
1000
0000
0001
0000
0100
0000
0010
0000
1000
0000
,  // measure 35
1100
0000
0001
0101
1000
0010
0100
0010
,  // measure 36
1001
0000
1000
0100
1001
0000
0001
0100
,  // measure 37
1001
0000
0001
1000
0100
0010
0001
0100
,  // measure 38
0010
1000
0010
0001
0010
1000
0100
0000
,  // measure 39
1001
0000
0000
0000
0100
0000
0001
0000
0100
0000
0001
0000
0010
0100
1000
0000
,  // measure 40
0001
1010
1000
0100
1000
0001
1010
1000
,  // measure 41
0011
0001
0100
0001
1100
0101
1000
0010
,  // measure 42
1000
0010
0100
1001
0100
1010
0100
1001
,  // measure 43
0100
0011
0100
1001
0010
1001
0100
1001
,  // measure 44
0010
1001
1001
0000
0000
0000
0000
0000
;

//---------------dance-single - ----------------
#NOTES:
     dance-single:
     :
     Medium:
     4:
     0.307617,0.402610,0.313394,0.000000,0.000000,213.000000,182.000000,31.000000,0.000000,0.000000,0.000000,0.307617,0.402610,0.313394,0.000000,0.000000,213.000000,182.000000,31.000000,0.000000,0.000000,0.000000:
0000
0000
0000
0000
,
0000
0000
0000
0000
,
0000
1000
0100
0001
,
0100
1000
0010
0001
,
0010
1000
0100
0001
,
0100
1000
0010
0001
,
0010
1000
0100
0010
,
0011
0100
0100
1000
,
1000
0010
0100
0001
,
1001
0010
0010
0010
,
0010
0001
1000
0100
,
0010
0000
0100
0000
1000
0000
1001
0010
,
0101
1000
0001
0100
,
0010
0000
0100
0000
0001
0000
1001
0010
,
1100
0001
0001
1000
,
1000
0000
0010
0000
0010
0000
1000
0100
,
0010
0001
0001
1000
,
1000
0000
0010
0000
0010
0000
1000
0001
,
0010
0001
0100
0010
,
1000
0000
0001
0000
0100
0000
0010
1000
,
0100
0000
0010
0000
0001
0000
0100
0001
,
1000
0110
0000
0000
,
0000
0001
0011
1000
,
1010
0001
0100
0010
,
1100
0001
0001
0100
,
0100
0000
0001
0000
0010
0100
1000
0000
,
1001
1000
1010
0001
,
0011
1000
0100
0010
,
0101
1000
1000
0100
,
0100
0000
1000
0000
0011
0001
1000
0100
,
1000
0001
0100
0010
,
0110
1000
0100
0010
,
0110
0001
0100
0010
,
0110
0000
0001
0010
0100
1000
0010
0100
,
0001
1000
0001
0100
,
0010
0000
0100
0000
0001
0000
1001
0010
,
1100
0001
1000
0100
,
0010
0000
0100
0000
1000
0000
1001
0010
,
0101
1000
1000
0001
,
0001
0000
0010
0000
0010
0000
0001
0100
,
0010
1000
1000
0001
,
0001
0000
0010
0000
0010
0000
0001
1000
,
0010
1010
1001
0101
,
0110
0011
1001
1100
,
0011
0110
0000
0000
;

//---------------dance-single - ----------------
#NOTES:
     dance-single:
     :
     Easy:
     3:
     0.284510,0.402610,0.262847,0.000000,0.000000,197.000000,171.000000,26.000000,0.000000,0.000000,0.000000,0.284510,0.402610,0.262847,0.000000,0.000000,197.000000,171.000000,26.000000,0.000000,0.000000,0.000000:
0000
0000
0000
0000
,
0000
0000
0000
0000
,
0000
1000
0000
0100
,
0000
0001
0000
0100
,
0000
1000
0000
0010
,
0000
0001
0000
0010
,
0000
1000
0100
0001
,
0100
1000
0010
0001
,
0010
1000
0100
0001
,
0100
1000
0010
0001
,
0010
1000
0100
0010
,
0011
0000
0100
0000
0001
0000
1000
0010
,
1000
0001
0001
0100
,
0100
0000
0010
0000
1001
0000
0010
0100
,
1000
0001
0100
0010
,
1010
0000
0100
0000
1000
0000
0001
0010
,
0001
1000
1000
0100
,
0100
0000
0010
0000
1001
0000
0010
0100
,
0001
1000
0100
0001
,
0100
1000
0010
0001
,
0010
1000
0100
0001
,
0100
1001
0000
0000
,
0000
0001
0001
0010
,
0010
0100
1000
0010
,
1001
1000
1000
0010
,
0010
0000
0100
0000
0001
0100
0010
0000
,
1001
0100
0100
1000
,
1000
0001
0010
0100
,
1001
1000
1000
0100
,
0100
0000
1000
0000
0010
0100
0001
0000
,
1001
1000
0010
0100
,
1001
0001
0010
0100
,
1001
0010
0101
1000
,
0011
0000
0010
0100
1000
0001
0100
0010
,
1000
0001
0100
0010
,
1010
0000
0100
0000
1000
0000
0001
0010
,
0001
1000
1000
0100
,
0100
0000
0010
0000
1001
0000
0010
0100
,
0001
1000
0100
0010
,
0011
0000
0100
0000
0001
0000
1000
0010
,
1000
0001
0001
0100
,
0100
0000
0010
0000
1001
0000
0010
0100
,
1000
0101
0011
1010
,
1100
0101
0011
1010
,
1100
1001
0000
0000
;

//---------------dance-double - ----------------
#NOTES:
     dance-double:
     :
     Medium:
     4:
     0.307617,0.402610,0.313394,0.000000,0.000000,213.000000,182.000000,31.000000,0.000000,0.000000,0.000000,0.307617,0.402610,0.313394,0.000000,0.000000,213.000000,182.000000,31.000000,0.000000,0.000000,0.000000:
00000000
00000000
00000000
00000000
,
00000000
00000000
00000000
00000000
,
00000000
10000000
00100000
00010000
,
00100000
10000000
01000000
00010000
,
01000000
10000000
00100000
00010000
,
00100000
10000000
00100000
00010000
,
00100000
00000010
00000100
00000001
,
00001001
00000100
00000100
00001000
,
00001000
00100000
01000000
10000000
,
10010000
00100000
00100000
00100000
,
00100000
01000000
00010000
00001000
,
00000100
00000000
00000001
00000000
00000010
00000000
00000011
00000100
,
00001001
00000100
00001000
00010000
,
01000000
00000000
10000000
00000000
00100000
00000000
10100000
01000000
,
10010000
01000000
01000000
00100000
,
00100000
00000000
00001000
00000000
00001000
00000000
00010000
01000000
,
00100000
01000000
01000000
00100000
,
00100000
00000000
00001000
00000000
00001000
00000000
00100000
01000000
,
00001000
00100000
10000000
00000010
,
00000001
00000000
00001000
00000000
00001000
00000000
00001000
00000010
,
00000001
00000000
00001000
00000000
00100000
00000000
00010000
00100000
,
10000000
01100000
00000000
00000000
,
00000000
00000100
00001100
01000000
,
01010000
00000010
00000100
00000001
,
00000101
00000010
00000010
00000100
,
00000100
00000000
00000010
00000000
00001000
00000001
00000100
00000000
,
00001001
01000000
01010000
00000100
,
00001100
00100000
01000000
10000000
,
11000000
00100000
00100000
01000000
,
01000000
00000000
00100000
00000000
00010010
00000010
00000100
00000001
,
00000100
00000100
00010000
00100000
,
01100000
00100000
00001000
00000100
,
00000110
00001000
01000000
00100000
,
01100000
00000000
01000000
00001000
00010000
00000100
00000010
00000100
,
00001000
00000100
00001000
00010000
,
01000000
00000000
10000000
00000000
00100000
00000000
10100000
01000000
,
10010000
01000000
00010000
00001000
,
00000100
00000000
00000001
00000000
00000010
00000000
00000011
00000100
,
00001001
00000100
00000100
00000010
,
00000010
00000000
00010000
00000000
00010000
00000000
00001000
00000100
,
00000010
00000100
00000100
00000010
,
00000010
00000000
00010000
00000000
00010000
00000000
00000010
00000100
,
00001000
00001010
00001001
00000101
,
00000110
00110000
10010000
11000000
,
01100000
00000110
00000000
00000000
;
