#TITLE:DJ Otada;
#SUBTITLE:;
#ARTIST:BanYa;
#TITLETRANSLIT:;
#SUBTITLETRANSLIT:;
#ARTISTTRANSLIT:;
#GENRE:;
#CREDIT:;
#BANNER:DJ Otada-banner.png;
#BACKGROUND:DJ Otada-bg.png;
#LYRICSPATH:;
#CDTITLE:;
#MUSIC:DJ Otada.ogg;
#OFFSET:-0.075000;
#SAMPLESTART:13.397785;
#SAMPLELENGTH:12.000000;
#SELECTABLE:YES;
#BPMS:0.000000=180.000000
,136.000000=90.000000
,138.000000=180.000000
;
#STOPS:136.000000=1.333000
;
#BGCHANGES:0.000=DJ Otada.avi=1.000=0=0=0=StretchNoLoop====,
99999=-nosongbg-=1.000=0=0=0 // don't automatically add -songbackground-
;
#KEYSOUNDS:;
#ATTACKS:;

//---------------dance-single - ----------------
#NOTES:
     dance-single:
     :
     Hard:
     6:
     0.672794,0.682609,0.494151,0.080678,0.015127,467.000000,418.000000,49.000000,8.000000,0.000000,0.000000,0.672794,0.682609,0.494151,0.080678,0.015127,467.000000,418.000000,49.000000,8.000000,0.000000,0.000000:
0000
0000
0000
0000
,
0100
0000
0100
0100
,
1001
0000
0010
1100
,
0001
0110
2020
3030
,
1000
0000
0100
1000
0001
0000
0100
0001
,
0010
0100
1000
0100
1000
0000
0000
0000
,
0010
0100
0001
0100
0001
0000
0000
0000
,
0100
0001
0100
0010
1000
0000
0000
0000
,
0001
0001
0100
0100
0010
0010
1000
1000
,
0100
1000
0001
0100
0010
1000
0100
1000
,
0001
0000
0100
0001
1000
0000
0100
1000
,
0010
0100
0001
0100
0001
0000
0000
0000
,
0010
0100
1000
0100
1000
0000
0000
0000
,
0100
1000
0100
0010
0001
0000
0000
0000
,
1000
1000
0100
0100
0010
0010
0001
0001
,
0100
0001
1000
0100
0010
0001
0100
0001
,
1001
0000
0001
0100
0001
0000
1000
0000
,
1010
0000
1000
0001
0100
0001
0101
0000
,
0011
0000
0001
1000
0100
1000
1100
0000
,
1000
0010
1000
0001
1000
0100
1000
0010
,
1010
0000
1001
0000
0001
0010
0001
1000
,
0001
0010
0001
0100
0101
0000
1001
0000
,
1000
0001
1000
0100
1000
0000
2000
0000
,
3001
0100
0001
1000
0001
0000
0002
0000
,
1003
0000
0000
0000
0100
0000
0000
1000
0001
0000
0000
0000
0000
0000
0000
0000
,
0001
0000
0010
0000
0100
1000
0001
0000
,
0100
0001
1000
0010
0100
0001
1000
0001
,
1001
1001
1001
0000
,
0100
1000
0001
0010
0100
1000
0001
1000
,
1001
1001
1001
0000
,
0100
0010
0100
1000
0010
0100
0001
0100
,
0101
0101
1001
0000
,
0100
0010
0100
1000
0001
0100
0010
0100
,
0001
1000
0100
0010
0001
0000
0100
0000
,
0110
0000
0000
0000
1000
0100
0010
0001
,
1000
0100
0010
0001
1000
0010
0100
0001
,
1000
0010
0100
0001
1000
0001
0100
0010
,
1000
0001
0100
0010
1000
0100
1000
0001
,
0010
0100
1000
0001
0010
0100
1000
0010
,
0100
0001
0010
0100
1100
0000
1010
0000
,
1001
0000
0000
0000
1001
0000
0000
0000
0001
0010
0001
0010
0001
0000
1000
0000
,
0100
1000
0110
0000
,
0000
0000
0000
0000
0100
0010
0100
1000
,
0001
0010
0100
1000
0010
0100
0001
0010
,
0100
1000
0010
0100
0001
0010
0100
1000
,
0001
0010
0100
1000
0010
0100
0001
0010
,
1000
0010
0001
1000
0010
0100
0001
0010
,
0100
1000
0010
0100
0001
0010
0100
1000
,
0010
0100
0001
0010
0100
1000
0001
0100
,
0001
1000
0100
1000
0001
0000
0101
0000
,
1000
1010
0001
0011
,
0010
0100
1000
0001
0101
0000
0000
1000
,
1100
0000
0000
0001
0101
0000
0000
1000
,
1100
0000
0000
0000
0001
0010
0100
1000
,
0001
0010
0001
1000
0001
0100
0010
1000
,
0001
0100
0001
1000
0010
0100
0001
0001
,
0010
0100
1000
1000
0001
1000
1000
0001
,
0001
0010
0010
0001
0022
0000
0000
0000
,
0000
0000
0033
0000
1000
0000
0100
1000
,
0001
0000
0100
0001
0010
0100
1000
0100
,
1000
0000
0000
0000
0010
0100
0001
0100
,
0001
0000
0000
0000
0100
0001
0100
0010
,
1000
0000
0000
0000
0001
0001
0100
0100
,
0010
0010
1000
1000
0100
1000
0001
0100
,
1001
0000
0000
0000
0010
1000
0001
0010
,
1001
0000
0000
0000
0010
0001
1000
0010
,
1001
0000
1000
0100
1100
0000
0010
1000
,
1010
0000
1000
0001
1001
0000
0001
0010
,
0011
0101
1001
1100
,
1000
0010
0100
0001
1000
0100
0010
0001
,
0011
1001
0220
0000
,
0000
0330
0000
0000
;

//---------------dance-single - ----------------
#NOTES:
     dance-single:
     :
     Challenge:
     15:
     1.077623,1.173104,0.655506,0.161355,0.973175,748.000000,683.000000,65.000000,16.000000,0.000000,0.000000,1.077623,1.173104,0.655506,0.161355,0.973175,748.000000,683.000000,65.000000,16.000000,0.000000,0.000000:
0000
0000
0000
0000
,
0010
0000
0001
0010
0000
0001
0000
0000
,
1100
0000
0000
0000
0010
0001
0011
0100
,
1000
1100
0010
0001
0022
0000
0000
0033
,
0010
0100
1000
0001
1000
0010
1000
0001
,
0100
0000
0010
0000
1000
0000
0100
0000
1000
0100
1000
0010
0100
0000
0000
0000
,
0001
0000
0100
0000
0001
0000
1000
0000
0001
0010
0001
0100
0010
0000
0000
0000
,
1000
0010
0100
0001
1000
0010
0100
0001
1000
0000
0000
0000
1000
0100
1000
0000
,
0010
0010
0100
0100
0001
0001
1000
1000
,
0010
1000
0010
0100
0001
0010
0100
1000
0001
0010
0100
1000
0100
1000
0100
1000
,
0010
0100
0001
1000
0001
0010
0001
1000
,
0100
0000
0010
0000
0001
0000
0100
0000
0001
0100
0001
0010
0100
0000
0000
0000
,
1000
0000
0100
0000
1000
0000
0001
0000
1000
0010
1000
0100
0010
0000
0000
0000
,
0001
0010
0100
1000
0001
0010
0100
1000
0001
0000
0000
0000
0001
0100
0001
0000
,
0010
0010
0100
0100
1000
1000
0001
0001
,
0010
0001
0010
0100
1000
0001
0100
0010
1000
0001
0100
0010
1000
0001
0100
0010
,
1010
0000
0000
0000
0001
0100
0010
1000
0100
0000
1000
0000
2020
0000
3030
0000
,
1000
0000
0010
0100
0001
0000
0100
0000
0010
0000
1000
0000
1001
0000
0000
0000
,
0001
0000
0010
0100
1000
0000
0100
0000
0010
0000
0001
0000
1001
0000
0000
0000
,
1001
0000
1000
0010
1000
0000
0001
0010
0001
0000
1000
0100
1000
0000
0001
0000
,
0011
0000
1000
0000
1010
0000
0001
0000
0101
0000
0001
0010
0001
0000
1000
0010
,
1000
0000
0001
0100
0001
0000
1000
0000
1010
0000
0001
0000
0011
0000
1000
0000
,
1100
0000
0001
0000
1000
0000
0100
0000
0010
0000
0001
0000
1000
0010
0100
0001
,
0100
0000
0001
0000
0010
0000
0100
0000
1000
0000
0001
0000
1000
0010
0100
0001
,
0011
0000
0000
0000
0011
0000
0000
1000
0001
0000
0000
0000
0100
0001
0100
0001
,
0010
0000
0100
0000
1000
0010
0100
0000
0010
0100
0001
0010
0100
1000
0001
0000
,
1000
0000
0010
0000
1000
0001
0100
0000
0010
0000
1000
0000
0100
1000
0001
0000
,
1001
0000
1001
0000
1010
0000
1000
0001
,
0100
0000
0010
0000
0100
0001
0010
0000
0100
0000
1000
0000
0010
0100
0001
0000
,
1001
0000
1001
0000
1100
0000
1000
0010
,
1000
0000
0010
0000
0100
0001
1000
0000
0100
0000
1000
0000
0010
0100
0001
0000
,
1001
0000
1001
0000
0101
0000
0100
0001
,
0010
0100
1000
0001
0100
0010
0100
0001
,
1000
0000
0100
0010
0001
0000
0100
0001
1000
0000
0000
0000
0100
0000
0000
0000
,
0011
0000
0000
0000
2002
0000
0000
3003
1000
0010
1000
0000
0001
0000
1000
0000
,
0001
0100
0001
0000
1000
0000
0001
0000
0100
0010
1000
0000
0100
1000
0010
0000
,
0100
0010
1000
0000
0100
1000
0010
0000
1000
0100
1000
0000
0010
0000
0100
0000
,
0001
0100
0001
0000
1000
0000
0001
0000
0100
0001
0010
0000
0100
0010
0001
0000
,
0100
0001
0010
0000
0100
0010
0001
0000
1000
0010
1000
0010
1000
0000
0001
0000
,
1000
0100
1000
0100
1000
0000
0001
0000
0011
0000
0000
0000
1001
0000
0000
0000
,
1010
0000
0000
0000
1001
0000
0000
0000
1000
0010
1000
0001
1000
0010
1000
0001
,
1000
0100
0011
1100
,
0001
0010
0100
1000
0010
0100
0001
1000
0001
0010
0001
0100
0001
0010
0100
1000
,
0001
0000
0100
0000
0001
0000
1000
0000
0010
0100
0001
1000
0001
0100
0010
1000
,
0100
0000
1000
0000
0001
0000
1000
0000
0100
1000
0001
0010
0001
1000
0001
1000
,
0100
0000
1000
0000
0010
0000
0100
0000
0001
1000
0100
1000
0001
0100
0010
1000
,
0100
1000
0100
1000
0001
1000
0001
1000
0001
0100
0001
0010
0001
0100
0010
1000
,
0100
1000
0001
0010
0100
0000
1000
0000
0010
1000
0100
0010
0001
0100
0001
0010
,
0100
1000
0010
0100
0001
0000
1000
0000
0001
0100
0001
0100
0010
1000
0010
1000
,
0100
1000
0100
1000
0001
0100
0010
1000
0100
0000
0000
0000
1001
0000
0000
0000
,
0010
0101
1000
0110
,
1000
0010
0100
0001
0202
0000
0303
0110
,
2020
0000
3030
0110
0202
0000
0303
0110
,
2020
0000
0000
0000
3030
0000
0100
0000
1001
0000
1000
0010
1000
0000
0001
0010
,
0001
0000
0010
0100
1000
0010
0100
0001
0101
0000
0001
0100
0001
0000
1000
0100
,
1000
0000
0001
0100
0010
1000
0100
0010
0011
0000
1000
0001
1000
0000
0010
0100
,
0010
0000
1000
0001
1000
0000
0010
0100
0101
0000
0010
0100
1100
0000
0010
0100
,
0101
0000
0010
0100
1100
0000
0001
1000
2002
0000
0000
0000
0000
0000
0000
0000
,
0000
0000
3003
0000
0001
0010
0100
1000
0001
0000
1000
0100
1000
0000
0001
0000
,
1000
0000
0010
1000
0010
0000
1000
0000
0010
0000
0100
0000
0001
0000
0010
0000
,
0100
1000
0001
0010
0001
0000
0000
0000
1000
0000
0001
0010
0001
0000
1000
0000
,
0001
0100
0001
0100
0001
0000
0000
0000
1000
0100
0010
0001
0100
0010
1000
0100
,
0010
0000
0001
0100
0001
0000
1000
0000
1010
0000
1000
0000
0011
0000
0001
0000
,
1100
0000
1000
0000
0101
0000
0001
0000
1000
0100
0010
0001
1000
0100
0010
0001
,
0100
0000
0001
0010
0100
0000
1000
0000
0001
0100
0010
1000
0001
0100
0010
1000
,
0100
0000
1000
0010
0100
0000
0001
0000
1000
0001
0100
0010
1000
0100
1000
0001
,
0100
0000
0001
0100
0001
0000
1010
0000
0011
0000
1000
0100
1000
0000
0011
0000
,
1010
0000
1000
0010
1000
0000
0101
0000
1100
0000
0001
0010
0001
0000
1100
0000
,
0001
0100
0001
1000
0010
0100
0001
0010
0100
1000
0010
0100
0001
0010
0001
0100
,
0001
0010
0100
1000
0001
0010
0100
1000
0001
0010
0100
1000
0100
0010
0001
0010
,
0100
0110
1001
0000
;

//---------------dance-single - ----------------
#NOTES:
     dance-single:
     :
     Medium:
     4:
     0.509998,0.604326,0.373134,0.060508,0.000000,354.000000,317.000000,37.000000,6.000000,0.000000,0.000000,0.509998,0.604326,0.373134,0.060508,0.000000,354.000000,317.000000,37.000000,6.000000,0.000000,0.000000:
0000
0000
0000
0000
,
0000
0000
0000
0000
,
1001
0000
0100
0000
,
0100
0100
0100
0100
,
1010
0000
0000
0001
0010
0000
0000
0001
,
0010
0100
1000
0100
1000
0000
0000
1000
,
0100
0010
0001
0010
0001
0000
0000
0001
,
0010
0100
1000
0001
0100
0000
0000
0100
,
0001
0100
0001
0100
0010
1000
0010
1000
,
0001
1000
0100
0010
0001
0000
0000
0000
,
0011
0000
0000
1000
0010
0000
0000
1000
,
0010
0100
0001
0100
0001
0000
0000
0001
,
0100
0010
1000
0010
1000
0000
0000
1000
,
0010
0100
0001
1000
0100
0000
0000
0100
,
1000
0100
1000
0100
0010
0001
0010
0001
,
1000
0100
0010
0001
1000
0100
0010
0001
,
0100
0000
0000
0000
,
1010
0000
0001
0000
,
0011
0000
1000
0000
,
1010
0000
0000
0000
,
1010
1010
1010
0000
,
0000
0000
0101
0101
,
1000
0000
0001
0000
1000
0100
0020
0030
,
0001
0000
1000
0000
0001
0100
0020
0030
,
1000
0001
1001
0000
,
0001
0000
0000
0000
,
1000
0010
0100
0001
,
1001
1001
1001
0000
,
0001
0010
0100
1000
,
1001
1001
1001
0000
,
1000
0010
0100
0001
,
1001
0110
1001
0000
,
0010
1000
0001
0100
,
0010
1000
0001
0100
0010
0000
0000
0000
,
1001
0000
1000
0001
,
1000
0001
0010
0100
,
0010
0100
1000
0001
,
1000
0100
0010
0001
,
0010
0100
1000
0010
,
0100
0001
1000
0010
,
0100
0000
0001
0000
0100
0001
1000
0100
,
0010
0001
0011
0000
,
0000
0000
0000
0000
0002
0000
0000
0003
,
0010
0001
0010
0100
2000
0000
0000
3000
,
0010
1000
0010
0100
0002
0000
0000
0003
,
1000
0001
0100
0010
1000
0100
0010
0001
,
1000
0001
0100
0000
0001
0010
0001
0010
,
0100
1000
0001
0000
1000
0010
1000
0010
,
0100
0001
1000
0000
0001
0010
0001
0000
,
1000
0010
1000
0000
0001
0000
0011
0000
,
1000
1010
0001
0101
,
1000
0100
1000
0100
1000
0000
0000
0001
,
0100
0000
0000
1000
0100
0000
0000
0001
,
0100
0000
1000
0001
,
1000
1010
0001
1000
,
0001
0011
1000
1100
,
0001
0000
0101
0000
0100
0001
1000
0010
,
0100
0001
1000
0010
0200
0000
0000
0000
,
0000
0000
0300
0000
1010
0000
0000
0001
,
0010
0000
0000
0001
0010
0100
1000
0100
,
1000
0000
0000
1000
0100
0010
0001
0010
,
0001
0000
0000
0001
0010
0100
1000
0001
,
0100
0000
0000
0100
0001
0100
0001
0100
,
0010
1000
0010
1000
0001
1000
0100
0010
,
0001
0000
0000
0000
1000
0001
0100
0010
,
1000
0000
0000
0000
0001
0010
0100
1000
,
0001
0000
0001
0100
0010
0000
0010
1000
,
0100
0000
0100
1000
0001
0000
0001
0010
,
0011
1001
1010
1100
,
0001
0100
0010
1000
0100
1000
0001
0100
,
0010
1010
0110
0000
;

//---------------dance-single - ----------------
#NOTES:
     dance-single:
     :
     Easy:
     3:
     0.339999,0.462132,0.141186,0.060508,0.000000,236.000000,222.000000,14.000000,6.000000,0.000000,0.000000,0.339999,0.462132,0.141186,0.060508,0.000000,236.000000,222.000000,14.000000,6.000000,0.000000,0.000000:
// measure 0
0000
0000
0000
0000
,  // measure 1
0000
0000
0000
0000
,  // measure 2
1001
0000
0100
0000
,  // measure 3
0100
0000
0100
0000
,  // measure 4
1000
0010
1000
0010
,  // measure 5
1000
0100
1000
0000
,  // measure 6
0010
0100
0001
0000
,  // measure 7
0001
0100
0001
0000
,  // measure 8
0001
0001
1000
1000
,  // measure 9
0100
0010
0001
0000
,  // measure 10
0001
0010
0001
0010
,  // measure 11
0001
0100
0001
0000
,  // measure 12
0010
0100
1000
0000
,  // measure 13
1000
0100
1000
0000
,  // measure 14
1000
1000
0001
0001
,  // measure 15
1000
0001
1000
0001
,  // measure 16
1001
0000
0000
0000
,  // measure 17
0001
0000
0001
0001
,  // measure 18
1000
0000
1000
1000
,  // measure 19
0010
0000
0000
0000
,  // measure 20
0010
0010
1001
0000
,  // measure 21
0000
0000
0100
0100
,  // measure 22
0001
1000
0100
0100
,  // measure 23
1000
0001
0010
0010
,  // measure 24
0001
1000
0001
0000
,  // measure 25
1001
0000
0000
0000
,  // measure 26
1000
0100
1000
0100
,  // measure 27
0010
0010
0010
0000
,  // measure 28
0001
0010
0001
0010
,  // measure 29
0100
0100
0100
0000
,  // measure 30
1000
0001
1000
0001
,  // measure 31
0010
0010
0010
0001
,  // measure 32
0010
0100
1000
0001
,  // measure 33
0100
0010
1000
0000
,  // measure 34
1010
0000
0001
0100
,  // measure 35
0001
0100
0001
0010
,  // measure 36
0001
0000
1000
0100
,  // measure 37
1000
0100
1000
0010
,  // measure 38
1000
0000
0001
0100
,  // measure 39
0001
0100
0010
0100
,  // measure 40
0010
1000
0001
1000
,  // measure 41
0100
0010
0001
0000
,  // measure 42
0001
0000
1000
0100
,  // measure 43
0010
0001
0100
0001
,  // measure 44
1000
0010
1000
0100
,  // measure 45
0010
0001
0100
0001
,  // measure 46
1000
0010
1010
0000
,  // measure 47
0000
0001
0011
0000
,  // measure 48
0000
1000
1010
0000
,  // measure 49
0000
0000
0011
0000
,  // measure 50
1010
0000
0011
1010
,  // measure 51
0001
0010
0001
0010
0200
0300
0000
0000
,  // measure 52
0200
0300
0000
0000
0200
0300
0000
0000
,  // measure 53
0200
0300
0000
0000
1000
0000
0100
0000
,  // measure 54
1000
1000
0100
1000
,  // measure 55
0100
0100
0010
0001
,  // measure 56
0001
0010
0010
0001
,  // measure 57
0010
0001
0022
0000
,  // measure 58
0000
0033
1000
0010
,  // measure 59
1000
0010
1000
0100
,  // measure 60
1000
0000
0010
0100
,  // measure 61
0001
0000
0001
0100
,  // measure 62
0001
0000
0001
0100
,  // measure 63
0010
1000
0100
1000
,  // measure 64
0010
0000
1000
0100
,  // measure 65
0010
0000
0001
0100
,  // measure 66
0001
0001
1000
1000
,  // measure 67
0001
0001
1000
1000
,  // measure 68
0001
0100
1000
0100
,  // measure 69
0001
0010
1000
0010
,  // measure 70
0001
1000
1001
0000
;
