#TITLE:Dignity;
#SUBTITLE:;
#ARTIST:Crash;
#TITLETRANSLIT:;
#SUBTITLETRANSLIT:;
#ARTISTTRANSLIT:;
#GENRE:;
#CREDIT:;
#BANNER:Dignity.png;
#BACKGROUND:Dignity-bg.png;
#LYRICSPATH:;
#CDTITLE:;
#MUSIC:Dignity.ogg;
#OFFSET:-0.048000;
#SAMPLESTART:27.131027;
#SAMPLELENGTH:18.000000;
#SELECTABLE:YES;
#BPMS:0.000000=195.000000
;
#STOPS:
;
#BGCHANGES:-10000.000=songbackground=1.000=0=0=1=====,
-0.048=Dignity.avi=1.000=1=0=1===CrossFade==,
0.000=Dignity.avi=1.000=0=0=0=StretchNoLoop====,
99999=-nosongbg-=1.000=0=0=0 // don't automatically add -songbackground-
;
#KEYSOUNDS:;
#ATTACKS:;

//---------------dance-single - ----------------
#NOTES:
     dance-single:
     :
     Medium:
     9:
     0.702350,0.619345,0.383100,0.127700,0.000000,483.000000,42.000000,14.000000,0.000000,0.000000,0.000000,0.702350,0.619345,0.383100,0.127700,0.000000,483.000000,42.000000,14.000000,0.000000,0.000000,0.000000:
// measure 0
0000
0000
0000
0000
,  // measure 1
0000
0000
0000
0000
,  // measure 2
1000
0100
1000
0001
0100
0000
0010
1000
,  // measure 3
0100
1000
0100
0010
0001
0000
0001
0000
,  // measure 4
0010
0001
0100
0010
0100
0001
1000
0001
,  // measure 5
0100
0001
0010
0100
1000
0000
0001
0000
,  // measure 6
0100
0001
0010
0001
0100
0000
0001
0010
,  // measure 7
0001
1000
0010
0100
0001
0000
1000
0010
,  // measure 8
1000
0001
0010
0100
0010
0001
0100
0001
,  // measure 9
1000
1000
0001
0001
,  // measure 10
1000
0100
1000
0100
0010
0001
0100
0001
,  // measure 11
0010
0100
1000
0001
0100
0000
0001
0100
,  // measure 12
0010
1000
0100
0010
0001
0000
0100
0000
,  // measure 13
0001
0100
0001
1000
0010
0100
0001
0000
,  // measure 14
1000
0001
0100
1000
0001
0010
1000
0001
,  // measure 15
0100
0001
0010
0100
1000
0000
0001
0000
,  // measure 16
1000
0100
0010
0001
1000
0000
0001
0010
,  // measure 17
0100
1000
0001
1000
0010
1000
0001
0000
,  // measure 18
2002
0000
3003
1010
,  // measure 19
2002
0000
3003
0011
,  // measure 20
2002
0000
3003
0110
,  // measure 21
1001
0100
0001
1000
,  // measure 22
2002
0000
3003
0101
,  // measure 23
2002
0000
3003
1100
,  // measure 24
2002
0000
3003
0110
,  // measure 25
0100
0001
0010
0001
1000
0001
0100
0010
,  // measure 26
1000
1000
0010
1000
0100
1000
0010
1000
,  // measure 27
0010
0001
0010
1000
0010
0100
0001
1000
,  // measure 28
0001
0100
0001
1000
0010
0001
1000
0100
,  // measure 29
0001
1000
0001
0010
1000
0010
0100
1000
,  // measure 30
0001
0100
0000
1000
0010
0000
0001
0100
,  // measure 31
0000
0000
0000
0000
,  // measure 32
1000
0100
0000
0001
0010
0000
1000
0100
,  // measure 33
0000
0000
0000
0000
,  // measure 34
0100
0001
0010
0001
0100
0001
1000
0010
,  // measure 35
1000
0100
0000
0001
0010
0000
1000
0100
,  // measure 36
0010
0001
0010
0001
0100
0000
0001
1000
,  // measure 37
0100
0100
0010
0001
0100
0010
0001
0010
,  // measure 38
0100
0001
1000
0100
1000
1000
0010
0100
,  // measure 39
0001
0100
0000
1000
0010
0000
0001
0100
,  // measure 40
0010
1000
0001
1000
0010
0000
0100
0001
,  // measure 41
0010
0100
1000
0001
1000
0000
0001
0000
,  // measure 42
0100
0001
0010
0001
0010
0100
1000
0001
,  // measure 43
1000
0100
0000
0001
0010
0000
1000
0100
,  // measure 44
0010
0001
0010
0001
0100
0000
0001
1000
,  // measure 45
0100
1000
0010
1000
0001
0100
0001
0100
,  // measure 46
0101
0000
0000
0011
0000
0000
0101
0000
,  // measure 47
0000
0011
0000
0000
0000
0000
0000
0000
,  // measure 48
1100
0000
0000
1010
0000
0000
1100
0000
,  // measure 49
0000
1010
0000
0000
0000
0000
0000
0000
,  // measure 50
1100
0000
0000
0011
0000
0000
1100
0000
,  // measure 51
0000
0011
0000
0000
0000
0000
0000
0000
,  // measure 52
1001
0000
0000
0110
0000
0000
1001
0000
,  // measure 53
0000
0110
0000
0000
0100
0000
0100
0000
,  // measure 54
1001
0000
0011
0000
,  // measure 55
0110
0000
1010
0000
,  // measure 56
1000
1010
0001
0011
,  // measure 57
0010
0100
1000
0010
0100
1000
0100
0001
,  // measure 58
0010
0001
0100
0001
0010
0100
0010
0001
,  // measure 59
0100
0001
0010
0001
0100
0010
1000
0001
,  // measure 60
0100
0001
0010
0100
1000
0100
0001
0100
,  // measure 61
0010
0100
1000
0001
1000
0010
0100
0001
,  // measure 62
0010
0001
0100
0010
0100
0001
0100
1000
,  // measure 63
0001
0010
1000
0001
1000
0100
0010
0001
,  // measure 64
0100
0001
0010
0001
0010
0100
1000
0010
,  // measure 65
0100
1000
0100
0010
1000
0100
0010
1000
,  // measure 66
0010
0001
1000
0010
0100
0001
0100
0010
,  // measure 67
0001
0010
1000
0001
0010
1000
0001
0100
,  // measure 68
1000
0001
0010
0001
0100
0010
1000
0001
,  // measure 69
1000
0001
0010
0001
1000
0001
0100
0001
,  // measure 70
1000
0010
0001
1000
0100
0001
1000
0001
,  // measure 71
1000
0100
0010
0001
1000
0010
0100
0001
,  // measure 72
1000
0100
0001
0100
1000
0010
0001
0010
,  // measure 73
2002
0000
0000
3003
,  // measure 74
0100
0000
1100
0011
,  // measure 75
0100
1000
0100
0010
0001
1000
0100
0010
,  // measure 76
0001
0100
0001
0010
0001
0000
0100
0001
,  // measure 77
0010
0001
0010
0100
1000
0000
0000
0000
,  // measure 78
0001
0100
0010
1000
0001
0010
0001
1000
,  // measure 79
0100
0010
0100
0010
0001
0000
0100
0001
,  // measure 80
0010
0100
1000
0010
0001
0010
1000
0010
,  // measure 81
0100
0001
0010
0001
0100
0001
1000
0100
,  // measure 82
0001
1000
0010
0001
0100
0000
0000
0000
,  // measure 83
1001
0000
0000
0000
,  // measure 84
1000
1100
0000
0001
0011
0000
1000
1100
;

//---------------dance-single - ----------------
#NOTES:
     dance-single:
     :
     Hard:
     12:
     0.901718,1.000000,0.538164,0.775321,0.100336,548.000000,59.000000,85.000000,0.000000,0.000000,0.000000,0.901718,1.000000,0.538164,0.775321,0.100336,548.000000,59.000000,85.000000,0.000000,0.000000,0.000000:
// measure 0
0000
0000
0000
0000
,  // measure 1
0000
0000
0000
0000
,  // measure 2
1000
0100
1000
0001
0200
0000
0310
1000
,  // measure 3
0100
1000
0001
0010
0001
0000
0011
0000
,  // measure 4
0010
0001
0100
0010
0100
0001
0010
0100
,  // measure 5
1000
0100
0010
0001
0100
0000
1001
0000
,  // measure 6
1000
0100
0010
0100
0002
0000
0103
1000
,  // measure 7
0010
0100
1000
0100
0002
0000
0013
0100
,  // measure 8
0010
0001
1000
0010
1000
0001
0100
0001
,  // measure 9
2000
3001
0200
0301
2000
3100
0020
0031
,  // measure 10
1000
0100
1000
0100
0010
0001
0100
0001
,  // measure 11
0010
0100
1000
0001
0200
0000
1300
0100
,  // measure 12
0001
0010
0001
0100
1001
0000
1000
0000
,  // measure 13
0001
0010
1000
0001
0100
0110
0000
0000
,  // measure 14
1000
0001
0100
0010
1000
0001
0010
0100
,  // measure 15
1000
0001
0100
0001
2000
0000
3001
0000
,  // measure 16
1000
0100
0010
0001
2000
0000
3001
0010
,  // measure 17
0100
1000
0001
1000
0100
1000
0001
0000
,  // measure 18
2002
0000
3003
1010
,  // measure 19
2002
0000
3003
0011
,  // measure 20
2002
0000
3003
0110
,  // measure 21
1001
0100
1000
0010
0100
0001
1000
0100
,  // measure 22
2002
0000
3003
0011
,  // measure 23
2002
0000
3003
1010
,  // measure 24
2002
0000
3003
0110
,  // measure 25
0100
1000
0010
1000
0001
0100
0001
0010
,  // measure 26
0001
0001
0010
0001
0100
0010
0100
0010
,  // measure 27
1000
0100
0010
0001
0010
0100
1000
0001
,  // measure 28
0100
0010
0100
0001
0010
1000
0010
0100
,  // measure 29
1000
0001
1000
0010
0001
0010
0100
0001
,  // measure 30
1000
1001
0000
1000
1010
0000
1000
0110
,  // measure 31
0000
0000
0000
0000
,  // measure 32
0001
1001
0000
0001
0011
0000
0001
0110
,  // measure 33
0000
0000
0000
0000
,  // measure 34
0100
0001
0010
0100
1000
0001
1000
0010
,  // measure 35
1000
1001
0000
0010
0110
0000
1000
1001
,  // measure 36
0001
1000
0010
0010
0200
0000
0310
1000
,  // measure 37
0100
0100
1000
0010
1000
0010
0100
0001
,  // measure 38
1001
0001
0010
0100
1000
0001
0010
0100
,  // measure 39
0001
1001
0000
0010
0110
0000
0001
1001
,  // measure 40
1000
0001
0010
0100
2000
0000
3001
0100
,  // measure 41
0010
1000
0001
0100
0001
0000
0011
0000
,  // measure 42
0100
0001
0010
0001
0010
0100
1000
0010
,  // measure 43
1000
1001
0000
0001
0011
0000
1000
1001
,  // measure 44
0001
1000
0100
0010
0002
0000
1003
0010
,  // measure 45
0100
0001
0010
0001
1000
0100
1000
0100
,  // measure 46
1001
0001
0000
0101
0001
0000
1001
0001
,  // measure 47
0000
0101
0001
0000
1000
0001
0100
0010
,  // measure 48
1001
1000
0000
1100
1000
0000
1001
1000
,  // measure 49
0000
1100
1000
0000
0001
0010
0100
1000
,  // measure 50
1001
0001
0000
0011
0001
0000
1001
0001
,  // measure 51
0000
0011
0001
0000
1000
0010
0100
0001
,  // measure 52
1001
1000
0000
1010
1000
0000
1001
1000
,  // measure 53
0000
1010
1000
0000
0100
0000
0100
0000
,  // measure 54
2000
0000
3020
0000
0230
0000
0302
0000
1003
0010
2000
0000
3020
0000
0230
0000
,  // measure 55
0302
0000
0023
0000
0230
0000
2300
0000
3001
0010
0002
0000
0203
0000
0320
0000
,  // measure 56
2030
3002
0023
0230
2300
3002
0203
0310
,  // measure 57
1000
0010
0100
0001
1000
0001
0100
0010
,  // measure 58
0100
1000
0100
0001
0010
1000
0010
0100
,  // measure 59
0001
1000
0010
0100
1000
0001
0100
0010
,  // measure 60
1000
0010
0100
0001
0010
0100
0010
0001
,  // measure 61
1000
0010
0100
0010
1000
0010
0001
0010
,  // measure 62
1000
0001
0010
1000
0010
0100
1000
0001
,  // measure 63
1000
0100
0010
0001
0010
0100
1000
0100
0010
0001
0010
0100
,  // measure 64
1000
0100
0010
0001
0010
0100
1000
0100
0010
0001
0010
0100
,  // measure 65
2000
3002
2003
3002
0023
0230
0320
0230
,  // measure 66
2300
3002
2003
3002
0023
0230
0320
0230
,  // measure 67
0302
2003
3002
2003
3020
0230
0320
0230
,  // measure 68
2300
3002
2003
3002
0023
0230
0320
0230
,  // measure 69
1300
0001
1000
0010
1000
0001
0100
0001
,  // measure 70
1000
0100
0001
0100
1000
0001
0100
0001
,  // measure 71
1000
0010
0100
0001
1000
0100
1000
1000
,  // measure 72
0100
1000
0010
0000
1000
0001
0100
0000
0001
0100
1000
0000
0100
0001
1000
0000
,  // measure 73
2002
0000
0000
3003
,  // measure 74
0100
0000
1100
0011
,  // measure 75
0100
0001
0100
0010
1000
0001
0100
0010
,  // measure 76
1000
0001
0100
0010
2000
0000
3001
1000
,  // measure 77
0010
0100
0001
1000
1001
0000
0000
0000
,  // measure 78
1000
0100
0010
0001
1000
1001
0000
0000
,  // measure 79
0010
1000
0001
0100
0020
0000
1030
0001
,  // measure 80
1000
0010
0001
0010
2000
0000
3100
0010
,  // measure 81
0001
0010
0001
0010
0100
1000
0010
0001
,  // measure 82
0010
0100
0001
0010
0100
1000
0001
0100
,  // measure 83
2002
0000
0000
3003
,  // measure 84
0100
1100
0000
0010
0011
0000
0100
1100
;

//---------------dance-single - ----------------
#NOTES:
     dance-single:
     :
     Easy:
     4:
     0.362251,0.309672,0.054729,0.072971,0.000000,264.000000,6.000000,8.000000,0.000000,0.000000,0.000000,0.362251,0.309672,0.054729,0.072971,0.000000,264.000000,6.000000,8.000000,0.000000,0.000000,0.000000:
// measure 0
0000
0000
0000
0000
,  // measure 1
0000
0000
0000
0000
,  // measure 2
1000
0000
0010
1000
,  // measure 3
0100
0000
1000
0001
,  // measure 4
0100
0000
0001
0010
,  // measure 5
0100
0000
1000
0000
,  // measure 6
0001
0010
0001
0010
,  // measure 7
0100
1000
0001
0010
,  // measure 8
0001
0010
0100
1000
,  // measure 9
0001
0000
1000
0000
,  // measure 10
0001
0001
1000
0100
,  // measure 11
1000
0001
0100
0001
,  // measure 12
0010
0100
1000
0000
,  // measure 13
0010
1000
0001
0000
,  // measure 14
1000
1000
0001
1000
,  // measure 15
0100
1000
1000
0000
,  // measure 16
0001
0100
0010
1000
,  // measure 17
0001
0000
0001
0000
,  // measure 18
1000
0000
0000
0002
,  // measure 19
1003
0000
0000
0002
,  // measure 20
1003
0000
0000
0002
,  // measure 21
1003
0100
0010
0010
,  // measure 22
0100
0000
0000
0020
,  // measure 23
0130
0000
0000
0020
,  // measure 24
0130
0000
0000
0020
,  // measure 25
0130
0100
0010
0100
,  // measure 26
1000
0010
0100
0001
,  // measure 27
1000
0010
1000
0010
,  // measure 28
0100
0001
0100
0001
,  // measure 29
1000
0010
0100
0010
,  // measure 30
1000
0000
0000
0010
0000
0000
0100
0000
,  // measure 31
0000
0000
0000
0000
,  // measure 32
0100
0000
0000
0010
0000
0000
0100
0000
,  // measure 33
0000
0000
0000
0000
,  // measure 34
0100
0001
0010
0100
,  // measure 35
1000
0000
0000
1000
0000
0000
1000
0000
,  // measure 36
0001
0100
0010
1000
,  // measure 37
0001
0100
0010
1000
,  // measure 38
0100
1000
0001
0010
,  // measure 39
0001
0000
0000
0001
0000
0000
0001
0000
,  // measure 40
1000
0100
0010
0001
,  // measure 41
0010
0001
0100
0001
,  // measure 42
1000
0100
0010
0001
,  // measure 43
1000
0000
0000
1000
0000
0000
1000
0000
,  // measure 44
0001
0010
0100
1000
,  // measure 45
0001
0010
0001
0100
,  // measure 46
0001
0000
0000
0100
0000
0000
0001
0000
,  // measure 47
0000
0010
0000
0000
0000
0000
0000
0000
,  // measure 48
1000
0000
0000
0100
0000
0000
1000
0000
,  // measure 49
0000
0010
0000
0000
0000
0000
0000
0000
,  // measure 50
1000
0000
0000
0001
0000
0000
0100
0000
,  // measure 51
0000
0001
0000
0000
0000
0000
0000
0000
,  // measure 52
1000
0000
0000
1010
0000
0000
0001
0000
,  // measure 53
0000
0011
0000
0000
1000
0000
1000
0000
,  // measure 54
0001
0000
0101
0000
,  // measure 55
1000
0000
1100
0000
,  // measure 56
1000
1000
0001
0001
,  // measure 57
1000
0100
0010
0001
,  // measure 58
0010
0001
0100
0000
,  // measure 59
0001
0100
0010
1000
,  // measure 60
0010
1000
0100
0000
,  // measure 61
1000
1000
0001
0100
,  // measure 62
0001
0010
0001
0000
,  // measure 63
1000
0001
0010
0001
,  // measure 64
1000
0100
1000
0000
,  // measure 65
0001
1000
0010
1000
,  // measure 66
0001
0100
0001
0000
,  // measure 67
0100
0100
0001
0001
,  // measure 68
1000
1000
0001
0100
,  // measure 69
0010
1000
0010
1000
,  // measure 70
0001
0100
0001
1000
,  // measure 71
0010
0100
0001
0010
,  // measure 72
0001
0100
0010
1000
,  // measure 73
2002
0000
0000
3003
,  // measure 74
0100
0000
1000
0001
,  // measure 75
0100
0100
0010
1000
,  // measure 76
0010
1000
0100
1000
,  // measure 77
0001
0100
0001
0000
,  // measure 78
1000
1000
0001
0000
,  // measure 79
1000
0010
1000
0001
,  // measure 80
1000
0100
0001
0100
,  // measure 81
0010
0001
0010
0100
,  // measure 82
1000
0010
0100
0000
,  // measure 83
1001
0000
0000
0000
,  // measure 84
1000
0001
0000
0010
0100
0000
1000
0001
;

//---------------dance-single - ----------------
#NOTES:
     dance-single:
     :
     Beginner:
     2:
     0.209793,0.231912,0.036486,0.000000,0.000000,157.000000,4.000000,0.000000,0.000000,0.000000,0.000000,0.209793,0.231912,0.036486,0.000000,0.000000,157.000000,4.000000,0.000000,0.000000,0.000000,0.000000:
// measure 0
0000
0000
0000
0000
,  // measure 1
0000
0000
0000
0000
,  // measure 2
1000
0000
0010
0000
,  // measure 3
1000
0000
0100
0000
,  // measure 4
1000
0000
0001
0000
,  // measure 5
0100
0000
0001
0000
,  // measure 6
0010
0000
0100
0000
,  // measure 7
1000
0000
0001
0000
,  // measure 8
0010
0000
0001
0000
,  // measure 9
0010
0000
0100
0000
,  // measure 10
1000
0000
0001
0000
,  // measure 11
0010
0000
0001
0000
,  // measure 12
0010
0000
0100
0000
,  // measure 13
1000
0000
0001
0000
,  // measure 14
1000
0000
0001
0000
,  // measure 15
0001
0000
1000
0000
,  // measure 16
0100
0000
1000
0000
,  // measure 17
0001
0000
0100
0000
,  // measure 18
0001
0000
0000
0000
,  // measure 19
0010
0000
0000
0000
,  // measure 20
0100
0000
0000
0000
,  // measure 21
1000
0000
0010
0000
,  // measure 22
1000
0000
0000
0000
,  // measure 23
0001
0000
0000
0000
,  // measure 24
1000
0000
0000
0000
,  // measure 25
1000
0000
0001
0000
,  // measure 26
1000
0000
0100
0000
,  // measure 27
1000
0000
1000
0000
,  // measure 28
0001
0000
0100
0000
,  // measure 29
0010
0000
1000
0000
,  // measure 30
0001
0000
0000
0001
0000
0000
1000
0000
,  // measure 31
0000
0000
0000
0000
,  // measure 32
1000
0000
0000
1000
0000
0000
0001
0000
,  // measure 33
0000
0000
0000
0000
,  // measure 34
0001
0000
1000
0000
,  // measure 35
0001
0000
0000
1000
0000
0000
1000
0000
,  // measure 36
0100
0000
0010
0000
,  // measure 37
0010
0000
0001
0000
,  // measure 38
0010
0000
0100
0000
,  // measure 39
1000
0000
0000
0100
0000
0000
0010
0000
,  // measure 40
0001
0000
0010
0000
,  // measure 41
0100
0000
1000
0000
,  // measure 42
0100
0000
1000
0000
,  // measure 43
0010
0000
0000
0100
0000
0000
0001
0000
,  // measure 44
1000
0000
0010
0000
,  // measure 45
1000
0000
0010
0000
,  // measure 46
0100
0000
0000
0001
0000
0000
0100
0000
,  // measure 47
0000
0001
0000
0000
0000
0000
0000
0000
,  // measure 48
1000
0000
0000
0010
0000
0000
1000
0000
,  // measure 49
0000
0010
0000
0000
0000
0000
0000
0000
,  // measure 50
1000
0000
0000
0010
0000
0000
0100
0000
,  // measure 51
0000
0001
0000
0000
0000
0000
0000
0000
,  // measure 52
0100
0000
0000
0010
0000
0000
0100
0000
,  // measure 53
0000
0010
0000
0000
0000
0000
0000
0000
,  // measure 54
0100
0000
0000
0000
,  // measure 55
0001
0000
0000
0000
,  // measure 56
0010
0000
0000
0000
,  // measure 57
0100
0000
1000
0000
,  // measure 58
0001
0000
1000
0000
,  // measure 59
0001
0000
0100
0000
,  // measure 60
0010
0000
1000
0000
,  // measure 61
0001
0000
0100
0000
,  // measure 62
0010
0000
1000
0000
,  // measure 63
0100
0000
1000
0000
,  // measure 64
0001
0000
0010
0000
,  // measure 65
0001
0000
1000
0000
,  // measure 66
0001
0000
1000
0000
,  // measure 67
0100
0000
0010
0000
,  // measure 68
0001
0000
0010
0000
,  // measure 69
0001
0000
0100
0000
,  // measure 70
0001
0000
1000
0000
,  // measure 71
0100
0000
0010
0000
,  // measure 72
0001
0000
1000
0000
,  // measure 73
1001
0000
0000
0000
,  // measure 74
0100
0000
0001
0000
,  // measure 75
0010
0000
0100
0000
,  // measure 76
1000
0000
0001
0000
,  // measure 77
0010
0000
0001
0000
,  // measure 78
0100
0000
0001
0000
,  // measure 79
0100
0000
0001
0000
,  // measure 80
1000
0000
0001
0000
,  // measure 81
0100
0000
0001
0000
,  // measure 82
0010
0000
0001
0000
,  // measure 83
1000
0000
0000
0000
,  // measure 84
1001
0000
0000
1001
0000
0000
1001
0000
;

//---------------dance-single - ----------------
#NOTES:
     dance-single:
     :
     Challenge:
     15:
     0.989023,1.000000,0.483435,0.127700,0.665864,692.000000,53.000000,14.000000,0.000000,0.000000,0.000000,0.989023,1.000000,0.483435,0.127700,0.665864,692.000000,53.000000,14.000000,0.000000,0.000000,0.000000:
// measure 0
0000
0000
0000
0000
,  // measure 1
0000
0000
0000
0000
,  // measure 2
1000
0000
0100
0000
1000
0000
0001
0000
1000
0010
1000
0000
0001
0010
0001
0000
,  // measure 3
1000
0000
0010
0000
0100
0000
0001
0000
0010
0001
0100
0000
0001
0000
1000
0000
,  // measure 4
0001
0000
0010
0000
0001
0000
0100
0000
0010
1000
0100
0000
0010
0000
0001
0000
,  // measure 5
1000
0000
0001
0000
0100
0000
0001
0000
1000
0010
1000
0000
0001
0010
0001
0000
,  // measure 6
1000
0000
0100
0000
0010
0000
0001
0000
0010
0100
1000
0000
0001
0000
0010
0000
,  // measure 7
0100
0000
1000
0000
0100
0000
0010
0000
0001
0100
0010
0000
1000
0000
0001
0000
,  // measure 8
1000
0000
0100
0000
1000
0000
0001
0000
0100
0001
0010
0000
0001
0000
1000
0000
,  // measure 9
0001
0000
0100
0000
0001
0000
1000
0000
0001
0010
0100
0000
1000
0010
0100
0000
,  // measure 10
0001
0000
1000
0000
0010
0000
0100
0000
0010
0100
1000
0000
0100
0000
0010
0000
,  // measure 11
1000
0000
0001
0000
1000
0000
0010
0000
0100
0001
1000
0000
0100
0000
1000
0000
,  // measure 12
0001
0000
0010
0000
0100
0000
1000
0000
0001
0100
1000
0000
0100
0000
0010
0000
,  // measure 13
1000
0000
0100
0000
0010
0000
0100
0000
1000
0001
0100
0000
0001
0010
0100
0000
,  // measure 14
0010
0000
0001
0000
1000
0000
0010
0000
1000
0100
1000
0000
0001
0010
0100
0000
,  // measure 15
1000
0000
0100
0000
0010
0000
0001
0000
1000
0010
1000
0000
0001
0010
1000
0000
,  // measure 16
0010
0000
0001
0000
1000
0000
0001
0000
1000
0001
0100
0000
0001
0000
1000
0000
,  // measure 17
0001
0000
0010
0000
0001
0000
1000
0000
0001
0010
0100
0000
1000
0000
0000
0000
,  // measure 18
2002
0000
3003
1010
,  // measure 19
2002
0000
3003
0011
,  // measure 20
2002
0000
3003
0110
,  // measure 21
1001
0000
1000
0010
0100
0001
0010
0100
1000
0001
1000
0010
0100
0001
1000
0000
,  // measure 22
2002
0000
3003
1100
,  // measure 23
2002
0000
3003
0101
,  // measure 24
2002
0000
3003
0110
,  // measure 25
1000
0001
0100
0010
1000
0001
0010
0001
,  // measure 26
0100
0000
1000
0000
0100
0000
0001
0000
1000
0100
0010
0000
0001
0010
0100
0000
,  // measure 27
1000
0000
0010
0000
0100
0000
0001
0000
0010
0001
0100
0000
1000
0100
0001
0000
,  // measure 28
1000
0000
0001
0000
0100
0000
0010
0000
0100
0001
0010
0000
1000
0010
0001
0000
,  // measure 29
0010
0000
0100
0000
1000
0000
0001
0000
1000
0010
0001
0000
0001
0010
1000
0000
,  // measure 30
0100
0110
0000
1000
1001
0000
0100
0110
,  // measure 31
0000
0000
0000
0000
,  // measure 32
0010
0110
0000
0001
1001
0000
0010
0110
,  // measure 33
0100
0001
0010
0001
1001
0100
1000
0001
,  // measure 34
1000
0100
1000
0010
0100
0001
1000
0001
,  // measure 35
1000
1001
0000
0010
0011
0000
1000
1001
,  // measure 36
0001
0000
0010
0000
0100
0000
0100
0000
0010
0001
1000
0000
0100
0000
0010
0000
,  // measure 37
0001
0000
0100
0000
0010
0000
1000
0000
0100
1000
0001
0000
0010
0000
0100
0000
,  // measure 38
1000
0001
0010
0001
0100
0100
0010
1000
,  // measure 39
0001
1001
0000
0010
1010
0000
0001
1001
,  // measure 40
1000
0000
0010
0000
0100
0000
0001
0000
1000
0010
0100
0000
0001
0100
1000
0000
,  // measure 41
0001
0000
0010
0000
1000
0000
0100
0000
0010
0001
0100
0000
0001
0000
0010
0000
,  // measure 42
0100
0000
1000
0000
0001
0000
0100
0000
0001
1000
0100
0000
1000
0000
0010
0000
,  // measure 43
1000
1001
0000
0010
0011
0000
1000
1001
,  // measure 44
0001
0000
0100
0000
0010
0000
1000
0000
0001
0100
0010
0000
1000
0000
0001
0000
,  // measure 45
0010
0000
0100
0000
1000
0000
0001
0000
1000
0001
0100
0000
0001
1000
0100
0000
,  // measure 46
0011
0000
0000
1010
0000
0000
1100
0000
,  // measure 47
0000
0000
0011
0000
0000
0000
0000
0000
0010
0001
0100
0000
0001
0000
0100
0000
,  // measure 48
0101
0000
0000
1001
0000
0000
1100
0000
,  // measure 49
0000
0000
1001
0000
0000
0000
0000
0000
1000
0001
0100
0000
0010
1000
0100
1000
,  // measure 50
1001
0000
0000
0110
0000
0000
1001
0000
,  // measure 51
0000
0000
0110
0000
0000
0000
0000
0000
0001
1000
0100
0000
0010
0001
0100
0001
,  // measure 52
1001
0000
0000
0110
0000
0000
1001
0000
,  // measure 53
0000
0110
0000
0000
1000
0001
1000
0001
,  // measure 54
1000
0100
0010
0001
0100
0001
0010
0100
1000
0001
0100
0010
,  // measure 55
1000
0100
1000
0010
0100
0001
0010
0001
0100
0001
1000
0100
,  // measure 56
0001
0100
1000
0001
1000
0010
0100
0001
0010
0001
0100
0010
,  // measure 57
1000
0000
0001
0000
1000
0000
0100
0000
1000
0010
0100
0000
0001
0000
1000
0000
,  // measure 58
0001
0000
0100
0000
0001
0000
1000
0000
0100
1000
0001
0000
0010
0001
0100
0000
,  // measure 59
0001
0000
0010
0000
0100
0000
1000
0000
0001
1000
0010
0000
0100
0000
0001
0000
,  // measure 60
1000
0000
0010
0000
0100
0000
0001
0000
1000
0001
0010
0000
0001
1000
0010
0000
,  // measure 61
0100
0000
0001
0000
1000
0000
0001
0000
0100
0001
1000
0000
0010
1000
0001
0000
,  // measure 62
0100
0000
0010
0000
1000
0000
0001
0000
0010
0100
1000
0000
0010
0100
0001
0000
,  // measure 63
1000
0100
0010
0001
0010
0100
1000
0100
0010
0001
0010
0100
1000
0100
0010
0001
,  // measure 64
0010
0100
1000
0100
0010
0001
0010
0100
1000
0100
0010
0001
0010
0100
1000
0100
,  // measure 65
1000
0100
1000
0000
0100
1000
0001
0000
0100
0001
1000
0000
0100
1000
0001
0000
,  // measure 66
0010
0001
0100
0000
0001
1000
0010
0000
1000
0010
1000
0000
0010
1000
0100
0000
,  // measure 67
1000
0001
0010
0000
1000
0001
0100
0000
1000
0010
0100
0000
0001
0100
0010
0000
,  // measure 68
0100
0001
1000
0000
0010
1000
0001
0000
1000
0010
1000
0000
0001
0010
0001
0000
,  // measure 69
0010
0000
0001
0000
0100
0000
0001
0000
1000
0010
0100
0000
0001
0000
1000
0000
,  // measure 70
0010
0000
0100
0000
0001
0000
1000
0000
0001
0010
0100
0000
1000
0000
0001
0000
,  // measure 71
0010
0000
0100
0000
1000
0000
0001
0000
1000
0010
0100
0000
0001
0000
1000
0000
,  // measure 72
0100
1000
0010
1000
0001
0100
0001
1000
0010
0100
1000
0100
0001
0100
1000
0100
,  // measure 73
2002
0000
0000
3003
,  // measure 74
0100
0000
0000
0000
1000
0001
0010
0100
,  // measure 75
1000
0001
0010
0000
0001
0000
0100
0000
0001
1000
0100
0000
1000
0001
0100
0000
,  // measure 76
0001
0000
0010
0000
0001
0000
1000
0000
0001
0010
0001
1000
0010
0000
0100
0000
,  // measure 77
0001
0000
0010
0000
0100
0000
1000
0000
0001
1000
0001
0000
0100
0000
0001
0000
,  // measure 78
1000
0000
0010
0000
0100
0000
0001
0000
1000
0010
1000
0001
0010
0000
0100
0000
,  // measure 79
1000
0000
0010
0000
0100
0000
0001
0000
1000
0001
1000
0000
0100
0000
1000
0000
,  // measure 80
0001
0000
0001
0000
1000
0000
0100
0000
0001
0100
1000
0000
1000
0100
0001
0000
,  // measure 81
1000
0000
0001
0000
0100
0000
0010
0000
1000
0010
0001
0000
0001
0010
1000
0000
,  // measure 82
0001
0000
0010
0000
0100
0000
1000
0000
0001
0010
0001
1000
0010
1000
0001
0010
,  // measure 83
1001
0000
0000
0000
,  // measure 84
1100
1100
0000
0011
0011
0000
1100
1100
;
