#TITLE:Dignity Full Remix;
#SUBTITLE:;
#ARTIST:Crash;
#TITLETRANSLIT:;
#SUBTITLETRANSLIT:;
#ARTISTTRANSLIT:;
#GENRE:;
#CREDIT:;
#BANNER:Dignity (Full Remix)-banner.png;
#BACKGROUND:Dignity (Full Remix)-bg.png;
#LYRICSPATH:;
#CDTITLE:;
#MUSIC:Dignity (Full Remix).ogg;
#OFFSET:-0.436000;
#SAMPLESTART:52.116974;
#SAMPLELENGTH:12.000000;
#SELECTABLE:YES;
#BPMS:0.000000=195.000000
;
#STOPS:440.000000=0.308000
;
#BGCHANGES:0.000=Remix Fiesta V2.avi=1.000=0=0=1=====,
99999=-nosongbg-=1.000=0=0=0 // don't automatically add -songbackground-
;
#KEYSOUNDS:;
#ATTACKS:;

//---------------dance-single - ----------------
#NOTES:
     dance-single:
     :
     Hard:
     10:
     0.816537,0.792691,0.361267,0.238694,0.006451,793.000000,56.000000,37.000000,0.000000,0.000000,0.000000,0.816537,0.792691,0.361267,0.238694,0.006451,793.000000,56.000000,37.000000,0.000000,0.000000,0.000000:
// measure 0
0000
0000
0000
0000
,  // measure 1
0000
0000
0000
0000
,  // measure 2
1000
0100
1000
0001
1000
0010
1000
0010
,  // measure 3
0100
0001
0010
0001
0100
0000
0011
0000
,  // measure 4
0100
0010
0001
1000
0010
0100
0001
1000
,  // measure 5
0010
0100
0010
1000
0001
0000
1010
0000
,  // measure 6
1000
0010
0100
0001
1000
0000
0101
0000
,  // measure 7
0001
0010
0100
1000
0001
0000
1100
0000
,  // measure 8
0001
0010
0001
1000
0010
1000
0001
0010
,  // measure 9
0100
1000
0001
1001
,  // measure 10
0100
1000
0010
1000
0001
0100
0010
1000
,  // measure 11
0100
0010
0001
1000
0001
0010
0001
0000
,  // measure 12
1000
0010
1000
0001
0100
0000
0001
0010
,  // measure 13
0001
1000
0100
1000
0010
0100
0001
0000
,  // measure 14
0001
1000
0010
1000
0001
1000
0100
0010
,  // measure 15
0001
1000
0010
0100
0001
0000
0001
0100
,  // measure 16
0001
1000
0001
0100
0010
0000
0010
0100
,  // measure 17
0001
0000
0001
1000
0100
0010
0100
0000
,  // measure 18
2002
0000
3003
1010
,  // measure 19
2002
0000
3003
0011
,  // measure 20
2002
0000
3003
0110
,  // measure 21
1000
0001
0000
0000
0100
0000
0010
0000
1000
0000
0000
0000
0002
0000
0000
0003
,  // measure 22
1000
0001
0010
0100
0010
0001
0100
0010
,  // measure 23
1000
1000
0010
0100
0001
1000
0010
1000
,  // measure 24
0010
0001
0010
1000
0010
0100
0001
1000
,  // measure 25
0001
0100
0001
1000
0010
0001
1000
0100
,  // measure 26
0001
1000
0001
0100
0010
1000
0001
0000
,  // measure 27
0010
0000
0010
0001
0100
0010
1000
0001
,  // measure 28
1000
0010
1000
0010
0100
0010
1000
0001
,  // measure 29
0100
0010
1000
0001
,  // measure 30
1000
0001
0100
0010
1000
0001
0010
0001
,  // measure 31
0100
0000
0100
0001
1000
0010
1000
0001
,  // measure 32
1000
0100
1000
0001
0010
0100
0010
0001
,  // measure 33
1000
0100
1000
0001
1000
0100
0001
0100
,  // measure 34
1000
0010
0100
0001
0010
0100
1000
0001
,  // measure 35
1000
0010
0100
0001
0100
0010
1000
0100
,  // measure 36
1000
0000
0001
1000
0010
0100
0001
0010
,  // measure 37
0110
1000
0001
1000
,  // measure 38
0001
1000
0100
0010
0001
0100
0010
1000
,  // measure 39
0100
0000
0100
1000
0010
0100
0010
1000
,  // measure 40
0001
0100
0001
1000
0010
0100
0010
1000
,  // measure 41
0001
0100
0001
1000
0010
1000
1001
0000
,  // measure 42
2002
0000
3003
0011
,  // measure 43
2002
0000
3003
1010
,  // measure 44
2002
0000
3003
0110
,  // measure 45
2002
0000
3003
0100
,  // measure 46
2002
0000
3003
1100
,  // measure 47
2002
0000
3003
0101
,  // measure 48
2002
0000
3003
0100
,  // measure 49
0001
1000
0010
0100
0010
1000
0100
0010
,  // measure 50
0001
0001
0010
0001
0100
0001
0010
0001
,  // measure 51
0010
1000
0010
0001
0010
0100
1000
0010
,  // measure 52
1000
0100
1000
0001
0010
1000
0001
0100
,  // measure 53
1000
0001
1000
0010
0001
1000
0100
0001
,  // measure 54
1000
0100
0000
1000
0001
0000
1000
0100
,  // measure 55
0000
0000
0000
0000
,  // measure 56
0001
0100
0000
0001
1000
0000
0001
0100
,  // measure 57
0000
0010
1000
0001
,  // measure 58
0001
0100
0010
1000
0001
0100
0001
1000
,  // measure 59
0001
0100
0100
0001
1000
1000
0001
0100
,  // measure 60
0010
1000
0001
1000
0100
0000
1000
0010
,  // measure 61
0100
0100
0001
0010
0001
0010
1000
0010
,  // measure 62
0100
1000
0010
0100
0001
0001
0100
0010
,  // measure 63
1000
0100
0100
1000
0001
0001
1000
0100
,  // measure 64
0010
0001
1000
0001
0100
0000
0010
1000
,  // measure 65
0001
0010
0100
1000
0001
0000
1000
0000
,  // measure 66
0100
1000
0010
1000
0001
0100
0001
0010
,  // measure 67
0001
0100
0100
0001
1000
1000
0001
0100
,  // measure 68
0010
1000
0001
1000
0100
0000
1000
0010
,  // measure 69
0100
0001
0010
0001
1000
0001
1000
0100
,  // measure 70
1000
0100
0010
0001
1000
0001
0100
0001
,  // measure 71
1000
0100
0100
0010
0001
0001
0010
0100
,  // measure 72
1000
0010
0100
0001
0010
0001
1000
0001
,  // measure 73
1000
0100
0001
0100
1000
0001
1001
0000
,  // measure 74
1000
1100
0000
1000
1001
0000
1000
1100
,  // measure 75
0000
1000
1001
0000
0001
0010
0100
1000
,  // measure 76
0001
0101
0000
0001
1001
0000
0001
0101
,  // measure 77
0000
0001
1001
0000
1000
0100
1000
0001
,  // measure 78
0010
0011
0000
0001
1001
0000
0010
1010
,  // measure 79
0000
1000
1001
0000
0001
0100
0001
1000
,  // measure 80
0010
1010
0000
1000
1001
0000
0010
0011
,  // measure 81
0000
0001
1001
0000
0100
0001
1000
0010
,  // measure 82
2000
3020
0230
0302
,  // measure 83
2003
3002
0203
0320
,  // measure 84
2030
0000
3020
0000
1030
0002
0000
0000
,  // measure 85
0013
0100
1000
0010
0100
1000
0100
0001
,  // measure 86
0010
0001
0100
0001
0010
0100
0010
0001
,  // measure 87
0100
0001
0010
0001
0100
0010
1000
0001
,  // measure 88
0100
0001
0010
0100
1000
0100
0001
0100
,  // measure 89
0010
0100
1000
0001
1000
0010
0100
0001
,  // measure 90
0010
0001
0100
0010
0100
0001
0100
1000
,  // measure 91
0001
0010
1000
0001
1000
0100
0010
0001
,  // measure 92
0100
0001
0010
0001
0010
0100
1000
0010
,  // measure 93
0100
1000
0100
0010
1000
0100
0010
1000
,  // measure 94
0010
0001
1000
0010
0100
0001
0100
0010
,  // measure 95
0001
0010
1000
0001
0010
1000
0001
0100
,  // measure 96
1000
0001
0010
0001
0100
0010
1000
0001
,  // measure 97
1000
0001
0010
0001
1000
0001
0100
0001
,  // measure 98
1000
0010
0001
1000
0100
0001
1000
0001
,  // measure 99
1000
0100
0010
0001
1000
0010
0100
0001
,  // measure 100
1000
0100
0001
0100
1000
0010
0001
0010
,  // measure 101
2002
0000
0000
3003
,  // measure 102
0200
0000
0000
0300
1000
0001
1000
0001
,  // measure 103
1000
0010
1000
0001
0010
0010
0001
1000
,  // measure 104
0100
1000
0001
0010
0001
0001
0010
0001
,  // measure 105
0010
0100
1000
0010
0100
0001
0010
0001
,  // measure 106
1000
0100
0010
0001
0100
0010
1000
0001
,  // measure 107
1000
0100
0010
0100
1000
1000
0001
0010
,  // measure 108
0001
1000
0010
0100
0001
0001
1000
0010
,  // measure 109
1000
0001
0010
0100
0010
0001
0100
0001
,  // measure 110
1001
0000
0000
0000
0001
0000
1000
0100
1000
0000
0001
0000
0100
0000
0001
0000
,  // measure 111
0100
0001
0010
0100
1000
0001
0010
0100
,  // measure 112
1000
0010
1000
1000
0100
1000
0010
1000
,  // measure 113
0010
0100
0001
1000
1001
0000
0001
0100
,  // measure 114
0010
1000
0001
1000
0010
0100
0001
1000
,  // measure 115
0010
1000
0001
0001
0100
0001
1000
0010
,  // measure 116
1000
0010
0001
0010
1000
0010
0100
0001
,  // measure 117
0010
0001
0100
0001
1000
0100
0001
1000
,  // measure 118
0010
0001
1001
0000
0000
0000
2002
0000
,  // measure 119
0000
0000
0000
0000
3003
0000
1000
1100
,  // measure 120
0000
0001
0011
0000
1000
1010
0000
0001
,  // measure 121
0101
0000
1000
1010
0000
0001
0011
0000
,  // measure 122
1000
1100
0000
0001
0101
0000
0100
1001
;

//---------------dance-single - ----------------
#NOTES:
     dance-single:
     :
     Challenge:
     14:
     1.000000,1.000000,0.438681,0.141926,0.603187,1012.000000,68.000000,22.000000,0.000000,0.000000,0.000000,1.000000,1.000000,0.438681,0.141926,0.603187,1012.000000,68.000000,22.000000,0.000000,0.000000,0.000000:
0000
0000
0000
0000
,
0000
0000
0000
0000
,
1000
0000
0100
0000
1000
0000
0001
0000
1000
0010
1000
0000
0001
0010
0001
0000
,
1000
0000
0010
0000
0100
0000
0001
0000
0010
0001
0100
0000
0001
0000
1000
0000
,
0001
0000
0010
0000
0001
0000
0100
0000
0010
1000
0100
0000
0010
0000
0001
0000
,
1000
0000
0001
0000
0100
0000
0001
0000
1000
0010
1000
0000
0001
0010
0001
0000
,
1000
0000
0100
0000
0010
0000
0001
0000
0010
0100
1000
0000
0001
0000
0010
0000
,
0100
0000
1000
0000
0100
0000
0010
0000
0001
0100
0010
0000
1000
0000
0001
0000
,
1000
0000
0100
0000
1000
0000
0001
0000
0100
0001
0010
0000
0001
0000
1000
0000
,
0001
0000
0100
0000
0001
0000
1000
0000
0001
0000
0100
0001
0100
0001
0100
0001
,
1000
0000
0001
0000
1000
0000
0010
0000
1000
0010
0001
0000
1000
0000
0100
0000
,
0001
0000
1000
0000
0001
0000
0010
0000
0100
1000
0010
0000
1000
0000
0001
0000
,
1000
0000
0010
0000
0100
0000
0001
0000
1000
0100
0001
0000
0100
0000
0010
0000
,
0001
0000
0100
0000
1000
0000
0100
0000
0010
1000
0001
0000
0100
0001
1000
0000
,
0100
0000
1000
0000
0010
0000
1000
0000
0001
0100
0001
0000
1000
0010
0100
0000
,
0001
0000
0100
0000
0010
0000
1000
0000
0001
0010
0001
0000
1000
0010
0001
0000
,
0010
0000
1000
0000
0100
0000
1000
0000
0010
0100
0001
0000
0100
0000
0010
0000
,
1000
0000
0010
0000
1000
0000
0001
0000
0010
0001
1000
0100
1100
0000
0000
0000
,
1000
0000
0001
0000
1000
0100
1000
0000
0001
0000
1000
0000
0001
0010
0001
0000
,
1000
0000
0001
0000
0010
0001
1000
0000
0001
0000
0100
0000
0001
0010
0100
0000
,
1000
0000
0001
0000
0100
0001
1000
0000
0001
0000
1000
0000
0100
1000
0001
0000
,
1000
0001
0000
0000
1000
0000
0001
0000
1000
0010
0100
0001
0010
0001
0100
0001
,
1000
0010
0100
0001
1000
0100
0010
0001
,
1000
0000
0001
0000
0100
0000
0001
0000
1000
0000
1010
0000
0100
1000
0010
0000
,
1000
0000
0001
0000
0100
0000
0010
0000
0100
0001
0010
0000
0001
1000
0100
0000
,
0001
0000
0100
0000
1000
0000
0001
0000
1000
0000
1100
0000
0001
0010
0100
0000
,
1000
0000
0100
0000
1000
0000
0001
0000
0010
0001
0100
0000
0010
0000
1000
0000
,
0001
0000
0001
0000
0010
0000
0001
0000
1000
0010
0100
0000
0001
1000
0100
0000
,
1000
0000
0100
0000
0010
0000
0001
0000
0100
0001
1000
0000
0001
0000
0010
0000
,
0100
0000
1000
0000
0001
0000
1000
0000
0001
0100
0010
0000
1000
0100
0010
0000
,
0001
0100
0010
1000
0001
0001
0010
0001
,
0100
0000
0010
0000
1000
0000
0001
0000
0010
0001
0100
0000
0010
1000
0100
0000
,
1000
0100
0010
0100
1000
0001
0010
0001
,
1000
0000
0001
0000
0010
0000
0100
0000
1000
0000
0100
1000
0100
1000
0100
1000
,
0001
0010
0001
0010
0100
1000
0001
0100
,
0010
0000
0010
0000
0100
0000
0001
0000
0010
0001
0100
0000
0010
1000
0100
0000
,
1000
0100
0010
0001
0010
0001
0100
0001
,
1000
0000
0010
0000
0100
0000
0001
0000
1000
0010
0100
0000
0001
0010
0100
0000
,
1000
0001
0100
0001
1000
0000
1001
0000
,
0001
1000
0100
1000
0001
0000
1001
0000
,
0001
0010
0100
1000
0001
0000
1001
0000
,
0001
0010
0100
1000
0001
0100
1001
0000
,
2002
0000
3003
1010
,
2002
0000
3003
0011
,
2002
0000
3003
0110
,
2002
0000
0000
3003
,
2002
0000
3003
0011
,
2002
0000
3003
1010
,
2002
0000
3003
0110
,
1000
0001
0100
0010
1000
0001
0010
0001
,
0100
0000
1000
0000
0100
0000
0001
0000
1000
0010
0100
0000
0001
0010
0100
0000
,
1000
0000
0010
0000
0100
0000
0001
0000
0010
0001
0100
0000
1000
0100
0001
0000
,
1000
0000
0001
0000
0100
0000
0010
0000
0100
0001
0010
0000
1000
0010
0001
0000
,
0010
0000
0100
0000
1000
0000
0001
0000
1000
0010
0001
0000
1000
0100
0001
0000
,
2000
3001
0000
0002
0013
0000
2000
3001
,
0000
0000
0000
0000
,
0001
1001
0000
0001
0011
0000
0001
1001
,
0100
0001
0010
0001
1001
0100
1000
0001
,
1000
0100
1000
0010
0100
0001
1000
0001
,
1000
1001
0000
0001
0011
0000
0001
1001
,
1000
0000
0001
0000
0100
0000
0001
0000
1000
0001
0100
0000
0001
0000
0010
0000
,
0100
0000
1000
0000
0010
0000
1000
0000
0010
1000
0001
0000
0010
0000
0100
0000
,
1000
0001
1000
0001
0100
0100
0010
1000
,
0001
1001
0000
1000
1010
0000
1000
1001
,
0001
0000
1000
0000
0010
0000
0001
0000
1000
0100
0001
0000
0010
0001
0100
0000
,
0010
0000
1000
0000
0001
0000
0100
0000
0010
1000
0100
0000
1000
0000
0010
0000
,
0100
0000
0001
0000
1000
0000
0010
0000
1000
0001
0100
0000
0001
1000
0100
0000
,
1000
1001
0000
0001
0011
0000
0001
1001
,
1000
0010
1000
0100
0010
0100
1000
0001
,
1000
0100
0010
0001
1000
0010
0100
0001
,
1000
1000
0010
0100
0001
0100
0001
1000
,
0001
1001
0000
1000
1010
0000
1000
1001
,
0001
1000
0001
0100
0010
1000
0001
0100
,
0001
0010
0100
0010
0001
1000
1001
0000
,
0011
0000
0000
1010
0000
0000
1100
0000
,
0000
0000
0011
0000
0000
0000
0000
0000
0010
0001
0100
0000
0001
0000
0100
0000
,
0101
0000
0000
1001
0000
0000
1100
0000
,
0000
0000
1001
0000
0000
0000
0000
0000
1000
0001
0100
0000
0010
1000
0100
1000
,
1001
0000
0000
0110
0000
0000
1001
0000
,
0000
0000
0110
0000
0000
0000
0000
0000
0001
1000
0100
0000
0010
0001
0100
0001
,
1001
0000
0000
0110
0000
0000
1001
0000
,
0000
0110
0000
0000
1000
0001
1000
0001
,
1000
0100
0010
0001
0100
0001
0010
0100
1000
0001
0100
0010
,
1000
0100
1000
0010
0100
0001
0010
0001
0100
0001
1000
0100
,
0001
0100
1000
0001
1000
0010
0100
0001
0010
0001
0100
0000
,
0001
0000
1000
0000
0001
0000
0100
0000
0001
0010
0100
0000
1000
0000
0001
0000
,
1000
0000
0100
0000
1000
0000
0001
0000
0100
0001
0010
0000
0001
1000
0100
0000
,
1000
0000
0010
0000
0100
0000
0001
0000
0100
0010
1000
0000
0001
0000
0100
0000
,
0001
0000
0010
0000
0100
0000
1000
0000
0100
0010
0001
0000
0100
0010
1000
0000
,
0001
0000
0100
0000
0010
0000
1000
0000
0001
1000
0010
0000
1000
0001
0100
0000
,
0001
0000
0010
0000
0100
0000
0010
0000
0001
0100
0001
0000
1000
0100
1000
0000
,
0001
0010
0001
1000
0010
1000
0001
0100
0001
1000
0100
1000
0001
0010
0001
1000
,
0010
1000
0001
0100
0001
1000
0100
1000
0001
0010
0001
1000
0010
1000
0001
0010
,
0100
1000
0001
0000
0100
0001
0010
0000
0100
1000
0001
0000
0100
0001
1000
0000
,
0010
1000
0100
0000
1000
0001
0010
0000
0001
0010
0001
0000
0010
0001
0100
0000
,
0001
1000
0010
0000
1000
0001
0100
0000
0010
0100
0001
0000
0100
0001
1000
0000
,
0100
1000
0001
0000
0010
0100
1000
0000
0001
0010
0001
0000
1000
0010
1000
0000
,
0010
0000
0100
0000
0001
0000
1000
0000
0001
0010
0100
0000
1000
0000
0001
0000
,
0010
0000
0100
0000
1000
0000
0001
0000
1000
0010
0100
0000
0001
0000
1000
0000
,
0010
0000
0100
0000
0001
0000
1000
0000
0001
0100
0010
0000
1000
0000
0001
0000
,
0100
0001
1000
0010
0100
0001
0100
0001
1000
0010
0100
0001
1000
0010
0100
0001
,
2002
0000
0000
3003
,
0200
0000
0000
0300
1000
0001
0010
0100
,
1000
0010
0100
0000
0001
0000
0010
0000
0001
0010
0001
0000
1000
0010
1000
0000
,
0001
0000
1000
0000
0010
0000
0100
0000
0001
0100
0010
0000
1000
0001
0010
0000
,
0100
0000
0010
0000
0001
0000
1000
0000
0100
1000
0010
0000
1000
0001
0100
0000
,
0001
0010
0001
0000
1000
0010
1000
0000
0001
0100
0001
0000
1000
0100
1000
0000
,
0001
0000
0010
0000
0100
0000
1000
0000
0001
1000
0001
0000
0100
0000
0001
0000
,
1000
0000
1000
0000
0001
0000
0100
0000
0001
0100
1000
0000
1000
0100
0001
0000
,
1000
0000
0001
0000
0100
0000
0010
0000
1000
0010
1000
0000
0001
0010
0001
0000
,
1001
0000
0000
0000
0001
0000
1000
0100
1000
0000
0001
0000
0010
0000
0001
0000
,
1000
0010
0001
0000
1000
0010
1000
0000
0010
1000
0100
0000
0010
0000
0001
0000
,
0100
0000
0001
0000
1000
0010
0001
0000
1000
0100
0001
0000
1000
0000
0100
0000
,
0010
0000
0001
0000
1000
0100
0010
0000
0010
0100
1000
0000
0001
0000
0100
0000
,
0010
0000
1000
0000
0100
1000
0001
0000
0100
0001
1000
0000
0100
0000
0010
0000
,
0001
0000
1000
0000
0010
0100
0001
0000
0001
0100
0010
0000
1000
0000
0001
0000
,
1000
0000
0001
0000
1000
0010
0001
0000
0001
0010
1000
0000
0001
0000
0010
0000
,
0100
0000
1000
0000
0010
1000
0001
0000
0010
0001
1000
0000
0100
0000
0010
0000
,
0001
0000
1000
0000
0001
0010
0001
1000
0010
1000
0001
0000
2002
0000
0000
0000
,
0000
0000
0000
0000
3003
0000
1000
1001
,
0000
1000
1010
0000
1000
1001
0000
1100
,
1001
0000
0001
1001
0000
0001
0011
0000
,
0001
1001
0000
0101
1001
0000
1001
1001
;
