#VERSION:0.81;
#TITLE:Dance All Night;
#SUBTITLE:;
#ARTIST:Oscillator X;
#TITLETRANSLIT:;
#SUBTITLETRANSLIT:;
#ARTISTTRANSLIT:;
#GENRE:;
#ORIGIN:;
#CREDIT:;
#BANNER:Dance All Night.png;
#BACKGROUND:Dance All Night-bg.png;
#PREVIEWVID:;
#JACKET:;
#CDIMAGE:;
#DISCIMAGE:;
#LYRICSPATH:;
#CDTITLE:;
#MUSIC:Dance All Night.ogg;
#OFFSET:0.000000;
#SAMPLESTART:84.000000;
#SAMPLELENGTH:18.000000;
#SELECTABLE:YES;
#BPMS:0.000=140.000;
#STOPS:;
#DELAYS:;
#WARPS:;
#TIMESIGNATURES:0.000=4=4;
#TICKCOUNTS:0.000=4;
#COMBOS:0.000=1;
#SPEEDS:0.000=1.000=0.000=0;
#SCROLLS:0.000=1.000;
#FAKES:;
#LABELS:0.000=Song Start;
#BGCHANGES:-10000.000=songbackground=1.000=0=0=1=====,
-0.200=Dance All Night.avi=1.000=1=0=1===CrossFade==,
0.000=Dance All Night.avi=1.000=0=0=0=StretchNoLoop====,
99999=-nosongbg-=1.000=0=0=0 // don't automatically add -songbackground-
;
#KEYSOUNDS:;
#ATTACKS:
;

//---------------dance-single - ----------------
#NOTEDATA:;
#CHARTNAME:;
#STEPSTYPE:dance-single;
#DESCRIPTION:;
#CHARTSTYLE:;
#DIFFICULTY:Hard;
#METER:10;
#RADARVALUES:0.660913,0.567510,0.146733,0.094945,0.267571,508.000000,17.000000,11.000000,0.000000,0.000000,0.000000,0.000000,0.000000,0.660913,0.567510,0.146733,0.094945,0.267571,508.000000,17.000000,11.000000,0.000000,0.000000,0.000000,0.000000,0.000000;
#CREDIT:;
#NOTES:
// measure 0
0000
0000
0000
0000
,  // measure 1
1000
0000
0001
0000
0010
0000
0100
0000
1000
0000
0001
0100
0001
0010
0001
0100
,  // measure 2
0010
0000
1000
0000
0100
0000
1000
0000
0010
0000
1000
0000
0100
0000
1000
0100
,  // measure 3
0010
0000
0001
0000
0100
0000
0001
0000
0010
0000
0001
0000
0100
0000
0010
1000
,  // measure 4
0100
0100
0100
0100
0010
0010
0001
0001
,  // measure 5
1000
0000
0100
0000
1000
0000
0100
0000
1000
0100
1000
0100
1000
0100
1000
0100
,  // measure 6
1000
0001
0010
0001
1000
0001
0010
0001
,  // measure 7
1000
0100
1000
0010
0100
0000
0010
0000
1000
0000
1000
0000
0001
0000
0001
0000
,  // measure 8
1000
0001
0100
0001
1000
0001
0100
0001
,  // measure 9
1000
0010
1000
0001
0100
0000
0001
0000
1000
0000
1000
0000
0001
0000
0001
0000
,  // measure 10
0100
0010
1000
0100
1000
0001
0010
0001
,  // measure 11
1000
0010
1000
0001
0100
0000
0001
0000
1000
0000
1000
0000
0001
0000
1000
0000
,  // measure 12
0101
1100
0011
1010
,  // measure 13
0011
0010
1010
0010
1100
0100
0101
0100
,  // measure 14
0001
1000
0010
1000
0001
1000
0010
0100
,  // measure 15
0001
0000
1000
0010
1000
0010
1000
0000
0001
0000
1000
0100
1000
0100
1000
0000
,  // measure 16
0001
1000
0100
1000
0001
1000
0100
0010
,  // measure 17
0001
0000
1000
0100
1000
0100
1000
0000
0001
0000
1000
0010
1000
0010
1000
0000
,  // measure 18
0001
0000
1000
0010
0100
0000
0001
0000
0010
0000
0100
0000
1000
0000
1000
0000
,  // measure 19
0001
0010
0100
0000
1000
0000
0001
0000
1000
0010
0100
0000
0001
0000
1000
0000
,  // measure 20
0100
0000
0100
0000
0010
0000
0010
0000
0001
0000
0001
0000
1000
0010
1000
0000
,  // measure 21
0001
0100
1000
0000
0001
0000
0010
0000
1000
0100
0010
0000
0001
0000
1000
0000
,  // measure 22
0001
0000
1000
0010
0100
0000
0001
0000
0010
0000
0001
0000
0100
0000
0100
0000
,  // measure 23
0001
0010
0100
0000
1000
0000
0001
0000
1000
0010
0100
0000
0001
0000
1000
0000
,  // measure 24
0010
0000
0010
0000
0100
0000
0100
0000
0001
0000
0001
0000
1000
0010
1000
0000
,  // measure 25
0001
0100
1000
0000
0001
0000
0010
0000
1000
0100
0010
0000
0001
0000
1000
0000
,  // measure 26
0001
0010
0100
0010
0001
1000
0010
0100
,  // measure 27
0001
0010
0100
1000
0001
0010
0001
0100
,  // measure 28
0001
1000
0010
0100
0001
0001
1000
0001
,  // measure 29
0010
0000
0001
0010
0001
0000
1000
0100
1000
0000
0001
0100
0001
0000
1000
0010
,  // measure 30
1000
0010
1000
0100
1000
0001
0010
0100
,  // measure 31
1000
0001
0010
0001
0100
0001
1000
0010
,  // measure 32
0100
0001
0100
0001
1000
0010
1000
0001
,  // measure 33
0010
0000
0100
0000
1000
0000
0010
0000
1000
0000
0100
0000
1000
0000
0010
1000
,  // measure 34
0010
0000
0000
0000
1010
0000
0000
0000
0011
0000
0000
0001
1010
0000
0000
0000
,  // measure 35
1100
0000
0000
0000
0101
0000
0000
0000
1100
0000
0000
0001
1100
0000
0000
0000
,  // measure 36
0010
0000
0100
0000
,  // measure 37
0001
1000
0100
1000
0002
0000
1003
0000
,  // measure 38
1000
0000
0001
0000
,  // measure 39
0010
0100
1000
0100
0020
0000
0130
0000
,  // measure 40
0010
0010
0010
0010
0001
0001
0001
0001
,  // measure 41
1000
0000
1000
0000
1000
0000
1000
0000
0001
0000
0001
0000
1000
0100
1000
0100
,  // measure 42
2000
0000
0000
3000
0002
0000
0000
0003
,  // measure 43
1000
0001
0010
0100
1000
0001
0010
0100
,  // measure 44
2000
0000
0000
3000
,  // measure 45
0002
0000
0000
0003
,  // measure 46
0020
0000
0000
0030
,  // measure 47
0200
0000
1300
1001
,  // measure 48
2002
0000
0000
3003
,  // measure 49
0001
0000
1000
0010
0100
0000
0001
0000
0010
0000
0100
0000
1000
0000
1000
0000
,  // measure 50
0001
0010
0100
0000
1000
0000
0001
0000
1000
0010
0100
0000
0001
0000
1000
0000
,  // measure 51
0100
0000
0100
0000
0010
0000
0010
0000
0001
0000
0001
0000
1000
0010
1000
0000
,  // measure 52
0001
0100
1000
0000
0001
0000
0010
0000
1000
0100
0010
0000
0001
0000
1000
0000
,  // measure 53
0001
0000
1000
0010
0100
0000
0001
0000
0010
0000
0001
0000
0100
0000
0100
0000
,  // measure 54
0001
0010
0100
0000
1000
0000
0001
0000
1000
0010
0100
0000
0001
0000
1000
0000
,  // measure 55
0010
0000
0010
0000
0100
0000
0100
0000
0001
0000
0001
0000
1000
0010
1000
0000
,  // measure 56
0001
0100
1000
0000
0001
0000
0010
0000
1000
0100
0010
0000
0001
0000
1000
0000
,  // measure 57
0001
0010
0100
0010
0001
1000
0010
0100
,  // measure 58
0001
0010
0100
1000
0001
0010
0001
0100
,  // measure 59
0001
1000
0010
0100
0001
0001
1000
0001
,  // measure 60
0010
0000
0001
0010
0001
0000
1000
0100
1000
0000
0001
0100
0001
0000
1000
0010
,  // measure 61
1000
0010
1000
0100
1000
0001
0010
0100
,  // measure 62
1000
0001
0010
0001
0100
0001
1000
0010
,  // measure 63
0100
0001
0100
0001
1000
0010
1000
0001
,  // measure 64
0010
0000
0100
0000
1000
0000
0010
0000
1000
0000
0001
0000
1000
0010
1000
0001
,  // measure 65
0200
0000
0000
0300
;

//---------------dance-single - ----------------
#NOTEDATA:;
#CHARTNAME:;
#STEPSTYPE:dance-single;
#DESCRIPTION:;
#CHARTSTYLE:;
#DIFFICULTY:Medium;
#METER:4;
#RADARVALUES:0.314427,0.340506,0.267571,0.103576,0.000000,212.000000,31.000000,12.000000,0.000000,0.000000,0.000000,0.000000,0.000000,0.314427,0.340506,0.267571,0.103576,0.000000,212.000000,31.000000,12.000000,0.000000,0.000000,0.000000,0.000000,0.000000;
#CREDIT:;
#NOTES:
// measure 0
0000
0000
0000
0000
,  // measure 1
0000
0000
0000
0000
,  // measure 2
1000
0001
0010
0100
,  // measure 3
1000
1000
0001
0001
,  // measure 4
0010
0100
1000
0001
,  // measure 5
0010
0010
0100
0100
,  // measure 6
0010
0100
0110
0000
,  // measure 7
0001
0001
1000
0100
,  // measure 8
1000
0001
1001
0000
,  // measure 9
0001
0001
0010
0100
,  // measure 10
1000
0001
0010
0000
,  // measure 11
0011
0011
1010
0000
,  // measure 12
0001
0100
1000
0100
,  // measure 13
0001
0010
0001
0010
0001
0000
1001
0000
,  // measure 14
2020
0000
0000
3030
,  // measure 15
0200
0000
0000
0000
0000
0300
0000
0000
,  // measure 16
2002
0000
0000
3003
,  // measure 17
1000
0001
1000
0001
,  // measure 18
0010
0100
1000
0001
,  // measure 19
0010
0010
0100
0100
,  // measure 20
1000
0001
0010
0100
,  // measure 21
1000
1000
0001
0001
,  // measure 22
1000
0001
1001
0000
,  // measure 23
0100
0100
0010
0001
,  // measure 24
0010
0100
0110
0000
,  // measure 25
0001
0001
1000
0100
,  // measure 26
0010
0001
1000
0000
,  // measure 27
0101
0101
1100
0000
,  // measure 28
0001
0010
1000
0010
,  // measure 29
0001
0100
0001
0100
0001
0000
1001
0000
,  // measure 30
1000
0010
0100
0100
,  // measure 31
0001
0010
0100
0100
,  // measure 32
1000
0001
0100
0001
,  // measure 33
1100
1010
1100
1010
,  // measure 34
0022
0000
0000
0033
,  // measure 35
2200
0000
0000
3300
,  // measure 36
0001
0000
0000
0000
,  // measure 37
1000
0000
0000
0000
,  // measure 38
0100
0000
0010
0000
,  // measure 39
0100
0010
0001
0000
,  // measure 40
1000
0000
0000
0000
,  // measure 41
0001
0000
0000
0000
,  // measure 42
0100
0000
0001
0000
,  // measure 43
1000
0001
0100
0001
,  // measure 44
0010
0010
0100
0100
,  // measure 45
0010
0100
0010
0100
,  // measure 46
1000
1000
0001
0001
,  // measure 47
1000
0001
1000
0001
,  // measure 48
2000
0000
0000
3000
,  // measure 49
0001
1000
0010
0100
,  // measure 50
0001
0001
1000
1000
,  // measure 51
0010
0100
0001
1000
,  // measure 52
0010
0010
0100
0100
,  // measure 53
0010
0100
0110
0000
,  // measure 54
1000
1000
0001
0100
,  // measure 55
0001
1000
1001
0000
,  // measure 56
1000
1000
0010
0100
,  // measure 57
0001
1000
0010
0000
,  // measure 58
1010
1010
0011
0000
,  // measure 59
1000
0100
0001
0100
,  // measure 60
1000
0010
1000
0010
1000
0000
1001
0000
,  // measure 61
0001
1000
0100
0100
,  // measure 62
1000
0001
0100
0100
,  // measure 63
0001
0010
0100
0010
,  // measure 64
0011
0101
1010
1100
,  // measure 65
2002
0000
0000
3003
;
