#VERSION:0.82;
#TITLE:Csikos Post;
#SUBTITLE:;
#ARTIST:BanYa;
#TITLETRANSLIT:;
#SUBTITLETRANSLIT:;
#ARTISTTRANSLIT:;
#GENRE:Classical Crossover;
#ORIGIN:;
#CREDIT:;
#BANNER:Csikos Post-banner.png;
#BACKGROUND:Csikos Post-bg.png;
#PREVIEWVID:;
#JACKET:;
#CDIMAGE:;
#DISCIMAGE:;
#LYRICSPATH:;
#CDTITLE:;
#MUSIC:Csikos Post.ogg;
#OFFSET:-0.050000;
#SAMPLESTART:18.729990;
#SAMPLELENGTH:12.000000;
#SELECTABLE:YES;
#BPMS:0.000=180.000;
#STOPS:;
#DELAYS:;
#WARPS:;
#TIMESIGNATURES:0.000=4=4;
#TICKCOUNTS:0.000=4;
#COMBOS:0.000=1;
#SPEEDS:0.000=1.000=0.000=0;
#SCROLLS:0.000=1.000;
#FAKES:;
#LABELS:0.000=Song Start;
#BGCHANGES:0.000=Csikos Post.avi=1.000=0=0=0=StretchNoLoop====,
99999=-nosongbg-=1.000=0=0=0 // don't automatically add -songbackground-
;
#KEYSOUNDS:;
#ATTACKS:
;

//---------------dance-single - ----------------
#NOTEDATA:;
#CHARTNAME:;
#STEPSTYPE:dance-single;
#DESCRIPTION:;
#CHARTSTYLE:;
#DIFFICULTY:Medium;
#METER:5;
#RADARVALUES:0.524445,0.617164,0.421747,0.000000,0.000000,339.000000,44.000000,0.000000,0.000000,0.000000,0.000000,0.000000,0.000000,0.524445,0.617164,0.421747,0.000000,0.000000,339.000000,44.000000,0.000000,0.000000,0.000000,0.000000,0.000000,0.000000;
#CREDIT:;
#NOTES:
0000
0000
0000
0000
,
0000
0000
0000
0000
,
0000
0000
0000
0000
,
0000
0000
0000
0000
,
1000
0001
1000
0000
0010
1000
0010
0000
,
1000
0001
0100
0010
1000
0000
0101
0000
,
1000
0000
0100
1000
0010
0000
1000
0000
,
0001
1000
0100
0000
,
1000
0000
0011
0000
1000
0010
1000
0000
,
0001
0000
1010
0000
0010
1000
0100
0000
,
0100
0000
1000
0100
1000
0100
0010
0000
,
0001
0100
0001
1000
0100
0000
0000
0000
,
1000
0100
1000
0100
0001
0100
0001
0100
,
1000
0000
0001
0010
0011
0000
1010
0000
,
0101
1001
1010
0000
,
1100
1001
0011
0000
,
0100
0000
0100
0001
1000
0100
0010
0000
,
0100
0000
0100
1000
0001
0100
0010
0000
,
1010
0100
0011
0000
,
0011
0100
1010
0000
,
1000
0010
1000
0000
0001
1000
0100
1000
,
0001
0100
0001
0010
1000
0000
1001
0000
,
0001
1000
0001
0000
0010
0001
0010
0000
,
0001
1000
0100
0010
0001
0000
1100
0000
,
0001
0000
0100
0001
0010
0000
0001
0000
,
1000
0001
0100
0000
,
0001
0000
1010
0000
0001
0010
0001
0000
,
1000
0000
0011
0000
0010
0001
0100
0000
,
0100
0000
0001
0100
0001
0100
0010
0000
,
1000
0100
1000
0001
0100
0000
0000
0000
,
0001
0100
0001
0100
1000
0100
1000
0100
,
0001
0000
1000
0010
1010
0000
0011
0000
,
1100
1001
0011
0000
,
0101
1001
1010
0000
,
0100
0000
0100
1000
0001
0100
0010
0000
,
0100
0000
0100
0001
1000
0100
0010
0000
,
0011
0100
1010
0000
,
1010
0100
0011
0000
,
0001
0010
0001
0000
1000
0001
0100
0001
,
1000
0100
1000
0010
0001
0000
1001
0000
,
0100
0000
0000
0000
,
1001
0000
0000
0000
,
1100
0000
0000
0000
,
0101
0000
0000
0000
,
1001
0000
0000
0000
,
1001
0000
0000
0000
,
1000
0000
0001
0000
,
1000
0001
1000
0001
,
0010
0001
0100
0001
,
0010
0000
0001
0000
0100
0001
0010
0001
,
1000
0010
1000
0100
,
1000
0000
0010
0000
1000
0100
1000
0010
,
0100
0001
0100
1000
,
0100
0000
0001
0000
0100
1000
0100
0001
,
0010
0000
1000
0000
0010
0001
0010
1000
,
0010
0000
0100
0000
0010
0100
0001
0100
,
1000
0001
0010
0001
,
0100
0000
0001
0000
1000
0010
1000
0000
,
0001
1000
0010
1000
,
0100
0000
1000
0000
0001
0010
0001
0000
,
1000
0001
1000
0001
,
0100
0000
0100
0000
1000
0100
0001
0100
,
1000
0000
0001
0000
0001
0100
1000
0100
,
0001
0000
1000
0000
1000
0100
0001
0100
,
1000
0100
1010
0000
,
0001
0100
0011
0000
,
1000
0000
1000
0100
0010
0001
1000
0000
,
0001
0000
0001
0100
0010
1000
0001
0000
,
1000
0001
0110
0000
,
0001
1000
0110
0000
,
1000
0010
1000
0000
0001
1000
0100
1000
,
0001
0100
0001
0010
1000
0000
1001
0000
,
0001
0010
0001
0000
1000
0001
0100
0001
,
1000
0100
1000
0010
0001
0000
1001
0000
,
1000
0010
1000
0000
0001
0010
0100
1000
,
0010
0100
0001
0010
0100
0000
1001
0000
;

//---------------dance-single - ----------------
#NOTEDATA:;
#CHARTNAME:;
#STEPSTYPE:dance-single;
#DESCRIPTION:;
#CHARTSTYLE:;
#DIFFICULTY:Easy;
#METER:2;
#RADARVALUES:0.343696,0.363038,0.028755,0.000000,0.000000,248.000000,3.000000,0.000000,0.000000,0.000000,0.000000,0.000000,0.000000,0.343696,0.363038,0.028755,0.000000,0.000000,248.000000,3.000000,0.000000,0.000000,0.000000,0.000000,0.000000,0.000000;
#CREDIT:;
#NOTES:
0000
0000
0000
0000
,
0000
0000
0000
0000
,
0000
0000
0000
0000
,
0000
0000
0000
0000
,
1000
1000
0001
0001
,
1000
0100
1000
0000
,
1000
0001
0100
0010
,
1000
0001
0100
0000
,
1000
0001
1000
0100
,
1000
0001
0010
0100
,
1000
1000
0100
0010
,
0001
1000
0100
0000
,
1000
1000
0001
0001
,
1000
0001
0100
0000
,
0100
0001
0010
0000
,
0100
1000
0010
0000
,
1000
1000
0001
0010
,
0001
0001
1000
0010
,
1000
0100
0001
0000
,
0001
0100
1000
0000
,
1000
1000
0010
0100
,
0010
0100
0001
1000
,
0001
0001
1000
1000
,
0001
0100
0001
0000
,
0001
1000
0100
0010
,
0001
1000
0100
0000
,
0001
1000
0001
0100
,
0001
1000
0010
0100
,
0001
0001
0100
0010
,
1000
0001
0100
0000
,
0001
0001
1000
1000
,
0001
1000
0100
0000
,
0100
1000
0010
0000
,
0100
0001
0010
0000
,
0001
0001
1000
0010
,
1000
1000
0001
0010
,
0001
0100
1000
0000
,
1000
0100
0001
0000
,
0001
0001
0010
0100
,
0010
0100
1000
0001
,
1000
0000
0000
0000
,
0001
0000
0000
0000
,
1000
0000
0000
0000
,
0001
0000
0000
0000
,
1001
0000
0000
0000
,
1001
0000
0000
0000
,
1000
0000
0001
0000
,
1000
0001
1000
0001
,
0010
0001
0100
0001
,
0010
0001
1000
1000
,
0010
1000
0100
1000
,
0010
1000
0001
0001
,
0100
0001
0010
0001
,
0100
0001
1000
1000
,
0100
1000
0001
0001
,
1000
0001
1000
1000
,
0001
1000
0010
1000
,
0100
1000
0001
0001
,
1000
0001
0010
0001
,
0100
0001
1000
1000
,
0001
1000
0001
1000
,
0100
0100
0001
0100
,
0010
0100
0100
0010
,
0100
0010
0010
0100
,
0100
0001
0010
0000
,
0100
1000
0010
0000
,
1000
1000
0010
1000
,
0001
0001
0010
0001
,
1000
0001
0010
0000
,
0001
1000
0010
0000
,
1000
1000
0010
0100
,
0010
1000
0001
0001
,
1000
1000
0010
0100
,
0010
1000
0001
0001
,
1000
1000
0010
0100
,
0010
1000
0001
1001
;

//---------------dance-single - ----------------
#NOTEDATA:;
#CHARTNAME:;
#STEPSTYPE:dance-single;
#DESCRIPTION:;
#CHARTSTYLE:;
#DIFFICULTY:Challenge;
#METER:10;
#RADARVALUES:0.790091,0.871291,0.402576,0.000000,0.359443,535.000000,42.000000,0.000000,0.000000,0.000000,0.000000,0.000000,0.000000,0.790091,0.871291,0.402576,0.000000,0.359443,535.000000,42.000000,0.000000,0.000000,0.000000,0.000000,0.000000,0.000000;
#CREDIT:;
#NOTES:
// measure 0
0000
0000
0000
0000
,  // measure 1
0000
0000
0000
0000
,  // measure 2
0000
0000
0000
0000
,  // measure 3
0000
0000
0000
0000
,  // measure 4
1000
0001
1000
0000
0010
1000
0010
0000
,  // measure 5
1000
0000
0001
0000
0100
0000
0010
0000
1000
0000
0000
0000
0101
0000
0000
1000
,  // measure 6
0010
0000
0100
0001
0010
0100
1000
0001
,  // measure 7
0010
0100
0010
0001
0100
0000
0000
0000
,  // measure 8
1000
0100
1000
0100
1000
0000
0000
0000
0001
0010
0001
0010
0001
0000
0000
0000
,  // measure 9
1000
0010
1000
0010
1000
0000
0000
0000
1010
0000
0100
0000
1001
0000
0000
0001
,  // measure 10
0010
0000
0100
1000
0010
0100
0001
1000
,  // measure 11
0010
0100
0010
1000
0100
0000
0000
0000
,  // measure 12
1000
0100
1000
0100
0001
0100
0001
0100
,  // measure 13
1000
0100
1000
0100
1000
0000
0001
0000
0100
0000
0000
0001
0010
0000
0000
0000
,  // measure 14
0101
1010
1001
0000
,  // measure 15
1100
0011
1001
0000
,  // measure 16
1000
0000
0100
0000
1000
0000
0100
0000
1000
0000
0100
0010
0001
0000
0000
0000
,  // measure 17
0001
0000
0100
0000
0001
0000
0100
0000
0001
0000
0100
0010
1000
0000
0000
0000
,  // measure 18
1010
0100
1001
0000
,  // measure 19
0110
1000
0011
0000
,  // measure 20
1000
0010
1000
0000
0001
1000
0100
1000
,  // measure 21
0001
0000
0100
0000
0001
0010
0001
0010
1000
0000
0000
0000
0011
0000
0000
0000
,  // measure 22
0001
1000
0001
0000
0010
0001
0010
0000
,  // measure 23
0001
0000
1000
0000
0100
0000
0010
0000
0001
0000
0000
0000
1100
0000
0000
0001
,  // measure 24
0010
0000
0100
1000
0010
0100
0001
1000
,  // measure 25
0010
0100
0010
1000
0100
0000
0000
0000
,  // measure 26
0001
0100
0001
0100
0001
0000
0000
0000
1000
0010
1000
0010
1000
0000
0000
0000
,  // measure 27
0001
0010
0001
0010
0001
0000
0000
0000
0011
0000
0100
0000
1001
0000
0000
1000
,  // measure 28
0010
0000
0100
0001
0010
0100
1000
0001
,  // measure 29
0010
0100
0010
0001
0100
0000
0000
0000
,  // measure 30
0001
0100
0001
0100
1000
0100
1000
0100
,  // measure 31
0001
0100
0001
0100
0001
0000
1000
0000
0100
0000
0000
1000
0010
0000
0000
0000
,  // measure 32
1100
0011
1001
0000
,  // measure 33
0101
1010
1001
0000
,  // measure 34
0001
0000
0100
0000
0001
0000
0100
0000
0001
0000
0100
0010
1000
0000
0000
0000
,  // measure 35
1000
0000
0100
0000
1000
0000
0100
0000
1000
0000
0100
0010
0001
0000
0000
0000
,  // measure 36
0011
0100
1001
0000
,  // measure 37
0110
0001
1010
0000
,  // measure 38
0001
0010
0001
0000
1000
0001
0100
0001
,  // measure 39
1000
0000
0100
0000
1000
0010
1000
0010
0001
0000
0000
0000
1010
0000
0000
0000
,  // measure 40
0100
0001
0100
0001
0100
0001
0100
0001
,  // measure 41
1000
0100
1000
0100
1000
0100
1000
0100
,  // measure 42
0010
0001
0010
0001
0010
0001
0010
0001
,  // measure 43
1000
0010
1000
0010
1000
0100
0001
0100
,  // measure 44
1000
0100
1000
0001
1000
0100
1000
0001
,  // measure 45
0010
0001
0100
0001
0010
0001
0100
0001
,  // measure 46
1000
0010
0100
0001
1000
0010
0100
0001
,  // measure 47
1000
0000
0100
0000
1000
0000
0001
0000
0100
0001
0010
0100
1000
0010
0100
0001
,  // measure 48
1000
0001
0100
0001
1000
0001
0100
0001
,  // measure 49
1000
0000
0100
0000
1000
0000
0010
0000
1000
0000
0001
0010
0001
0010
0001
0010
,  // measure 50
0001
1000
0100
1000
0001
1000
0100
1000
,  // measure 51
0001
0000
0100
0000
0001
0000
0010
0000
0001
0000
1000
0010
1000
0010
1000
0010
,  // measure 52
1000
0001
0100
0001
1000
0001
0100
0001
,  // measure 53
1000
0000
0100
0000
1000
0000
0010
0000
1000
0000
0001
0010
0001
0010
0001
0010
,  // measure 54
0001
0000
0100
0000
0001
0000
1000
0000
0001
0000
1000
0010
1000
0010
1000
0010
,  // measure 55
1000
0000
0100
0000
1000
0000
0001
0000
1000
0000
0001
0010
0001
0010
0001
0010
,  // measure 56
0001
1000
0010
1000
0001
1000
0010
1000
,  // measure 57
0001
0000
0010
0000
0001
0000
0100
0000
0001
0000
1000
0100
1000
0100
1000
0100
,  // measure 58
1000
0001
0010
0001
1000
0001
0010
0001
,  // measure 59
1000
0000
0010
0000
1000
0000
0100
0000
1000
0000
0001
0100
0001
0100
0001
0100
,  // measure 60
0001
1000
0010
1000
0001
1000
0010
1000
,  // measure 61
0001
0000
0010
0000
0001
0000
0100
0000
0001
0000
1000
0100
1000
0100
1000
0100
,  // measure 62
1000
0000
0010
0000
1000
0000
0001
0000
1000
0000
0001
0100
0001
0100
0001
0100
,  // measure 63
0001
0000
0010
0000
0001
0000
1000
0000
0001
0000
1000
0100
1000
0100
1000
0100
,  // measure 64
1100
0101
1010
0000
,  // measure 65
0101
1100
0011
0000
,  // measure 66
1000
0000
0100
0000
1000
0000
0100
0000
0010
0000
0001
0100
0010
0000
0000
0000
,  // measure 67
0001
0000
0000
0000
0001
0000
0100
0000
0010
0000
1000
0100
0010
0000
0000
0000
,  // measure 68
1001
0110
1001
0000
,  // measure 69
1010
0100
1001
0010
0101
0000
0000
0000
,  // measure 70
1000
0010
1000
0000
0001
1000
0100
1000
,  // measure 71
0001
0000
0100
0000
0001
0010
0001
0010
1000
0000
0000
0000
0011
0000
0000
0000
,  // measure 72
0001
0010
0001
0000
1000
0001
0100
0001
,  // measure 73
1000
0000
0100
0000
1000
0010
1000
0010
0001
0000
0000
0000
1010
0000
0000
0000
,  // measure 74
1000
0010
1000
0000
0001
0010
0100
1000
,  // measure 75
0001
0010
0100
1000
0010
0100
0001
1000
0010
0000
0000
0100
0001
0000
0000
0000
;

//---------------dance-single - ----------------
#NOTEDATA:;
#CHARTNAME:;
#STEPSTYPE:dance-single;
#DESCRIPTION:;
#CHARTSTYLE:;
#DIFFICULTY:Hard;
#METER:7;
#RADARVALUES:0.638097,0.653468,0.699716,0.134192,0.000000,379.000000,73.000000,14.000000,0.000000,0.000000,0.000000,0.000000,0.000000,0.638097,0.653468,0.699716,0.134192,0.000000,379.000000,73.000000,14.000000,0.000000,0.000000,0.000000,0.000000,0.000000;
#CREDIT:;
#NOTES:
0000
0000
0000
0000
,
0000
0000
0000
0000
,
0000
0000
0000
0000
,
0000
0000
0000
0000
,
1000
0010
1000
0000
0001
0010
0001
0000
,
1000
0010
1000
0001
0010
0000
0011
0000
,
1001
0000
0100
1000
0001
0000
0100
0000
,
1001
0011
1001
0000
,
0100
0011
0100
1010
,
0100
0000
0011
0000
0001
1000
0100
0000
,
1100
0000
0100
1000
0010
0000
0101
0000
,
1001
1010
1001
0000
,
0010
0100
1000
0001
0010
0100
1000
0001
,
0010
0000
0100
1000
0001
0000
0011
0000
,
1001
0011
1001
0000
,
1001
1100
1001
0000
,
1100
0000
1000
0010
0100
0001
1000
0000
,
1010
0000
1000
0100
0001
0100
1000
0000
,
1100
0101
1001
0000
,
0011
1010
1001
0000
,
0010
1000
0010
0000
0100
0001
0010
0100
,
1000
0001
0100
0001
1000
0000
1001
0000
,
0001
0010
0001
0000
1000
0010
1000
0000
,
0001
0010
0001
1000
0010
0000
1010
0000
,
1001
0000
0100
0001
1000
0000
0100
0000
,
1001
1010
1001
0000
,
0100
1010
0100
0011
,
0100
0000
1010
0000
1000
0001
0100
0000
,
0101
0000
0100
0001
0010
0000
1100
0000
,
1001
0011
1001
0000
,
0010
0100
0001
1000
0010
0100
0001
1000
,
0010
0000
0100
0001
1000
0000
1010
0000
,
1001
1010
1001
0000
,
1001
0101
1001
0000
,
0101
0000
0001
0010
0100
1000
0001
0000
,
0011
0000
0001
0100
1000
0100
0001
0000
,
0101
1100
1001
0000
,
1010
0011
1001
0000
,
0010
0001
0010
0000
0100
1000
0010
0100
,
0001
1000
0100
1000
0001
0000
1001
0000
,
0002
0000
0000
0000
,
0023
0000
0000
0000
,
0230
0000
0000
0000
,
2300
0000
0000
0000
,
3002
0000
0000
0000
0000
0000
0103
0001
,
0020
0000
0000
0000
0000
0000
0031
1000
,
0200
0000
2300
0000
,
3002
0000
0023
0000
0130
1000
0001
0100
,
0010
1000
0010
0100
0010
1000
0010
0100
,
0010
1000
0010
0100
0001
0010
0100
1000
,
0001
0100
0001
0010
0001
0100
0001
0010
,
0001
0100
0001
0010
0001
0100
0010
1000
,
0100
0010
0100
1000
0010
0100
0010
1000
,
0100
0010
0100
1000
0001
0100
0010
1000
,
0001
0010
2000
0000
3010
0001
0100
0010
,
1000
0010
0002
0000
0013
0100
0001
1000
,
0001
0010
0100
0010
0001
0100
0010
0100
,
0001
0010
0100
0010
0001
0010
0100
1000
,
0001
0010
1000
0010
0001
0100
0010
0100
,
0001
0010
1000
0010
0001
0100
1000
0100
,
0010
1000
0100
1000
0010
0001
0010
1000
,
0100
1000
0010
0001
0010
0100
0001
1000
,
0001
0010
2000
0000
3010
0100
1000
0001
,
1000
0010
0002
0000
0013
0100
0001
1000
,
0100
1010
1001
0000
,
0100
0011
1001
0000
,
0101
0000
0100
0001
0010
0100
1000
0000
,
1100
0000
0100
1000
0010
0100
0001
0000
,
0101
1100
1001
0000
,
1010
0011
1001
0000
,
0010
0001
0010
0000
0100
1000
0010
0100
,
0001
1000
0100
1000
0001
0000
1001
0000
,
0010
1000
0010
0000
0100
0001
0010
0100
,
1000
0001
0100
0001
1000
0000
1001
0000
,
0100
0010
0100
0000
0001
0100
1000
0100
,
0010
1000
0100
0001
0100
0000
1001
0000
;
