#TITLE:Cosmical Rhythm;
#SUBTITLE:;
#ARTIST:Sid-Sound;
#TITLETRANSLIT:;
#SUBTITLETRANSLIT:;
#ARTISTTRANSLIT:;
#GENRE:;
#CREDIT:;
#BANNER:Cosmical Rhythm-banner.png;
#BACKGROUND:Cosmical Rhythm.jpg;
#LYRICSPATH:;
#CDTITLE:;
#MUSIC:Cosmical Rhythm.mp3;
#OFFSET:2.012000;
#SAMPLESTART:31.741081;
#SAMPLELENGTH:12.000000;
#LASTBEATHINT:2.054046;
#SELECTABLE:YES;
#BPMS:0.000000=128.000000
;
#STOPS:
;
#BGCHANGES:;
#KEYSOUNDS:;
#ATTACKS:;

//---------------dance-single - ----------------
#NOTES:
     dance-single:
     :
     Challenge:
     11:
     0.800084,0.916790,0.641031,1.000000,0.147606,398.000000,76.000000,190.000000,0.000000,0.000000,0.000000,0.800084,0.916790,0.641031,1.000000,0.147606,398.000000,76.000000,190.000000,0.000000,0.000000,0.000000:
0000
0000
0000
0000
,
0000
0000
0000
0000
,
2200
0000
3300
0000
2200
3300
0000
1100
0000
1000
0100
0000
1000
0000
0001
0000
,
0202
0000
0303
0000
0202
0303
0000
0101
0000
0000
0001
1000
0100
0010
0001
0010
,
0022
0000
0033
0000
0022
0033
0000
0011
0000
0001
0010
0000
0001
0000
1000
0000
,
2020
0000
3030
0000
2020
3030
0000
1010
0000
0000
1001
0000
0011
0000
0101
0000
,
2002
0000
3003
0000
2002
3003
0000
1001
0000
1000
0001
0000
0100
0000
0010
0000
,
0220
0000
0330
0000
0220
0330
0000
0110
0000
0000
1010
0000
0000
0000
2002
0000
,
0000
0000
0000
0000
0000
0000
0000
0000
0000
0000
0000
0000
0000
3003
0000
0000
,
1001
0000
0000
0110
0000
0000
1001
0000
0000
0000
0110
0000
1000
0000
1000
0000
,
0001
0100
0010
1000
,
0001
0000
0010
0000
0100
0000
1000
0001
,
0100
0001
1000
0010
,
1000
0010
0100
0001
,
1000
0010
1000
0010
0100
0010
0100
0010
,
1000
0010
1000
0010
1000
0001
1000
0001
,
0010
0001
1000
0010
0100
0010
0100
0001
,
0010
0100
1000
0010
2000
3000
0200
0300
,
2002
0000
0000
3003
0000
0000
1001
0000
0000
0000
1100
0000
1001
0000
0101
0000
,
0000
0010
1000
0001
0000
0100
0010
0000
,
0220
0000
0000
0330
0000
0000
0110
0000
0000
0000
1010
0000
0110
0000
2010
0000
,
0000
3000
0100
0000
1000
0000
0001
0000
0000
0000
1000
0000
0001
0000
0010
0000
,
0220
0000
0000
0330
0000
0000
0110
0000
0000
0000
0011
0000
0110
0000
0011
0000
,
0000
0001
1000
0010
0000
0100
0001
0000
,
2002
0000
0000
3003
0000
0000
1001
0000
0000
0000
1010
0000
1001
0000
0011
0000
,
0000
0000
0002
0003
0200
0300
0020
0000
0000
0030
2000
3000
0200
0000
0300
0000
,
2000
3000
0200
0300
0001
0100
1000
0000
0002
0003
0200
0300
1000
0100
0001
0000
,
2000
3000
0200
0300
0001
0100
1000
0000
0002
0003
0200
0300
1000
0100
0001
0000
,
2000
3000
0200
0300
0002
0003
0200
0300
2000
3000
0002
0003
0200
0300
2000
3000
,
0200
0300
0002
0003
0020
0030
0200
0300
2000
3000
0200
0300
0020
0000
0031
0000
,
2000
3000
0020
0030
0001
0010
1000
0000
0002
0003
0020
0030
1000
0010
0001
0000
,
2000
3000
0020
0030
0001
0010
1000
0000
0002
0003
0020
0030
1000
0010
0001
0000
,
2000
3000
0020
0030
0002
0003
0020
0030
2000
3000
0002
0003
0020
0030
2000
3000
,
0020
0030
0002
0003
2000
3000
0002
0003
0200
0300
0020
0030
2000
0000
3010
0000
,
0000
0000
1100
0000
0000
1010
0000
0000
1000
0000
0010
0100
0001
0000
1000
0000
,
0000
0000
0101
0000
0000
0011
0000
0000
1000
0000
0100
1000
0001
0000
0100
0000
,
0002
0000
0000
0000
0000
0003
0200
0300
0020
0030
2000
3000
0020
0030
0002
0003
,
0020
0030
0200
0300
0020
0030
2000
3000
0020
0030
0002
0003
0020
0030
0200
0300
,
0001
0010
0200
0000
0000
0000
0000
0300
0020
0000
0030
2000
0000
3000
0020
0030
,
0002
0000
0000
0003
0200
0300
0020
0000
0000
0000
0000
0030
2000
0000
3010
0000
,
1010
0100
0011
0100
1100
0010
0101
0010
,
2002
0000
0000
3003
,
2200
0000
0000
3300
0000
0000
1100
0000
0000
0000
1100
0000
1001
0000
1100
0000
,
0000
0100
1000
0010
0000
0100
0001
0000
,
0202
0000
0000
0303
0000
0000
0101
0000
0000
0000
0101
0000
1001
0000
0101
0000
,
0000
0100
0001
0010
0000
0100
1000
0001
,
2002
0000
0000
3003
0000
0000
1001
0000
0000
0000
1100
0000
1001
0000
1100
0000
,
0000
0100
1000
0001
0000
0010
0100
0000
,
0220
0000
0000
0330
0000
0000
0110
0000
0000
0000
0011
0000
0110
0000
0011
0000
,
0000
0000
0002
0003
2000
3000
0200
0000
0000
0300
0020
0000
0002
0030
0003
0000
,
2000
3000
0200
0300
1000
0010
1000
0000
0002
0003
0200
0300
0001
0010
0001
0000
,
2000
3000
0200
0300
1000
0010
1000
0000
0002
0003
0200
0300
0001
0010
0001
0000
,
2000
3000
0200
0300
2000
3000
0020
0030
2000
3000
0200
0300
2000
3000
0002
0003
,
0200
0300
0002
0003
0020
0030
0002
0003
0200
0300
0020
0030
2000
0000
3100
0000
,
2000
3000
0020
0030
1000
0100
1000
0000
0002
0003
0020
0030
0001
0100
0001
0000
,
2000
3000
0020
0030
1000
0100
1000
0000
0002
0003
0020
0030
0001
0100
0001
0000
,
2000
3000
0020
0030
2000
3000
0200
0300
2000
3000
0020
0030
2000
3000
0002
0003
,
0020
0030
0002
0003
0200
0300
0002
0003
0020
0030
0002
0003
0020
0030
0200
0300
,
2000
3000
0100
0100
1000
0010
0100
0001
,
2000
3000
0100
0100
1000
0001
0100
0010
,
2000
3000
0200
0300
2000
3000
0020
0030
0200
0300
0002
0003
2000
3000
0200
0300
,
0020
0030
2000
3000
0020
0030
0002
0003
0200
0300
0020
0030
2000
3000
0002
0000
,
0000
0000
0000
0000
,
0000
0000
0000
0000
0000
0000
0000
0000
0000
0000
0000
0000
0000
0000
0000
0003
;

//---------------dance-single - ----------------
#NOTES:
     dance-single:
     :
     Hard:
     6:
     0.604883,0.889826,0.202431,1.000000,0.033738,352.000000,24.000000,126.000000,0.000000,0.000000,0.000000,0.604883,0.889826,0.202431,1.000000,0.033738,352.000000,24.000000,126.000000,0.000000,0.000000,0.000000:
0000
0000
0000
0000
,
0000
0000
0000
0000
,
1000
0000
0000
0000
0010
0000
0000
1010
0000
0000
0000
0000
0000
0000
0000
0000
,
0001
0000
0000
0000
0010
0000
0000
0011
0000
0000
0000
0000
0000
0000
0000
0000
,
1000
0000
0000
0000
0100
0000
0000
1100
0000
0000
0000
0000
0000
0000
0000
0000
,
0001
0000
0000
0000
0100
0000
0000
0101
0000
0000
1000
0000
1000
0000
1000
0000
,
0001
0000
0000
0000
0010
0000
0000
0011
0000
0000
0000
0000
0000
0000
0000
0000
,
1000
0000
0000
0000
0010
0000
0000
1010
0000
0000
0010
0000
0000
0000
2002
0000
,
0000
0000
3003
0000
,
0001
0000
0000
1000
0000
0000
1001
0000
0000
0000
0001
0000
0100
0000
0100
0000
,
0010
1000
0001
0100
,
0010
0100
0001
0010
,
0001
1000
0001
0010
,
0100
1000
0010
0100
,
0001
0100
0001
0100
0001
1000
0001
1000
,
0100
1000
0100
1000
0001
1000
0001
1000
,
0001
0100
0010
1000
0100
1000
0010
0100
,
0001
1000
0100
0010
0002
0003
2000
3000
,
2002
3003
0000
1100
0000
1000
0100
2000
,
3000
0010
0100
0002
0003
0010
0100
0000
,
2002
3003
0000
0101
0000
0001
0100
0002
,
0003
0010
0100
2000
3000
0010
0100
0001
,
2002
3003
0000
0011
0000
0010
0001
2000
,
3000
0010
0100
0002
0003
0010
0100
0000
,
2200
3300
0000
1010
0000
0010
1000
0002
,
0003
0010
0100
2000
3000
0010
0200
0300
,
0001
0100
0001
0100
0001
0010
0100
1000
,
0100
1000
0100
1000
0001
0100
0010
1000
,
0002
0003
2000
3000
0200
0300
0020
0030
0002
0003
0200
0300
0002
0003
0020
0030
,
0200
0300
2000
3000
0020
0030
0200
0300
0002
0003
0020
0030
0002
0003
2000
3000
,
0100
1000
0100
1000
0001
0100
0010
1000
,
0001
0100
0001
0100
0001
0010
0100
1000
,
0002
0003
0020
0030
0200
0300
2000
3000
0002
0003
0200
0300
0002
0003
2000
3000
,
0200
0300
0020
0030
0002
0003
2000
3000
0002
0003
0200
0300
0020
0030
2000
0000
,
3010
1000
0010
0100
,
0001
1000
0100
1000
,
0002
0000
0000
0000
0000
0003
0020
0030
0200
0300
2000
3000
0002
0003
0200
0300
,
0020
0000
0000
0030
2000
3000
0200
0000
0000
0000
0000
0300
2000
3000
0020
0030
,
0200
0000
0000
0000
0000
0000
0000
0300
0002
0000
0003
0020
0000
0030
0200
0300
,
2000
0000
0000
3000
0020
0030
0200
0000
0000
0000
0000
0300
0002
0003
2000
3000
,
0100
0010
0001
0100
0010
1000
0100
0010
,
0002
0000
0000
0003
,
2002
3003
0000
0101
0000
0001
0100
0002
,
0003
0010
0100
2000
3000
0010
0100
0000
,
2002
3003
0000
1100
0000
1000
0100
2000
,
3000
0010
0100
0002
0003
0010
0100
1000
,
2002
3003
0000
1010
0000
0010
1000
0002
,
0003
0010
0100
2000
3000
0010
0100
0000
,
0202
0303
0000
0011
0000
0010
0001
2000
,
3000
0010
0100
0002
0003
0010
0200
0300
,
1000
0100
1000
0100
1000
0010
0100
0001
,
0100
0001
0100
0001
1000
0100
0010
0001
,
2000
3000
0002
0003
0200
0300
0020
0030
2000
3000
0200
0300
2000
3000
0020
0030
,
0200
0300
0002
0003
0020
0030
0200
0300
2000
3000
0020
0030
2000
3000
0002
0003
,
0100
0001
0100
0001
1000
0100
0010
0001
,
1000
0100
1000
0100
1000
0010
0100
0001
,
2000
3000
0020
0030
0200
0300
0002
0003
2000
3000
0200
0300
2000
3000
0002
0003
,
0200
0300
0020
0030
2000
3000
0002
0003
2000
3000
0200
0300
0020
0030
0002
0000
,
0013
0000
0001
0001
0010
0100
1000
0001
,
0200
0300
0001
0001
1000
0100
0010
0001
,
1000
0100
0010
0100
1000
0001
0010
0100
,
1000
0010
0100
0001
0010
0100
2000
0020
,
0000
0000
0000
0000
,
0000
0000
0000
0000
0000
0000
0000
0000
0000
0000
0000
0000
0000
3000
0000
0030
;

//---------------dance-single - ----------------
#NOTES:
     dance-single:
     :
     Medium:
     4:
     0.326540,0.364586,0.143389,0.016869,0.029521,252.000000,17.000000,2.000000,0.000000,0.000000,0.000000,0.326540,0.364586,0.143389,0.016869,0.029521,252.000000,17.000000,2.000000,0.000000,0.000000,0.000000:
0000
0000
0000
0000
,
0000
0000
0000
0000
,
1000
0000
0000
0000
1000
0000
0000
0100
0000
0000
0000
0000
0000
0000
0000
0000
,
0100
0000
0000
0000
0100
0000
0000
0010
0000
0000
0000
0000
0000
0000
0000
0000
,
0010
0000
0000
0000
0010
0000
0000
0001
0000
0000
0000
0000
0000
0000
0000
0000
,
0001
0000
0000
0000
0001
0000
0000
0100
0000
0000
0001
0000
0001
0000
0001
0000
,
1000
0000
0000
0000
1000
0000
0000
0100
0000
0000
0000
0000
0000
0000
0000
0000
,
0100
0000
0000
0000
0100
0000
0000
0010
0000
0000
0001
0000
0000
0000
2002
0000
,
0000
0000
3003
0000
,
0001
0000
0000
0001
0000
0000
0010
0000
0000
0000
1001
0000
0000
0000
0000
0000
,
1000
0001
0100
0010
,
1000
0100
1000
0010
,
0100
0001
1000
0100
,
0010
0001
0010
0100
,
1000
0010
1000
0000
0001
0010
0001
0000
,
1000
0100
1000
0000
0001
0100
0001
0000
,
0010
0001
0100
0000
0010
1000
0100
0000
,
1000
0001
0010
0000
0001
1000
0010
0000
,
1001
0000
0000
1000
0000
0010
0010
0010
,
0000
1000
0001
0100
0000
0001
1000
0000
,
1001
0000
0000
0001
0000
0010
0010
0010
,
0000
0001
1000
0100
0000
1000
0001
0100
,
1001
0000
0000
0001
0000
0100
0100
0100
,
0000
0001
1000
0010
0000
1000
0001
0000
,
1001
0000
0000
1000
0000
0100
0100
0100
,
0000
1000
0001
0010
0000
0001
1000
0000
,
0010
0000
0100
0000
0001
0010
0001
0000
,
0010
0000
0100
0000
1000
0010
1000
0000
,
0001
0001
0010
0010
,
0100
1000
0001
1001
,
0100
0000
0010
0000
1000
0100
1000
0000
,
0100
0000
0010
0000
0001
0100
0001
0000
,
1000
1000
0001
0001
,
0100
0010
1000
1001
,
0100
0000
1000
0000
,
0001
0000
0100
0000
,
1001
0000
0001
0000
,
1000
0000
0010
0000
,
1000
0000
0010
0000
,
0100
0000
0001
0000
,
0100
0001
1000
0010
,
1001
0000
0000
0000
,
1001
0000
0000
1000
0000
0010
0010
0010
,
0000
1000
0001
0100
0000
0001
1000
0000
,
1001
0000
0000
0001
0000
0010
0010
0010
,
0000
0001
1000
0100
0000
1000
0001
0100
,
1001
0000
0000
0001
0000
0100
0100
0100
,
0000
0001
1000
0010
0000
1000
0001
0000
,
1001
0000
0000
1000
0000
0100
0100
0100
,
0000
1000
0001
0010
0000
0001
1000
0000
,
0010
0000
0100
0000
0001
0010
0001
0000
,
0010
0000
0100
0000
1000
0010
1000
0000
,
0001
0001
0010
0010
,
0100
1000
0001
1001
,
0100
0000
0010
0000
1000
0100
1000
0000
,
0100
0000
0010
0000
0001
0100
0001
0000
,
1000
1000
0001
0001
,
0100
0010
1000
1001
,
0100
0000
0100
0100
,
1000
0000
1000
1000
,
0001
0100
0010
1000
,
0001
1000
0100
1001
;

//---------------dance-single - ----------------
#NOTES:
     dance-single:
     :
     Easy:
     2:
     0.200021,0.260419,0.042173,0.151823,0.000000,143.000000,5.000000,18.000000,0.000000,0.000000,0.000000,0.200021,0.260419,0.042173,0.151823,0.000000,143.000000,5.000000,18.000000,0.000000,0.000000,0.000000:
// measure 0
0000
0000
0000
0000
,  // measure 1
0000
0000
0000
0000
,  // measure 2
1000
0100
0010
0000
,  // measure 3
0001
0100
0010
0000
,  // measure 4
1000
0001
0100
0000
,  // measure 5
0001
1000
0100
0000
,  // measure 6
1000
0100
0010
0000
,  // measure 7
0001
0100
0010
0000
,  // measure 8
2002
0000
3003
0000
,  // measure 9
1000
1000
0001
0001
,  // measure 10
0100
0000
0100
0000
,  // measure 11
0001
0000
0001
0000
,  // measure 12
1000
0000
1000
0000
,  // measure 13
0010
0000
0010
0000
,  // measure 14
0100
0000
0001
0000
,  // measure 15
1000
0000
0100
0000
,  // measure 16
0010
0000
0001
0000
,  // measure 17
0100
0000
0100
0000
,  // measure 18
0002
0000
0000
0003
0000
0000
0000
0000
0000
0000
0000
0000
0000
0000
0000
0000
,  // measure 19
0200
0000
0000
0300
0000
0000
0000
0000
0000
0000
0000
0000
0000
0000
0000
0000
,  // measure 20
0020
0000
0000
0030
0000
0000
0000
0000
0000
0000
0000
0000
0000
0000
0000
0000
,  // measure 21
2000
0000
0000
3000
0000
0000
0000
0000
0000
0000
0000
0000
0000
0000
0000
0000
,  // measure 22
0200
0000
0000
0300
0000
0000
0000
0000
0000
0000
0000
0000
0000
0000
0000
0000
,  // measure 23
2000
0000
0000
3000
0000
0000
0000
0000
0000
0000
0000
0000
0000
0000
0000
0000
,  // measure 24
0002
0000
0000
0003
0000
0000
0000
0000
0000
0000
0000
0000
0000
0000
0000
0000
,  // measure 25
0020
0000
0000
0030
0000
0000
0000
0000
0000
0000
0000
0000
0000
0000
0000
0000
,  // measure 26
0100
0100
1000
0000
,  // measure 27
1000
1000
0001
0000
,  // measure 28
0001
0001
0100
0100
,  // measure 29
0010
0010
1000
1000
,  // measure 30
0010
0010
1000
0000
,  // measure 31
1000
1000
0001
0000
,  // measure 32
0001
0001
0010
0010
,  // measure 33
0100
0100
1000
1000
,  // measure 34
0100
0000
0100
0000
,  // measure 35
0100
0000
0100
0000
,  // measure 36
1010
0000
0000
0000
,  // measure 37
1000
0010
0100
0001
,  // measure 38
1001
0000
1000
0000
,  // measure 39
0100
0000
0010
0000
,  // measure 40
0001
1000
0001
1000
,  // measure 41
1001
0000
0000
0000
,  // measure 42
0002
0000
0000
0003
0000
0000
0000
0000
0000
0000
0000
0000
0000
0000
0000
0000
,  // measure 43
0020
0000
0000
0030
0000
0000
0000
0000
0000
0000
0000
0000
0000
0000
0000
0000
,  // measure 44
0200
0000
0000
0300
0000
0000
0000
0000
0000
0000
0000
0000
0000
0000
0000
0000
,  // measure 45
2000
0000
0000
3000
0000
0000
0000
0000
0000
0000
0000
0000
0000
0000
0000
0000
,  // measure 46
0020
0000
0000
0030
0000
0000
0000
0000
0000
0000
0000
0000
0000
0000
0000
0000
,  // measure 47
2000
0000
0000
3000
0000
0000
0000
0000
0000
0000
0000
0000
0000
0000
0000
0000
,  // measure 48
0002
0000
0000
0003
0000
0000
0000
0000
0000
0000
0000
0000
0000
0000
0000
0000
,  // measure 49
0200
0000
0000
0300
0000
0000
0000
0000
0000
0000
0000
0000
0000
0000
0000
0000
,  // measure 50
0010
0010
1000
0000
,  // measure 51
1000
1000
0001
0000
,  // measure 52
0001
0001
0010
0010
,  // measure 53
0100
0100
1000
1000
,  // measure 54
0100
0100
1000
0000
,  // measure 55
1000
1000
0001
0000
,  // measure 56
0001
0001
0100
0100
,  // measure 57
0010
0010
1000
1000
,  // measure 58
0100
0000
0100
0100
,  // measure 59
1000
0000
1000
1000
,  // measure 60
0001
0100
0010
1000
,  // measure 61
0100
1000
0001
1001
;
