#TITLE:검은고양이;
#SUBTITLE:;
#ARTIST:Turbo;
#TITLETRANSLIT:Black Cat;
#SUBTITLETRANSLIT:;
#ARTISTTRANSLIT:;
#GENRE:;
#CREDIT:;
#BANNER:Black Cat-banner.png;
#BACKGROUND:Black Cat-bg.png;
#LYRICSPATH:;
#CDTITLE:;
#MUSIC:Black Cat.ogg;
#OFFSET:0.045000;
#SAMPLESTART:40.682449;
#SAMPLELENGTH:12.000000;
#SELECTABLE:YES;
#BPMS:0.000000=143.000000
;
#STOPS:
;
#BGCHANGES:0.000=Black Cat.AVI=1.000=0=0=0=StretchNoLoop====,
99999=-nosongbg-=1.000=0=0=0 // don't automatically add -songbackground-
;
#KEYSOUNDS:;
#ATTACKS:;

//---------------dance-single - ----------------
#NOTES:
     dance-single:
     :
     Medium:
     5:
     0.312185,0.337778,0.277322,0.000000,0.000000,172.000000,25.000000,0.000000,0.000000,0.000000,0.000000,0.312185,0.337778,0.277322,0.000000,0.000000,172.000000,25.000000,0.000000,0.000000,0.000000,0.000000:
// measure 0
0000
0000
0000
0000
,  // measure 1
0000
0000
0000
0000
,  // measure 2
0000
0000
0000
0000
,  // measure 3
0000
0000
0000
0000
,  // measure 4
0000
0000
0000
0000
,  // measure 5
0000
0000
0000
0000
,  // measure 6
0000
0000
0000
0000
,  // measure 7
0010
0000
0100
0000
0010
1000
0100
0000
,  // measure 8
0010
0000
0100
0000
0010
0001
0100
0000
,  // measure 9
0010
0000
1001
0000
0001
0001
0001
0000
,  // measure 10
0100
0000
1001
0000
1000
1000
1000
0000
,  // measure 11
0000
0100
0000
1001
,  // measure 12
0100
0001
0100
1000
,  // measure 13
0100
0000
1001
0000
0001
0001
0001
0000
,  // measure 14
0010
0000
1001
0000
1000
1000
1000
0000
,  // measure 15
0000
0100
0001
1001
,  // measure 16
0100
0000
0000
0000
0100
0100
0000
0000
,  // measure 17
0100
1000
0001
0011
,  // measure 18
0010
0001
1000
1001
,  // measure 19
0100
0000
0100
0000
0000
0100
0100
0000
,  // measure 20
0100
1000
0001
0101
,  // measure 21
0100
0001
1000
1010
,  // measure 22
0100
0000
0000
0000
0100
0100
0000
0000
,  // measure 23
0100
0000
1000
0000
0000
0001
0001
0000
,  // measure 24
0001
0000
0000
0000
,  // measure 25
0100
0001
0100
1010
,  // measure 26
0001
1000
0001
0011
,  // measure 27
0010
0001
0010
1100
,  // measure 28
0010
0100
0010
1010
,  // measure 29
0010
1000
0010
0101
,  // measure 30
1000
0001
1000
1100
,  // measure 31
0100
1000
0100
0011
,  // measure 32
0100
0010
0100
0101
,  // measure 33
0100
0001
0100
1001
,  // measure 34
0000
0000
0000
0000
,  // measure 35
0000
0000
0000
0000
,  // measure 36
1000
0000
0100
0000
0000
1000
1000
0000
,  // measure 37
0001
0000
0100
0000
0010
1000
0100
0000
,  // measure 38
0001
0000
0100
0000
0000
0001
0001
0000
,  // measure 39
1000
0000
0100
0000
0010
0001
0100
0000
,  // measure 40
1000
0010
1000
0010
1000
0010
1000
0010
,  // measure 41
1000
0000
0000
0000
,  // measure 42
0010
0000
0100
0000
0010
1000
0100
0000
,  // measure 43
0010
0000
0100
0000
0010
0001
0100
0000
,  // measure 44
0010
0000
1001
0000
0001
0001
0001
0000
,  // measure 45
0100
0000
1001
0000
1000
1000
1000
0000
,  // measure 46
0000
0100
0000
1001
,  // measure 47
0100
0001
0100
1000
,  // measure 48
0100
0000
1001
0000
0001
0001
0001
0000
,  // measure 49
0010
0000
1001
0000
1000
1000
1000
0000
,  // measure 50
0000
0100
0001
1001
;
