#TITLE:Beethoven Virus;
#SUBTITLE:;
#ARTIST:BanYa;
#TITLETRANSLIT:;
#SUBTITLETRANSLIT:;
#ARTISTTRANSLIT:;
#GENRE:Classical Crossover;
#CREDIT:;
#BANNER:Beethoven Virus.png;
#BACKGROUND:Beethoven Virus-bg.png;
#LYRICSPATH:;
#CDTITLE:;
#MUSIC:Beethoven Virus.ogg;
#OFFSET:-0.189000;
#SAMPLESTART:17.388000;
#SAMPLELENGTH:18.000000;
#SELECTABLE:YES;
#BPMS:0.000000=162.000000
;
#STOPS:
;
#BGCHANGES:-10000.000=songbackground=1.000=0=0=1=====,
-0.189=Beethoven Virus.avi=1.000=1=0=1===CrossFade==,
99999=-nosongbg-=1.000=0=0=0 // don't automatically add -songbackground-
;
#KEYSOUNDS:;
#ATTACKS:;

//---------------dance-single - ----------------
#NOTES:
     dance-single:
     :
     Hard:
     10:
     0.592519,0.687703,0.310571,0.230424,0.090166,360.000000,31.000000,23.000000,0.000000,0.000000,0.000000,0.592519,0.687703,0.310571,0.230424,0.090166,360.000000,31.000000,23.000000,0.000000,0.000000,0.000000:
0000
0000
0000
0000
,
0000
0000
0000
0000
,
0000
0000
0000
0000
,
0000
0000
0000
0000
,
2100
0000
3000
0010
0200
0000
0300
0001
,
2000
0000
0000
0000
0000
0000
3000
0000
0010
0000
0100
0000
0001
1000
0100
0010
,
0001
0011
1000
1010
,
1001
0000
0000
0000
0000
0000
1000
0100
,
0020
0000
0000
0000
0031
0000
0001
0100
,
0020
0000
0000
0000
1030
0000
1000
0001
,
0100
1000
0100
0001
0010
1000
0010
0001
,
2000
0000
0000
3000
0000
0000
0000
0000
,
0102
0000
0003
0010
0200
0000
0300
1000
,
0002
0000
0000
0000
0000
0000
0003
0000
0010
0000
0100
0000
1000
0001
0100
0010
,
1000
1010
0001
0011
,
1001
0000
0000
0000
0000
0000
0001
0100
,
0010
1000
0100
0000
1001
0000
1000
0100
,
0010
0001
0100
0000
1001
0000
0001
1000
,
0100
0001
0100
1000
0010
0001
0010
1000
,
0002
0000
0000
0003
0000
0100
0001
0100
,
0010
1000
0100
1000
0010
0100
0001
1000
,
0010
0100
0001
1000
0001
0010
0001
1000
,
0010
0100
0001
1000
0001
0100
0001
1000
,
0001
0100
0010
0100
0001
0100
1000
0100
,
0001
0101
1000
1100
,
0001
0100
0010
1000
0001
1000
0100
0010
,
0001
0000
0011
0000
1000
0000
1010
0010
,
1000
0001
0010
0001
0100
0010
1000
0100
,
2000
0000
0000
0000
0000
0000
0000
3000
0010
0000
0100
0000
0001
0000
0000
0000
,
1000
0100
0010
0001
0100
0010
0001
0010
,
2000
0000
0000
0000
0000
0000
0000
3000
0001
0000
0010
0000
1000
0000
0010
0000
,
0001
0100
0001
1000
0001
0010
0100
1000
,
0020
0000
0000
0000
0000
0000
0000
0030
0001
0000
0010
0000
1000
0000
0001
0000
,
0010
0100
1000
0010
0100
0001
1000
0100
,
0010
0000
0000
0000
0001
0100
0010
1000
,
0100
1000
0001
0100
0010
1000
0100
1000
,
1001
1000
0010
0100
0001
0100
0001
1000
,
1001
0001
0010
0100
1000
0100
1000
0001
,
1001
1000
0010
0100
0001
1000
0100
0010
,
0110
0000
0010
0000
0100
0000
1000
0000
0010
0100
0001
1000
0100
0010
0001
0000
,
1001
0010
0001
0010
1000
0001
0010
0100
,
1100
0100
1000
0010
0100
0001
1000
0100
,
1001
0000
0010
0000
0100
0000
0001
0000
1000
0100
0010
0001
0100
0001
1000
0000
,
0010
1000
0010
1000
0001
0100
0001
0100
0010
0000
0000
0000
0000
0000
0000
0000
,
1100
0001
0110
0001
,
0000
1100
0000
0011
,
0000
1001
1001
0000
,
0001
0010
1000
0010
0001
0010
1000
0010
,
0002
0000
0000
0003
0000
0000
1000
0100
,
0020
0000
0000
0000
0031
0000
0001
0100
,
0020
0000
0000
0000
1030
0000
1000
0001
,
0100
1000
0100
0001
0010
1000
0010
0001
,
2000
0000
0000
3000
0000
0000
0000
0000
,
0100
0011
0100
1001
,
0000
1001
1001
0000
,
1000
0010
0001
0010
1000
0010
0001
0010
,
2000
0000
0000
3000
0000
0000
0001
0100
,
0020
0000
0000
0000
1030
0000
1000
0100
,
0020
0000
0000
0000
0031
0000
0001
1000
,
0100
0001
0100
1000
0010
0001
0010
1000
,
0002
0000
0000
0003
0000
0000
0001
0100
,
0010
1000
0100
1000
0001
0000
1000
0100
,
0010
0001
0100
0001
1000
0000
1000
0001
,
0100
1000
0100
0001
0010
1000
0010
0001
,
2000
0000
0000
0000
0000
0000
3000
0000
0001
1000
0001
1000
0100
0010
0001
0100
,
0002
0000
0000
0003
0000
0000
0000
0000
;

//---------------dance-single - ----------------
#NOTES:
     dance-single:
     :
     Medium:
     5:
     0.473729,0.488399,0.450830,0.000000,0.000000,286.000000,45.000000,0.000000,0.000000,0.000000,0.000000,0.473729,0.488399,0.450830,0.000000,0.000000,286.000000,45.000000,0.000000,0.000000,0.000000,0.000000:
0000
0000
0000
0000
,
0000
0000
0000
0000
,
0000
0000
0000
0000
,
0000
0000
0000
0000
,
1000
0100
1000
0100
1000
0000
0000
0000
,
0001
0100
0001
0100
0001
0000
0000
0000
,
0011
0100
1010
0100
,
1001
0000
0000
0000
0000
0000
0001
1000
,
0010
0000
0000
0000
1001
0000
1000
0001
,
0010
0000
0000
0000
1001
0000
1000
0001
,
0100
1000
0100
0001
0010
1000
0010
0001
,
1000
0000
0000
0000
,
1000
0100
1000
0100
1000
0000
0000
0000
,
0001
0100
0001
0100
0001
0000
0000
0000
,
1010
0100
1001
0100
,
0011
0000
0000
0000
0000
0000
0001
1000
,
0010
0000
0000
0000
1001
0000
1000
0001
,
0010
0000
0000
0000
1001
0000
1000
0001
,
0100
1000
0100
0001
0010
1000
0010
0001
,
1000
0000
0000
0000
,
0100
1000
0100
1000
0001
0100
0001
0000
,
1000
0010
0100
1001
,
0100
0001
0100
0001
1000
0100
1000
0000
,
0001
0010
0100
1001
,
1000
0100
1000
0100
0010
0001
0010
0000
,
0100
0001
1000
0100
0010
0000
0011
0000
,
0001
0100
0001
0100
0010
1000
0010
0000
,
0100
1000
0001
0100
0010
1000
0100
1000
,
0001
0000
0000
0000
1000
0001
0010
0001
,
0100
0001
1000
0100
,
1000
0000
0000
0000
1000
0001
0100
0010
,
1000
0010
0100
0001
,
0001
0000
0000
0000
0001
1000
0100
0010
,
0001
0010
0100
1000
,
0100
0000
0000
0000
0001
1000
0010
0000
,
1001
1001
1001
1001
,
1001
0000
0100
0000
1000
0001
1000
0001
,
1001
0000
0100
0000
0001
1000
0001
1000
,
1001
0000
0100
0000
0001
0010
1000
0010
,
1001
0000
0100
0000
1000
0010
0001
0010
,
1010
0000
0100
0000
1000
0010
0100
0001
,
0101
0000
0100
0000
0001
0100
0010
1000
,
0100
0100
0100
0100
,
1000
0001
1000
0001
1001
0000
0000
0000
,
1100
0001
0110
1000
,
0000
1001
0000
1001
,
0000
1001
1001
0000
,
0001
0010
1000
0010
0001
0010
1000
0010
,
0001
0000
0000
0000
0000
0000
0001
1000
,
0010
0000
0000
0000
1001
0000
1000
0001
,
0010
0000
0000
0000
1001
0000
1000
0001
,
0100
1000
0100
0001
0010
1000
0010
0001
,
1000
0000
0000
0000
,
0000
1001
0000
1001
,
0000
1001
1001
0000
,
0011
1010
0101
1100
,
0001
0000
0000
0000
0000
0000
0001
1000
,
0010
0000
0000
0000
1001
0000
1000
0001
,
0010
0000
0000
0000
1001
0000
1000
0001
,
0100
1000
0100
0001
0010
1000
0010
0001
,
1000
0000
0000
0000
0000
0000
0001
1000
,
0010
0000
0000
0000
1001
0000
1000
0001
,
0010
0000
0000
0000
1001
0000
1000
0001
,
0100
1000
0100
0001
0010
1000
0010
0001
,
1000
0000
0000
0000
1000
0001
1000
0001
,
1001
0000
0000
0000
;

//---------------dance-single - ----------------
#NOTES:
     dance-single:
     :
     Easy:
     3:
     0.300553,0.325599,0.420774,0.000000,0.000000,168.000000,42.000000,0.000000,0.000000,0.000000,0.000000,0.300553,0.325599,0.420774,0.000000,0.000000,168.000000,42.000000,0.000000,0.000000,0.000000,0.000000:
// measure 0
0000
0000
0000
0000
,  // measure 1
0000
0000
0000
0000
,  // measure 2
0000
0000
0000
0000
,  // measure 3
0000
0000
0000
0000
,  // measure 4
1000
0100
1000
0000
,  // measure 5
0001
0100
0001
0000
,  // measure 6
1001
0000
1001
0000
,  // measure 7
1001
0000
0000
0000
,  // measure 8
0000
0000
1100
0000
,  // measure 9
0000
0000
0011
0100
,  // measure 10
0001
1000
0010
0100
,  // measure 11
0100
0000
0000
0000
,  // measure 12
1000
0100
1000
0000
,  // measure 13
0001
0100
0001
0000
,  // measure 14
1001
0000
1001
0000
,  // measure 15
1001
0000
0000
0000
,  // measure 16
0000
0000
0101
0000
,  // measure 17
0000
0000
1010
0100
,  // measure 18
1000
0001
0010
0100
,  // measure 19
0100
0000
0000
0000
,  // measure 20
0100
0100
1000
0001
,  // measure 21
0100
0100
0001
1000
,  // measure 22
0010
1000
0100
1000
,  // measure 23
0010
0001
0100
0001
,  // measure 24
0100
0001
1000
0010
,  // measure 25
0100
0100
0100
1001
,  // measure 26
0100
1000
0001
0010
,  // measure 27
0100
0100
0100
0000
,  // measure 28
0000
0000
1000
0010
,  // measure 29
0100
0001
1000
0100
,  // measure 30
1000
0000
1000
0100
,  // measure 31
0010
0001
0100
1000
,  // measure 32
0001
0000
0001
0100
,  // measure 33
0010
0100
0001
1000
,  // measure 34
0100
0000
0100
0010
,  // measure 35
0011
0100
0011
0100
,  // measure 36
1100
0100
1000
0001
,  // measure 37
0011
0010
0001
1000
,  // measure 38
0110
0001
1000
0100
,  // measure 39
1001
0100
0001
1000
,  // measure 40
0110
1000
0100
0010
,  // measure 41
0110
0001
0100
0010
,  // measure 42
1001
0000
1001
0000
,  // measure 43
1000
0001
1001
0000
,  // measure 44
0101
0000
1010
0000
,  // measure 45
0000
1001
0000
1001
,  // measure 46
0000
1001
1001
0000
,  // measure 47
0001
0010
1000
0010
,  // measure 48
0001
0000
0000
0000
,  // measure 49
0000
0000
1100
0000
,  // measure 50
0000
0000
0011
0100
,  // measure 51
0001
1000
0010
0100
,  // measure 52
0100
0000
0000
0000
,  // measure 53
0000
1001
0000
1001
,  // measure 54
0000
1001
1001
0000
,  // measure 55
0110
0000
0110
0000
,  // measure 56
0110
0000
0000
0000
,  // measure 57
0000
0000
0101
0000
,  // measure 58
0000
0000
1010
0100
,  // measure 59
1000
0001
0010
0100
,  // measure 60
0100
0000
0000
1000
,  // measure 61
0100
0000
1100
0010
,  // measure 62
0001
0000
0011
0100
,  // measure 63
0001
1000
0010
0100
,  // measure 64
0100
0000
0000
0000
,  // measure 65
1001
0000
0000
0000
;

//---------------dance-single - ----------------
#NOTES:
     dance-single:
     :
     Challenge:
     12:
     0.774282,1.000000,0.210387,0.270498,0.510940,493.000000,21.000000,27.000000,0.000000,0.000000,0.000000,0.774282,1.000000,0.210387,0.270498,0.510940,493.000000,21.000000,27.000000,0.000000,0.000000,0.000000:
0000
0000
0000
0000
,
0000
0000
0000
0000
,
0002
0000
0000
0000
,
0100
0000
0100
0003
0100
0001
0010
0100
,
2000
0000
3010
0100
0002
0000
1003
0100
,
0020
0000
0000
0000
0000
0000
0000
0030
0001
0000
0010
0100
1000
0001
0010
0100
,
1000
1010
0001
0011
,
1001
0000
0000
0000
0000
0000
1000
0100
,
0020
0000
0000
0000
0031
0000
0001
0100
,
0020
0000
0000
0000
1030
0000
1000
0001
,
0100
1000
0100
0001
0010
1000
0010
0001
,
2000
0000
0000
0000
3000
0000
0000
0000
1001
0000
0001
1000
0100
0010
0100
1000
,
0002
0000
0013
0100
2000
0000
3001
0100
,
0020
0000
0000
0000
0000
0000
0000
0030
1000
0000
0010
0100
0001
1000
0010
0100
,
0001
0011
1000
1010
,
1001
0000
0000
0000
0000
0000
0001
0100
,
0020
0000
0000
0000
1030
0000
1000
0100
,
0020
0000
0000
0000
0031
0000
0001
1000
,
0100
0001
0100
1000
0010
0001
0010
1000
,
0002
0000
0003
0000
0000
0100
0001
0100
,
0010
1000
0100
1000
0010
0100
0001
1000
,
0010
0100
0001
1000
0001
0010
0001
1000
,
0010
0100
0001
1000
0001
0100
0001
1000
,
0001
0100
0010
0100
0001
0100
1000
0100
,
0001
0010
0100
1000
0010
0100
0001
1000
,
0001
0100
0010
1000
0100
0010
1000
0010
,
0001
0100
0001
0010
0100
0010
0100
1000
,
0010
0000
0001
0000
0010
0000
1000
0000
0001
0000
0100
0001
1000
0001
0100
0001
,
2000
0000
0000
3000
0000
0000
0001
0100
0010
0000
1000
0000
0100
0000
0000
0000
,
1000
0010
0100
0001
1000
0100
0010
0001
,
0200
0000
0300
0010
0001
0010
0100
0010
,
1000
0001
0010
0100
1000
0100
0010
0001
,
2000
0000
3000
0010
0100
0001
0010
0100
,
1000
0010
0100
0001
1000
0100
0010
0001
,
2000
0000
3000
0001
0100
1000
0100
0001
,
1000
0100
0010
0001
0100
0010
1000
0100
1000
0010
0100
0001
0010
0001
0100
0001
,
0010
0000
1000
0000
0010
0000
0001
0000
1000
0000
0010
0000
0100
0000
0001
1000
,
0001
0000
0010
0000
0100
0000
1000
0000
0010
0000
0001
0000
0010
0000
1000
0100
,
0010
0000
1000
0000
0010
0000
0001
0000
1000
0000
0010
0000
0001
0000
0010
0100
,
0001
0000
0010
0000
0100
0000
1000
0000
0001
0100
0010
1000
0100
0010
0001
0100
,
0001
0000
0010
0000
0100
0000
0010
0000
1000
0000
0010
0000
0100
0000
1000
0010
,
0100
0000
0010
0000
0001
0000
0010
0000
0100
0000
0010
0000
1000
0000
0100
1000
,
0010
0100
0001
0100
0010
1000
0100
1000
0001
0100
0010
0100
0001
0010
0100
0010
,
0001
0010
0100
1000
0100
0010
0001
0010
0100
0000
0000
0000
0000
0000
0000
0000
,
1001
1010
1001
0011
,
1000
1010
0001
0011
,
1001
0000
0000
0000
0100
0000
0000
0000
0011
0000
0010
0100
1000
0001
0100
0010
,
1000
0001
0100
0010
1000
0001
0100
0010
1000
0001
0100
0010
1000
0001
0100
0020
,
2000
0000
0000
0000
3030
0000
1000
0100
,
0020
0000
0000
0000
0031
0000
0001
0100
,
0020
0000
0000
0000
1030
0000
1000
0001
,
0100
1000
0100
0001
0010
1000
0010
0001
,
2000
0000
0000
0000
3000
0000
0000
0000
1001
0000
0001
1000
0100
0010
0100
1000
,
0001
1010
1000
0011
,
0001
0000
0000
0000
1001
0000
0000
0000
1010
0000
0010
0100
0001
1000
0100
0010
,
0001
1000
0100
0010
0001
1000
0100
0010
0001
1000
0100
0010
0001
1000
0100
0020
,
0002
0000
0000
0000
0033
0000
1000
0100
,
0010
0001
0100
0010
1000
0000
0001
0100
,
0010
1000
0100
0010
0001
0000
0001
1000
,
0100
0001
0100
1000
0010
0001
0010
1000
,
0002
0000
0000
0000
0003
0000
0000
0000
1001
0000
1000
0001
0100
0010
0100
0001
,
0010
0100
1000
0100
0010
0001
0100
0001
1000
0100
1000
0001
1000
0100
0010
0001
,
1000
0100
0010
0001
0100
0001
0010
0100
1000
0001
0010
0100
1000
0001
1000
0001
,
0010
0001
1000
0010
0100
0001
0100
0010
1000
0100
1000
0001
1000
0100
0010
0001
,
0100
0001
0010
0100
1000
0001
1000
0010
0100
0001
0010
0100
1000
0001
0100
0020
,
2000
0000
3030
0000
;
