#TITLE:Baroque Virus;
#SUBTITLE:;
#ARTIST:Zircon;
#TITLETRANSLIT:;
#SUBTITLETRANSLIT:;
#ARTISTTRANSLIT:;
#GENRE:;
#CREDIT:;
#BANNER:Baroque Virus.png;
#BACKGROUND:Baroque Virus-bg.png;
#LYRICSPATH:;
#CDTITLE:cdtitle.png;
#MUSIC:Baroque Virus.mp3;
#OFFSET:-0.262000;
#SAMPLESTART:67.800003;
#SAMPLELENGTH:12.000012;
#SELECTABLE:YES;
#BPMS:0.000000=135.000000
,120.000000=67.500000
,128.000000=135.000000
,216.000000=67.500000
;
#STOPS:
;
#BGCHANGES:-0.400=Baroque Virus.avi=1.000=1=0=0=StretchNoLoop==CrossFade==,
0.000=Baroque Virus.avi=1.000=0=0=0=StretchNoLoop====,
99999=-nosongbg-=1.000=0=0=0 // don't automatically add -songbackground-
;
#KEYSOUNDS:;
#ATTACKS:;

//---------------dance-single - ----------------
#NOTES:
     dance-single:
     :
     Medium:
     7:
     0.626465,0.791735,0.008532,1.000000,0.000000,329.000000,1.000000,184.000000,0.000000,0.000000,0.000000,0.626465,0.791735,0.008532,1.000000,0.000000,329.000000,1.000000,184.000000,0.000000,0.000000,0.000000:
0000
0000
0000
0000
,
0000
0000
0000
0000
,
0000
0000
0000
0000
,
0000
0000
0000
0000
0000
0000
0002
0003
,
0010
0001
0100
0001
1000
0001
1000
0100
,
1000
0010
1000
0100
1000
0001
1000
0001
,
0010
0100
0010
1000
0010
0001
1000
0010
,
0100
0001
1000
0100
0010
0001
1000
0001
,
0010
0100
1000
0001
1000
0001
0100
0001
,
1000
0010
0100
0001
0010
0100
1000
0100
,
0010
0001
0100
0001
1000
0010
0100
0001
,
1000
0001
0010
0100
1000
0010
1000
0100
,
1000
0010
0100
0010
0001
0010
1000
0001
,
0010
1000
0010
0001
0010
0100
1000
0001
,
1000
0010
0100
0000
0001
0010
0100
1000
,
0010
0001
0010
1000
0100
1000
0010
0100
,
0002
0000
0000
0000
0000
0000
0000
0000
0000
0000
0000
0003
0020
0030
0200
0300
,
2000
0000
0000
0000
0000
0000
0000
0000
0000
0000
0000
3000
0002
0003
0200
0300
,
0020
0000
0000
0000
0000
0030
2000
3000
0002
0003
0020
0030
0200
0300
2000
3000
,
0200
0000
0000
0000
0000
0000
0000
0300
2000
0000
0000
3000
0020
0000
0000
0030
,
0002
0000
0000
0000
0000
0003
0020
0030
2000
3000
0200
0300
2000
3000
0200
0300
,
0002
0000
0000
0000
0000
0003
0200
0300
2000
3000
0200
0300
2000
3000
0020
0030
,
0002
0000
0000
0000
0000
0003
0020
0030
2000
0000
0000
0000
0000
3000
0200
0300
,
0020
0000
0000
0000
0000
0000
0000
0030
0001
0000
1000
0000
0010
0000
0100
0000
,
0002
0100
0100
0100
,
0100
0003
0100
0010
0001
0010
1000
0100
,
0020
0000
0001
0000
0001
0000
0001
0030
,
0200
0000
1000
0000
1000
0000
1000
0300
,
2000
0100
0001
3100
,
0002
0100
1000
0103
,
1001
0000
0001
0000
,
1000
0000
0010
0000
,
0100
0010
1000
0001
,
1000
0010
0001
0010
,
1000
0100
0010
0001
,
1000
0100
0001
0100
,
2000
3000
0002
0003
2000
3000
0200
0300
0020
0030
0200
0300
2000
3000
0002
0003
,
2000
3000
0200
0300
0020
0030
0200
0300
2000
3000
0002
0003
0020
0030
0200
0300
,
2000
3000
0200
0300
2000
3000
0002
0003
0020
0030
0002
0003
2000
3000
0200
0300
,
2000
3000
0002
0003
0020
0030
0002
0003
2000
3000
0002
0003
0200
0300
0020
0030
,
2000
3000
0002
0003
2000
3000
0020
0030
0200
0300
0020
0030
2000
3000
0002
0003
,
2000
3000
0020
0030
0200
0300
0020
0030
2000
3000
0002
0003
0200
0300
0020
0030
,
2000
3000
0200
0300
2000
3000
0002
0003
0020
0030
0002
0003
2000
3000
0200
0300
,
2000
3000
0002
0003
0020
0030
0002
0003
2000
3000
0020
0030
0200
0300
0002
0003
,
0020
0030
2000
3000
0002
0003
0200
0300
2000
3000
0002
0003
0200
0300
2000
3000
,
0200
0300
0002
0003
0020
0030
0200
0300
2000
3000
0020
0030
0200
0300
0002
0003
,
2000
3000
0020
0030
0200
0300
0002
0003
0020
0030
0200
0300
0020
0030
2000
3000
,
0020
0030
0002
0003
0200
0300
0020
0030
2000
3000
0002
0003
0200
0300
0020
0030
,
2000
3000
0020
0030
0200
0300
0020
0030
2000
3000
0002
0003
0020
0030
2000
3000
,
0002
0003
0200
0300
0020
0030
2000
3000
0020
0030
0002
0003
0200
0300
0020
0030
,
2000
3000
0200
0300
0020
0030
0002
0003
2000
3000
0020
0030
0200
0300
0002
0003
,
0020
0030
2000
3000
0020
0030
0002
0003
2000
3000
0020
0030
0200
0300
0002
0003
,
2000
0000
0100
0000
0100
0000
0100
3000
,
0200
0300
0020
0030
2000
3000
0020
0030
0002
0003
0200
0300
2000
3000
0200
0300
,
0002
0003
0000
0000
,
0000
0000
0000
2000
,
3002
0023
2030
3200
,
0302
0023
2030
0000
,
3100
0000
0000
0000
;

//---------------dance-single - ----------------
#NOTES:
     dance-single:
     :
     Hard:
     10:
     0.532617,0.593801,0.110911,0.230354,0.238885,397.000000,13.000000,27.000000,0.000000,0.000000,0.000000,0.532617,0.593801,0.110911,0.230354,0.238885,397.000000,13.000000,27.000000,0.000000,0.000000,0.000000:
// measure 0
0000
0000
0000
0000
,  // measure 1
0000
0000
0000
0000
,  // measure 2
0000
0000
0000
0000
,  // measure 3
0000
0000
0000
0000
,  // measure 4
0001
0100
0001
0100
0001
0100
0001
0100
0010
0000
1000
0000
0010
0000
1000
0000
,  // measure 5
0100
1000
0100
1000
0100
1000
0100
1000
0001
0000
0010
0000
0001
0000
0010
0000
,  // measure 6
0001
1000
0001
1000
0001
1000
0001
1000
0010
0000
0100
0000
0010
0000
0100
0000
,  // measure 7
0001
1000
0001
1000
0001
1000
0001
1000
0001
0000
0000
0000
0110
0000
0000
0000
,  // measure 8
1000
0100
0010
0001
0100
0010
1000
0100
,  // measure 9
0001
0100
1000
0010
0001
0010
1000
0010
,  // measure 10
1000
0100
1000
0001
1000
0100
0010
0100
,  // measure 11
1000
0001
1000
0001
0100
0010
0100
0010
,  // measure 12
1000
0010
0100
0001
0010
0100
1000
0010
,  // measure 13
0100
0001
0100
1000
0100
0001
1000
0100
,  // measure 14
0010
0001
1000
0001
0010
0100
1000
0100
,  // measure 15
0010
0001
0010
0001
0010
0001
0010
0001
1000
0000
0010
0000
0100
0000
0001
0000
,  // measure 16
2000
0000
0000
0000
0000
0000
3010
0100
,  // measure 17
0002
0000
0000
0000
0000
0000
1003
0100
,  // measure 18
0020
0000
0000
0031
0100
1000
0100
0001
,  // measure 19
2000
0000
3001
0010
,  // measure 20
0202
0000
0303
1000
0010
1000
0100
1000
,  // measure 21
0022
0000
0033
0100
1000
0001
1000
0010
,  // measure 22
0220
0000
0330
1000
0202
0000
0303
2000
,  // measure 23
0002
0000
0000
0000
0000
0000
3003
0000
0010
0001
0010
0001
1000
0001
1000
0001
,  // measure 24
0200
1000
0001
1000
,  // measure 25
0301
0000
0010
0001
0010
0100
0010
1000
,  // measure 26
0020
0100
0100
0130
,  // measure 27
0001
0010
0100
1000
0001
0010
0100
1000
,  // measure 28
0000
1100
0000
0101
,  // measure 29
0000
0011
0000
1010
,  // measure 30
1001
0000
0000
0000
,  // measure 31
0000
0000
0000
0000
,  // measure 32
1000
0100
0010
0001
1000
0100
0010
0001
,  // measure 33
1000
0010
0100
0001
1000
0010
0100
0001
,  // measure 34
1000
0100
0001
0100
1000
0010
0001
0010
,  // measure 35
1000
0100
0001
0100
1000
0000
1001
0000
,  // measure 36
1000
0100
1000
0100
1000
0000
0001
1000
0001
1000
0001
0000
1000
0100
1000
0100
,  // measure 37
1000
0000
0001
1000
0001
1000
0001
0000
1000
0000
0100
0000
0010
0000
0001
0000
,  // measure 38
0010
0001
0010
0001
0010
0000
0001
1000
0001
1000
0001
0000
0010
0001
0010
0001
,  // measure 39
0010
0000
0001
1000
0001
1000
0001
0000
1000
0000
0010
0000
0100
0000
0001
0000
,  // measure 40
1000
0100
1000
0100
1000
0000
0001
1000
0001
1000
0001
0000
1000
0100
1000
0100
,  // measure 41
1000
0000
0001
1000
0001
1000
0001
0000
1000
0000
0100
0000
0010
0000
0001
0000
,  // measure 42
0010
0001
0010
0001
0010
0000
0001
1000
0001
1000
0001
0000
0010
0001
0010
0001
,  // measure 43
0010
0000
0001
1000
0001
1000
0001
0000
1001
0000
0000
0000
0110
0000
0000
0000
,  // measure 44
0001
0100
0010
1000
0100
0010
0100
1000
,  // measure 45
0001
1000
0010
1000
0001
0100
0010
1000
,  // measure 46
0001
1000
0100
0010
0100
0010
0001
1000
,  // measure 47
0010
1000
0001
0100
0001
0100
0001
0010
,  // measure 48
0001
0010
0100
1000
0001
0100
0010
1000
,  // measure 49
0100
1000
0100
1000
0001
0100
0010
0100
,  // measure 50
0001
0010
0100
1000
0100
0010
0001
1000
,  // measure 51
0010
0100
0010
0100
0001
1000
0100
0010
,  // measure 52
0001
0100
0010
1000
0100
1000
0001
1000
,  // measure 53
0100
1000
0010
0100
0001
0100
0010
2000
,  // measure 54
0002
0000
0000
0000
,  // measure 55
3003
0000
0000
2000
,  // measure 56
0200
3000
0002
0300
0020
0003
2000
0030
,  // measure 57
0200
3000
0002
0300
0020
0003
2000
0030
,  // measure 58
3001
0000
0000
0000
;

//---------------dance-single - ----------------
#NOTES:
     dance-single:
     :
     Easy:
     4:
     0.341265,0.395867,0.068253,0.648403,0.000000,196.000000,8.000000,76.000000,0.000000,0.000000,0.000000,0.341265,0.395867,0.068253,0.648403,0.000000,196.000000,8.000000,76.000000,0.000000,0.000000,0.000000:
0000
0000
0000
0000
,
0000
0000
0000
0000
,
0000
0000
0000
0000
,
0000
0000
0000
0000
,
0100
1000
0100
1000
,
0001
0010
0001
0010
,
0100
1000
0001
0010
,
0100
1000
0100
0010
,
0011
0001
0001
0001
,
0011
0010
0010
0010
,
0011
0001
0001
0001
,
0011
0010
0010
0010
,
0110
0100
0100
0100
,
1100
1000
1000
1000
,
1001
0001
0100
0001
,
0010
0100
1000
0001
,
0020
0000
0000
0000
0000
0030
0002
0003
,
2000
0000
0000
0000
0000
3000
0200
0300
,
2000
0000
0000
3000
0002
0003
2000
3000
,
0020
0000
0000
0030
2000
3000
0020
0030
,
0200
0000
0000
0300
0002
0003
0020
0030
,
0200
0000
0000
0300
2000
3000
0200
0300
,
0020
0000
0000
0030
0002
0000
0000
0003
,
0200
0000
0000
0300
0001
1000
0100
0010
,
0002
0100
0100
0100
,
0100
0003
0020
0030
0200
0300
2000
3000
,
0002
0000
0010
0000
0010
0000
0010
0003
,
2000
0000
0010
0000
0010
0000
0010
3000
,
0002
0100
1000
0103
,
2000
0100
0001
3100
,
1001
0000
0001
0000
,
1000
0000
0100
0000
,
0010
0001
0010
0001
,
1000
0100
1000
0100
,
0010
0001
1000
0100
,
1000
0010
0100
0001
,
1000
0010
0001
0010
,
1000
0010
0001
0010
,
1000
0100
0001
0100
,
1000
0100
0001
0100
,
1000
0100
0001
0100
,
1000
0100
0001
0100
,
1000
0010
0001
0010
,
1000
0010
0001
0010
,
2000
3000
0020
0030
0002
0003
0020
0030
,
2000
3000
0020
0030
0002
0003
0020
0030
,
2000
3000
0200
0300
0002
0003
0200
0300
,
2000
3000
0200
0300
0002
0003
0200
0300
,
2000
3000
0200
0300
0002
0003
0200
0300
,
2000
3000
0200
0300
0002
0003
0200
0300
,
2000
3000
0020
0030
0002
0003
0020
0030
,
2000
3000
0020
0030
0002
0003
0020
0030
,
2000
3000
0020
0030
0002
0003
0020
0030
,
2000
3000
0200
0300
0002
0003
0200
0300
,
2000
3000
0000
0000
,
0000
0000
0000
0000
0000
0000
0000
0000
0000
0000
0000
0000
2000
0000
0000
3000
,
0002
0000
0000
0003
0020
0000
0000
0030
0200
0000
0000
0300
2000
0000
0000
3000
,
0002
0000
0000
0003
0200
0000
0000
0300
0020
0000
0000
0000
0000
0000
0000
0000
,
0030
0000
0000
0000
;

//---------------dance-single - ----------------
#NOTES:
     dance-single:
     :
     Challenge:
     13:
     0.833661,0.816476,0.008532,1.000000,0.844631,542.000000,1.000000,141.000000,0.000000,0.000000,0.000000,0.833661,0.816476,0.008532,1.000000,0.844631,542.000000,1.000000,141.000000,0.000000,0.000000,0.000000:
// measure 0
0000
0000
0000
0000
,  // measure 1
0000
0000
0000
0000
,  // measure 2
0000
0000
0000
0000
,  // measure 3
0000
0000
0000
0000
0000
0000
0002
0003
,  // measure 4
0010
0001
0100
0001
0100
0001
0100
0001
1000
0001
0100
0001
0100
0001
0100
0001
,  // measure 5
0010
0001
0100
0001
0100
0001
0100
0001
1000
0001
0100
0001
0100
0001
0100
0001
,  // measure 6
0010
0001
0010
0001
0100
0001
0100
0001
1000
0001
1000
0001
0100
0001
0100
0001
,  // measure 7
0010
0001
0100
0001
0010
0001
0100
0001
0020
0030
2000
3000
0020
0030
0002
0003
,  // measure 8
2000
3000
0020
0030
0200
0300
0002
0003
0020
0030
0200
0300
2000
3000
0020
0030
,  // measure 9
0002
0003
0020
0030
2000
3000
0200
0300
0020
0030
0002
0003
2000
3000
0020
0030
,  // measure 10
0002
0003
0020
0030
0200
0300
0002
0003
0020
0030
0200
0300
0020
0030
2000
3000
,  // measure 11
0002
0003
2000
3000
0020
0030
0002
0003
0200
0300
0020
0030
0002
0003
0020
0030
,  // measure 12
0200
0300
0020
0030
2000
3000
0200
0300
0020
0030
0002
0003
0200
0300
0020
0030
,  // measure 13
2000
3000
0200
0300
0020
0030
0002
0003
2000
3000
0020
0030
0200
0300
0002
0003
,  // measure 14
2000
3000
0200
0300
0020
0000
0030
0000
0002
0003
0200
0300
0020
0030
2000
3000
,  // measure 15
0001
0010
0001
1000
0001
0010
0001
1000
0100
0010
0100
1000
0010
0100
0001
0100
,  // measure 16
0002
0000
0000
0000
0000
0000
0000
0000
0000
0000
0000
0003
0020
0030
0200
0300
,  // measure 17
2000
0000
0000
0000
0000
0000
0000
0000
0000
0000
0000
3000
0200
0300
0020
0030
,  // measure 18
0002
0000
0000
0000
0000
0003
2000
3000
0020
0030
0002
0003
0020
0000
2030
3000
,  // measure 19
0002
0000
0000
0000
0000
0000
0000
0003
2000
0000
0000
3000
0020
0000
0000
0030
,  // measure 20
0002
0000
0000
0000
0000
0003
0020
0030
2000
3000
0002
0003
0020
0030
2000
3000
,  // measure 21
0020
0000
0000
0000
0000
0030
2000
3000
0020
0030
0002
0003
0200
0300
0020
0030
,  // measure 22
2000
0000
0000
0000
0000
3000
0200
0300
2000
0000
0000
0000
0000
3000
0002
0000
,  // measure 23
0020
0000
0000
0000
0000
0000
0033
0000
0001
0010
0001
0010
0001
1000
0100
0010
,  // measure 24
0002
0003
0200
0300
0020
0030
2000
3000
,  // measure 25
0200
0000
0300
0000
0020
0030
2000
3000
0020
0030
0002
0003
0200
0300
0020
0030
,  // measure 26
0002
0003
0020
0030
2000
3000
0200
0300
,  // measure 27
0020
0030
2000
3000
0020
0030
0002
0003
,  // measure 28
2000
0010
0000
3010
,  // measure 29
0002
0010
0000
0013
,  // measure 30
1001
0000
0000
0000
,  // measure 31
0000
0000
0000
0000
,  // measure 32
2000
3000
0010
0100
0002
0003
0100
0010
2000
3000
0001
0010
0200
0300
1000
0100
,  // measure 33
0020
0030
0001
1000
0020
0030
0100
0001
0200
0300
0010
1000
0002
0003
0010
0100
,  // measure 34
2000
3000
0100
0010
0002
0003
1000
0010
0200
0300
0001
0100
0020
0030
1000
0001
,  // measure 35
0020
0030
0100
1000
0200
0300
0010
0001
1000
0010
0000
0010
0100
0001
1000
0000
,  // measure 36
0010
1000
0010
1000
0010
1000
0001
1000
0001
1000
0001
1000
0010
1000
0010
1000
,  // measure 37
0010
1000
0001
1000
0001
1000
0001
1000
0010
0100
0001
1000
0100
0010
0002
0003
,  // measure 38
0010
0001
0010
0001
0010
0001
1000
0001
1000
0001
1000
0001
0010
0001
0010
0001
,  // measure 39
0010
0001
1000
0001
1000
0001
1000
0001
0010
0100
1000
0001
0100
0010
2000
3000
,  // measure 40
0001
1000
0001
1000
0001
1000
0001
0010
0001
0010
0001
0010
0001
1000
0001
1000
,  // measure 41
0001
1000
0001
0010
0001
0010
0001
0010
0001
1000
0100
0010
0001
0100
0002
0003
,  // measure 42
1000
0001
1000
0001
1000
0001
1000
0010
1000
0010
1000
0010
1000
0001
1000
0001
,  // measure 43
1000
0001
1000
0010
1000
0010
1000
0010
1000
0001
0100
0010
0001
0010
0100
0010
,  // measure 44
1000
0100
1000
0001
0100
0010
0100
0001
1000
0100
0010
0001
0010
0100
0010
0001
,  // measure 45
1000
0100
1000
0010
0100
0010
1000
0100
1000
0010
0001
0010
1000
0100
0010
0001
,  // measure 46
0100
0001
0010
0100
1000
0001
0100
0010
1000
0010
0100
0010
1000
0100
1000
0010
,  // measure 47
0100
0001
1000
0100
0010
0001
0010
0100
1000
0001
0100
0010
0100
0001
1000
0100
,  // measure 48
0010
1000
0010
0001
0100
0010
1000
0100
1000
0001
0100
0010
0100
0001
1000
0100
,  // measure 49
0010
0001
1000
0100
1000
0001
1000
0010
1000
0010
0100
0001
1000
0100
0010
0100
,  // measure 50
1000
0010
0100
0010
0001
0010
0001
0010
1000
0100
0010
0001
0010
0001
0010
0001
,  // measure 51
1000
0010
0100
0010
0001
0010
0100
0010
1000
0100
0010
1000
0001
0100
0010
0001
,  // measure 52
0100
0001
0100
0001
0100
0001
0100
0001
0010
0100
0010
1000
0010
0001
0010
0100
,  // measure 53
1000
0010
1000
0010
1000
0010
1000
0010
0100
0010
1000
0100
0010
0001
0100
0020
,  // measure 54
2000
3030
0000
0000
,  // measure 55
0000
0000
0000
0002
,  // measure 56
0020
0000
0000
0003
2000
0000
0000
0030
0002
0000
0000
3000
0020
0000
0000
0003
,  // measure 57
0200
0000
0000
0030
2000
0000
0000
0300
0020
0000
0000
3000
0200
0000
0030
0000
,  // measure 58
0301
0000
0000
0000
;
