#VERSION:0.83;
#TITLE:Another Truth (Classic);
#SUBTITLE:;
#ARTIST:Novasonic;
#TITLETRANSLIT:;
#SUBTITLETRANSLIT:;
#ARTISTTRANSLIT:;
#GENRE:;
#ORIGIN:;
#CREDIT:;
#BANNER:Another Truth (Classic)-banner.png;
#BACKGROUND:Another Truth (Classic)-background.png;
#PREVIEWVID:;
#JACKET:;
#CDIMAGE:;
#DISCIMAGE:;
#LYRICSPATH:;
#CDTITLE:;
#MUSIC:Another Truth (Classic).ogg;
#OFFSET:0.042662;
#SAMPLESTART:4.340000;
#SAMPLELENGTH:12.000000;
#SELECTABLE:YES;
#BPMS:0.000=136.000;
#STOPS:;
#DELAYS:;
#WARPS:;
#TIMESIGNATURES:0.000=4=4;
#TICKCOUNTS:0.000=4;
#COMBOS:0.000=1;
#SPEEDS:0.000=1.000=0.000=0;
#SCROLLS:0.000=1.000;
#FAKES:;
#LABELS:0.000=Song Start;
#BGCHANGES:0.000=Another Truth (Classic).avi=1.000=0=0=0=StretchNoLoop====,
99999=-nosongbg-=1.000=0=0=0 // don't automatically add -songbackground-
;
#KEYSOUNDS:;
#ATTACKS:
;

//---------------dance-single - ----------------
#NOTEDATA:;
#CHARTNAME:;
#STEPSTYPE:dance-single;
#DESCRIPTION:;
#CHARTSTYLE:;
#DIFFICULTY:Hard;
#METER:6;
#RADARVALUES:0.532868,0.492354,1.080875,0.000000,0.079476,352.000000,250.000000,102.000000,0.000000,0.000000,0.000000,0.000000,0.000000,0.000000,0.532868,0.492354,1.080875,0.000000,0.079476,352.000000,250.000000,102.000000,0.000000,0.000000,0.000000,0.000000,0.000000,0.000000;
#CREDIT:;
#NOTES:
0000
0000
0000
0000
,
0000
0000
0000
0000
,
0000
0000
0011
0110
,
0101
0011
0011
0101
,
0110
0011
1001
0011
,
1001
0000
0000
0000
0101
0000
0000
0000
1001
0000
0000
0100
0000
0000
0100
0000
,
0100
0000
0000
0100
0000
0000
0100
0000
1010
0000
0000
0000
0110
0000
0000
0000
,
1100
1010
1010
1100
,
0110
1010
1001
1010
,
1001
1100
1001
0000
,
0100
0000
1001
0000
1000
0100
0000
1000
,
0001
0100
0000
0001
1000
0100
1000
0001
,
0100
0001
1000
0001
1000
0010
0000
1000
,
0001
0010
0000
0001
1000
0010
1000
0001
,
0010
0001
1000
0001
0011
0000
0110
0000
,
0101
0011
0011
0101
,
0110
0011
1001
1010
,
1001
1100
1001
0000
,
1000
0000
0110
0000
0001
0100
0000
0001
,
1000
0100
0000
1000
0001
0100
0001
1000
,
0100
1000
0001
1000
0001
0010
0000
0001
,
1000
0010
0000
1000
0001
0010
0001
1000
,
0010
1000
0001
1000
1010
0000
0110
0000
,
1100
1010
1010
1100
,
0110
1010
1001
0011
,
1001
0101
1001
0000
,
0001
0110
1010
1010
,
0101
0101
0010
0010
,
1000
0001
0011
0011
,
1100
1100
0101
0000
,
1010
0000
0000
0000
1000
0010
0100
0001
,
0010
0100
0010
0001
0100
0010
1000
0001
,
0100
0010
1000
0100
1000
0010
0100
0001
,
0100
0000
0010
0000
0100
0000
0001
0000
0100
0000
0000
0100
0000
0000
0100
0000
,
0100
0000
0000
0100
0000
0000
0100
0000
0001
0000
1000
0000
0010
0000
1000
0000
,
0100
0010
0001
0100
0010
1000
0010
0100
,
0001
1000
0010
0100
0010
0001
0010
1000
,
0100
0000
0010
0000
0001
0000
1000
0000
0100
0000
0000
0100
0000
0000
0100
0000
,
0100
0000
0000
0100
0000
0000
0100
0000
0000
0000
0000
0000
0000
0000
0000
0000
,
0000
0000
1010
1010
,
1100
1100
0101
0101
,
0011
0011
1001
0110
,
1001
0000
0000
0000
0110
0000
0000
0000
1001
0000
0000
0010
0000
0000
0010
0000
,
0010
0000
0000
0010
0000
0000
0010
0000
0011
0000
0000
0000
0011
0000
0000
0000
,
0101
0101
1100
1100
,
1010
1010
0110
1001
,
0110
0000
0000
0000
1001
0000
0000
0000
0110
0000
0000
0010
0000
0000
0010
0000
,
1010
0000
0000
1000
0000
0000
1000
0000
1001
0000
0000
0001
0000
0000
0001
0000
,
0101
0000
0000
0100
0000
0000
0100
0000
0110
0000
0000
0010
0000
0000
0010
0000
,
1010
0000
0000
1000
0000
0000
1000
0000
1001
0000
0000
0001
0000
0000
0001
0000
,
0000
0000
0011
1100
,
0011
0000
1100
0000
0100
1001
0000
0000
;

//---------------dance-single - ----------------
#NOTEDATA:;
#CHARTNAME:;
#STEPSTYPE:dance-single;
#DESCRIPTION:;
#CHARTSTYLE:;
#DIFFICULTY:Medium;
#METER:4;
#RADARVALUES:0.402679,0.491162,0.741777,0.000000,0.000000,266.000000,196.000000,70.000000,0.000000,0.000000,0.000000,0.000000,0.000000,0.000000,0.402679,0.491162,0.741777,0.000000,0.000000,266.000000,196.000000,70.000000,0.000000,0.000000,0.000000,0.000000,0.000000,0.000000;
#CREDIT:;
#NOTES:
0000
0000
0000
0000
,
0000
0000
0000
0000
,
0000
0000
0011
0110
,
0101
0011
0011
0101
,
0110
0011
0100
0010
,
0001
0100
0010
0001
,
0100
0010
1010
0110
,
1100
1010
1010
1100
,
0110
1010
0100
0010
,
1000
0100
0010
1000
,
0100
0010
1000
1000
,
0010
0010
1000
1000
,
0010
0010
0100
0100
,
0001
0001
1000
1000
,
0001
0001
0011
0110
,
0101
0011
0011
0101
,
0110
0011
0100
0010
,
0001
0100
0010
0001
,
0100
0010
0100
0100
,
0001
0001
0100
0100
,
0001
0001
0100
0100
,
0010
0010
1000
1000
,
0010
0010
1010
0110
,
1100
1010
1010
1100
,
0110
1010
0100
0010
,
1000
0100
0010
1000
,
0100
0010
0100
0001
,
1000
0100
0001
1000
,
0100
0100
0100
0001
,
1000
0010
0001
1000
,
0010
0010
0010
1001
,
1000
1000
1000
0000
0010
0000
1000
0000
,
0001
0001
0001
0000
0010
0000
1001
0000
,
0001
0001
0001
0000
0010
0000
1001
0000
,
1001
1001
0100
0001
,
1000
0100
0001
1000
,
0100
0100
0100
0001
,
1000
0010
0001
1000
,
0010
0010
0000
0000
,
0000
0000
0001
0010
,
1000
0100
0100
1000
,
0010
0001
1001
0110
,
1001
0110
1001
0110
,
1001
0110
1000
0010
,
0001
0100
0100
0001
,
0010
1000
1001
0110
,
1001
0110
1001
0110
,
1001
0110
0101
0011
,
1001
1010
1100
1001
,
0101
0011
1001
1010
,
1100
1001
0011
1100
,
0011
1100
1100
0000
;

//---------------dance-single - ----------------
#NOTEDATA:;
#CHARTNAME:;
#STEPSTYPE:dance-single;
#DESCRIPTION:;
#CHARTSTYLE:;
#DIFFICULTY:Easy;
#METER:2;
#RADARVALUES:0.307308,0.409302,0.349695,0.000000,0.000000,203.000000,170.000000,33.000000,0.000000,0.000000,0.000000,0.000000,0.000000,0.000000,0.307308,0.409302,0.349695,0.000000,0.000000,203.000000,170.000000,33.000000,0.000000,0.000000,0.000000,0.000000,0.000000,0.000000;
#CREDIT:;
#NOTES:
0000
0000
0000
0000
,
0000
0000
0000
0000
,
0000
0000
0100
0100
,
1001
0010
0010
0010
,
1001
0100
0100
0010
,
0001
0001
0010
0001
,
0100
0010
0100
1001
,
1001
0010
0010
1001
,
1001
0100
0100
0010
,
1000
1000
0010
1000
,
0100
0010
0010
0000
,
0001
0000
0010
0000
,
0001
0000
1000
0000
,
0100
0000
1000
0000
,
0100
1000
1001
1001
,
1001
0010
1001
1001
,
1001
0100
0100
0010
,
0001
0001
0010
0001
,
0100
0010
1000
0000
,
0100
0000
1000
0000
,
0100
0000
0010
0000
,
0001
0000
0010
0000
,
0001
0000
1001
1001
,
1001
0010
1001
1001
,
1001
0100
0100
0010
,
1000
1000
1000
0010
,
0010
0010
0100
0010
,
0001
0001
0001
0010
,
0010
0010
0100
0001
,
1000
0100
0001
1000
,
0100
0100
0100
1001
,
1000
1000
0100
1000
,
0001
0100
1001
0001
,
0001
0100
1001
1001
,
1001
0010
0001
1000
,
0010
0001
1000
0010
,
0010
0010
0001
1000
,
0100
0001
1000
0100
,
0100
0000
0000
0000
,
0000
0000
0001
0010
,
1000
0100
0100
1000
,
0010
0001
0001
0010
,
1000
0100
0100
1000
,
0010
0001
1000
0010
,
0001
0100
0100
0001
,
0010
1000
1000
0010
,
0001
0100
0100
0001
,
0010
1000
0011
0000
,
0011
0000
1100
0000
,
1100
0000
1010
0000
,
1010
0000
0101
0101
,
1010
0000
0101
0000
;

//---------------dance-single - ----------------
#NOTEDATA:;
#CHARTNAME:;
#STEPSTYPE:dance-single;
#DESCRIPTION:;
#CHARTSTYLE:;
#DIFFICULTY:Challenge;
#METER:11;
#RADARVALUES:0.743291,0.875297,1.451763,0.031790,0.439768,491.000000,354.000000,137.000000,3.000000,0.000000,0.000000,0.000000,0.000000,0.000000,0.743291,0.875297,1.451763,0.031790,0.439768,491.000000,354.000000,137.000000,3.000000,0.000000,0.000000,0.000000,0.000000,0.000000;
#CREDIT:;
#NOTES:
// measure 0
0000
0000
0000
0000
,  // measure 1
0000
0000
0000
0000
,  // measure 2
0000
0000
1010
1010
,  // measure 3
0101
0101
0110
0110
,  // measure 4
1001
1001
0101
1010
,  // measure 5
0101
0000
0000
0000
1010
0000
0000
0000
0101
0000
0000
0101
0000
0000
0101
0000
,  // measure 6
0101
0000
0000
1010
0000
0000
1010
0000
1010
0000
0000
0000
1010
0000
0000
0000
,  // measure 7
0101
0101
1001
1001
,  // measure 8
0110
0110
0101
1010
,  // measure 9
0101
0000
1010
0000
0101
0101
0000
1000
,  // measure 10
0010
0000
0001
0000
0010
0100
0010
0100
0010
0000
0100
0000
0001
0100
0001
0000
,  // measure 11
0010
0000
0100
0000
1000
0100
1000
0000
0010
0000
0100
0000
0001
0100
0001
0000
,  // measure 12
0010
0000
0100
0000
1000
0100
1000
0000
0010
0000
0100
0000
0001
0010
0001
0000
,  // measure 13
0010
0000
0100
0000
1000
0010
1000
0000
0100
0000
0010
0000
0001
0100
0010
0000
,  // measure 14
1000
0000
0001
0000
0010
0100
1000
0000
1100
0000
0000
0000
1100
0000
0000
0000
,  // measure 15
0011
0011
1001
1001
,  // measure 16
0110
0110
0011
1100
,  // measure 17
0011
0000
1100
0000
0011
0011
0000
1000
,  // measure 18
0100
0000
0010
0000
0001
0000
0000
0000
1000
0000
0100
0000
0010
0100
0010
0000
,  // measure 19
0001
0000
0100
0000
0010
0100
0010
0000
1000
0000
0100
0000
0010
0100
0010
0000
,  // measure 20
0001
0000
0100
0000
0010
0100
0010
0000
1000
0000
0100
0000
0010
0001
0010
0000
,  // measure 21
0001
0000
0100
0000
0010
1000
0010
0000
1000
0000
0001
0000
1000
0100
0010
0000
,  // measure 22
0001
0000
1000
0000
0010
0100
0001
0000
0101
0000
0000
0000
0101
0000
0000
0000
,  // measure 23
1010
1010
0110
0110
,  // measure 24
1001
1001
1010
0101
,  // measure 25
1010
0000
0101
0000
1010
1010
0000
0001
,  // measure 26
0100
0010
1000
0000
2002
0000
3003
0000
,  // measure 27
1000
0100
1000
0000
0001
0100
0001
0000
1000
0010
1000
0000
0001
0010
0001
0000
,  // measure 28
1000
0010
1000
0000
0001
0100
0001
0000
1001
0000
0000
0000
0001
0100
0010
0000
,  // measure 29
1000
0100
1000
0000
0001
0010
0001
0000
1010
0000
0000
0100
0000
0000
0001
0000
,  // measure 30
0011
0000
0000
0100
0000
0000
1000
0000
0010
0100
0001
0010
0100
1000
0001
0100
,  // measure 31
0010
0001
0010
1000
0001
0000
0100
0000
0001
0010
0001
0100
0010
1000
0100
1000
,  // measure 32
0010
0001
0010
0100
0001
1000
0100
1000
0001
1000
0010
1000
0001
1000
0100
0010
,  // measure 33
1000
0010
0001
1000
0100
0000
1000
0000
1010
0000
0000
0101
0000
0000
0101
0000
,  // measure 34
1010
0000
0000
1010
0000
0000
0101
0000
0010
0100
1000
0010
0100
0000
0001
0000
,  // measure 35
0100
0001
1000
0100
0010
0001
0010
0000
0001
0010
0100
1000
0001
0010
0100
1000
,  // measure 36
0010
0001
0010
1000
0010
0100
0001
0000
0010
1000
0010
0001
0010
0001
0100
0000
,  // measure 37
0010
0001
0010
1000
0001
1000
0010
0000
1010
0000
0000
0101
0000
0000
0101
0000
,  // measure 38
1010
0000
0000
1010
0000
0000
0101
0000
0001
0000
0000
0100
0000
0000
0100
0000
,  // measure 39
0001
0000
2000
3000
0011
0000
1010
0000
,  // measure 40
1100
0101
0101
1100
,  // measure 41
1010
0011
1001
0110
,  // measure 42
1001
0000
0000
0000
0110
0000
0000
0000
1001
0000
0000
0110
0000
0000
1001
0000
,  // measure 43
0110
0000
0000
1001
0000
0000
0110
0000
1010
0000
0000
0000
0011
0000
0000
0000
,  // measure 44
0101
1100
1100
0101
,  // measure 45
0011
1010
0110
1001
,  // measure 46
0110
0000
0000
0000
1001
0000
0000
0000
0110
0000
0000
1001
0000
0000
0110
0000
,  // measure 47
1001
0000
0000
0110
0000
0000
1001
0000
0101
0000
0000
0011
0000
0000
1010
0000
,  // measure 48
1100
0000
0000
0101
0000
0000
0011
0000
1010
0000
0000
1100
0000
0000
0101
0000
,  // measure 49
0011
0000
0000
1010
0000
0000
1100
0000
0101
0000
0000
0011
0000
0000
1010
0000
,  // measure 50
0000
0000
0000
0000
1010
1010
0101
0101
,  // measure 51
1010
1010
0101
0101
1010
0101
0000
0000
;
