#TITLE:take me higher;
#SUBTITLE:;
#ARTIST:KOTONOHOUSE;
#TITLETRANSLIT:;
#SUBTITLETRANSLIT:;
#ARTISTTRANSLIT:;
#GENRE:;
#CREDIT:;
#BANNER:take me higher.png;
#BACKGROUND:take me higher-bg.png;
#LYRICSPATH:;
#CDTITLE:;
#MUSIC:take me higher.ogg;
#OFFSET:-0.118885;
#SAMPLESTART:29.232925;
#SAMPLELENGTH:12.000000;
#SELECTABLE:YES;
#BPMS:0.000000=140.000000
;
#STOPS:28.000000=0.429000,
28.500000=0.429000,
29.000000=0.429000,
29.500000=0.429000
;
#BGCHANGES:;
#KEYSOUNDS:;
#ATTACKS:;

//---------------dance-single - ----------------
#NOTES:
     dance-single:
     :
     Hard:
     16:
     0.788217,0.843963,0.439994,0.052799,0.906387,627.000000,577.000000,50.000000,6.000000,0.000000,0.000000,0.788217,0.843963,0.439994,0.052799,0.906387,627.000000,577.000000,50.000000,6.000000,0.000000,0.000000:
0000
0000
0000
0000
,
0000
0000
0000
0000
,
0000
0000
0000
0000
,
0000
0000
0000
0000
,
0000
0000
0000
0000
,
1000
0000
0000
0000
0100
0000
0000
0000
0010
0000
0000
0001
0000
0000
0100
0000
,
1000
0000
0000
0000
0100
0000
0000
0000
0010
0000
0000
1000
0000
0000
0001
0000
,
1100
0011
0101
1010
1001
1000
0010
0100
,
0001
0000
0010
0000
0100
0000
0010
0000
0001
0000
0000
1100
0000
0000
0101
0000
,
1000
0000
0010
0000
0100
0000
0010
0000
1000
0000
0000
0101
0000
0000
1100
0000
,
0001
0000
0010
0000
0100
0000
0010
0000
0001
0000
0000
1010
0000
0000
1100
0000
,
0001
0010
0100
1000
0001
0100
0010
1000
0001
0000
0000
0000
0101
0000
0000
0000
,
1000
1000
0100
0100
,
0001
0001
0010
0010
,
1000
0000
1000
0000
0100
0000
0100
0000
0010
0001
0100
0010
1000
0010
0100
0001
,
2000
0000
0000
0000
0000
0000
0000
0000
3001
0100
0001
0000
0010
0000
0000
0000
,
0001
0010
0100
1000
0010
0000
0100
0001
0010
0001
0100
0010
0000
1000
0010
1000
,
0001
0010
0100
1000
0010
0000
0100
0010
1000
0000
0000
0101
0000
0000
1100
0000
,
0001
0010
0100
0010
0001
0000
1000
0100
0010
0100
1000
0000
0001
0100
0001
0100
,
0010
1000
0100
0010
0001
0100
0010
1000
0001
0000
0000
0011
0000
0000
1100
0000
,
0001
0010
0100
1000
0010
0000
0100
0001
0010
0001
0100
0010
0000
1000
0010
1000
,
0001
0010
0100
1000
0010
0000
0100
0010
1000
0000
0000
0101
0000
0000
1100
0000
,
0001
0010
0100
0010
0001
0000
1000
0100
0010
0100
1000
0000
0001
0100
0001
0100
,
0010
1000
0100
0010
0001
0010
0100
1000
0001
0100
0001
0000
0010
0000
0010
0100
,
1000
0100
0010
0001
0010
0000
0100
1000
0010
1000
0100
0010
0000
0001
0010
0001
,
1000
0100
0010
0001
0010
0000
0100
0010
0001
0000
0000
1100
0000
0000
0101
0000
,
1000
0100
0010
0100
1000
0000
0001
0010
0100
0010
0001
0000
1000
0100
1000
0100
,
0010
0001
0100
0010
1000
0100
0010
0001
1000
0000
0000
1010
0000
0000
0101
0000
,
1000
0100
0010
0001
0010
0000
0100
1000
0010
1000
0100
0010
0000
0001
0010
0001
,
1000
0100
0010
0001
0010
0000
0100
0010
0001
0000
0000
1100
0000
0000
0101
0000
,
1000
0100
0010
0100
1000
0000
0001
0010
0100
0010
0001
0000
1000
0100
1000
0100
,
0010
0001
0100
0010
1000
0100
0010
0001
1000
0010
1000
0010
0200
0000
0000
0000
,
0301
0000
0000
0000
1000
0000
0000
0000
0001
0000
0000
1010
0000
0000
0101
0000
,
1000
0000
0000
0000
0001
0000
0000
0000
1000
0000
0000
0011
0000
0000
1100
0000
,
0001
0000
0000
0000
0100
0000
0000
0000
0010
0000
0000
1010
0000
0000
0101
0000
,
1000
0000
0000
0000
0100
0000
0000
0000
0010
0000
0000
0011
0000
0000
1100
0000
,
0001
0000
0100
0000
1000
0000
0100
0000
0001
0000
0000
1010
0000
0000
0101
0000
,
1000
0000
0100
0000
0001
0000
0100
0000
1000
0000
0000
0011
0000
0000
1100
0000
,
0001
0000
0010
0000
1000
0000
0010
0000
0001
0000
0000
0110
0000
0000
1001
0000
,
1000
0010
0001
0010
1000
0001
0010
0000
,
2100
0100
0100
0100
,
0001
0001
0001
3020
,
0230
0001
0001
0001
,
0310
1000
0001
1000
0100
0010
0001
0000
,
1100
1000
0101
0001
,
1010
1000
0011
0001
,
1000
0000
1000
0000
0100
0000
0100
0000
0010
0001
0100
0010
1000
0010
0100
0001
,
2000
0000
3000
0011
,
1000
0010
0100
0001
1000
0000
0001
0010
0100
1000
0001
0010
0000
0001
0010
0100
,
1000
0010
0100
0001
1000
0000
0001
0010
0100
1000
0001
0010
0000
0001
0010
0100
,
1000
0010
0100
0001
1000
0000
0001
0010
0100
1000
0001
0010
0000
0001
0010
0100
,
1000
0010
0100
0001
1000
0000
0001
0010
0100
1000
0100
0000
0010
0001
1000
0000
,
0001
0100
1000
0100
0001
0000
1010
0000
0001
0100
0001
0000
0001
0010
0001
0000
,
1000
0100
0001
0100
1000
0000
0011
0000
1000
0100
1000
0000
1000
0010
1000
0000
,
0001
0100
0010
1000
0001
0000
1010
0000
0100
0010
0100
0000
0100
0001
0100
0000
,
0001
0010
0100
1000
0001
0000
1100
0000
0010
0100
0010
0000
0001
1000
0100
1000
,
0001
0010
0100
0010
0001
0000
1000
0100
0010
0100
1000
0010
0000
0100
0001
1000
,
0001
0010
0100
0010
0001
0000
1000
0100
0010
0100
1000
0010
0000
0100
0001
1000
,
0001
0010
0100
0010
0001
0000
1000
0100
0010
0100
1000
0010
0000
0100
0001
1000
,
0001
0010
0100
0010
0001
0000
1000
0100
0010
0001
0010
0000
0100
1000
0001
0000
,
1000
0010
1000
0100
1000
0000
0101
0000
0010
1000
0100
0000
0010
0001
0100
0000
,
0001
0010
0001
0100
0001
0000
1100
0000
0010
0001
0100
0000
0010
1000
0100
0000
,
0010
0001
1000
0010
1000
0000
0100
1000
0001
0100
0001
0000
1000
0010
0001
0010
,
1000
0100
0010
0001
1000
0010
0100
0001
1000
0100
0010
0100
0001
0100
0010
0100
;
