#TITLE:be okay;
#SUBTITLE:;
#ARTIST:bo en (with Avec Avec);
#TITLETRANSLIT:;
#SUBTITLETRANSLIT:;
#ARTISTTRANSLIT:;
#GENRE:;
#CREDIT:;
#BANNER:be okay.png;
#BACKGROUND:be okay-bg.png;
#LYRICSPATH:;
#CDTITLE:;
#MUSIC:be okay.ogg;
#OFFSET:-0.101000;
#SAMPLESTART:92.207596;
#SAMPLELENGTH:11.000010;
#SELECTABLE:YES;
#BPMS:0.000000=175.000000
;
#STOPS:
;
#BGCHANGES:;
#KEYSOUNDS:;
#ATTACKS:;

//---------------dance-single - ----------------
#NOTES:
     dance-single:
     :
     Hard:
     11:
     0.587646,0.689174,0.199298,0.470344,0.043846,516.000000,491.000000,25.000000,59.000000,0.000000,0.000000,0.587646,0.689174,0.199298,0.470344,0.043846,516.000000,491.000000,25.000000,59.000000,0.000000,0.000000:
// measure 0
0000
0000
0000
0000
,  // measure 1
0000
0000
0000
0000
,  // measure 2
0000
0000
0000
0000
,  // measure 3
0000
0000
0000
0000
,  // measure 4
0000
0000
0000
0000
,  // measure 5
0000
0000
0000
0000
,  // measure 6
0000
0000
0000
0000
,  // measure 7
0000
0000
0000
0000
,  // measure 8
0000
0000
1000
0100
0010
0000
0001
0200
,  // measure 9
0000
0010
0000
0010
,  // measure 10
0301
1000
0010
0100
0000
0000
0001
2000
,  // measure 11
0000
3100
0010
1001
,  // measure 12
0000
0000
0001
0000
0110
0000
0001
2000
,  // measure 13
0000
0010
3000
0010
,  // measure 14
1010
1000
0100
0020
0000
0031
0100
0020
,  // measure 15
0000
1030
0001
0200
0000
0301
1000
0200
,  // measure 16
0000
0000
0310
0001
0010
0000
0200
0000
0000
0000
1300
0010
1000
0000
0002
0000
,  // measure 17
0000
0000
0103
0001
0100
0000
0001
1000
0001
0000
0010
0001
0010
0000
0200
0000
,  // measure 18
0000
1300
0001
0200
0000
0310
1000
0001
,  // measure 19
0100
0100
0100
0100
,  // measure 20
0100
0000
0000
0000
0100
0000
0010
0001
0010
0000
0200
0000
0000
0000
0000
0000
,  // measure 21
1300
0000
0001
0100
0010
0000
0100
0001
,  // measure 22
1000
0000
1000
0100
0010
0000
0001
0000
,  // measure 23
2001
0000
0000
3100
0010
0200
0000
1000
,  // measure 24
0000
0001
0000
1300
1000
0000
0010
0000
,  // measure 25
0101
0000
0001
0100
0010
0000
0100
0001
,  // measure 26
1000
0000
0000
0000
1000
0000
0100
0000
0010
0000
0000
0000
0100
0000
1000
0001
,  // measure 27
2000
0000
0000
3010
0100
0002
0000
0010
,  // measure 28
0000
0100
0000
1003
0100
0000
0010
0000
,  // measure 29
0011
0000
1000
0100
0010
0000
0100
1000
,  // measure 30
0001
0000
0100
0001
1000
0000
0100
1000
,  // measure 31
0002
0000
0000
0103
0010
0200
0000
0001
,  // measure 32
0000
1000
0000
0001
0301
0000
0010
0000
,  // measure 33
1100
0000
1000
0100
0010
0000
0001
0100
,  // measure 34
0010
0000
0010
1000
0001
1000
0100
0000
,  // measure 35
1000
0100
0010
0100
0010
0001
1000
0001
,  // measure 36
0010
0100
1000
0010
1000
0100
0010
0000
,  // measure 37
0001
0100
0010
0100
0010
1000
0100
1000
,  // measure 38
0010
0100
0001
0010
0001
0100
0010
0000
,  // measure 39
1000
0100
0010
0100
0010
0001
1000
0001
,  // measure 40
0010
0100
1000
0010
1000
0100
0010
0000
,  // measure 41
0001
0100
0010
1000
0001
0010
0100
1000
,  // measure 42
0010
0000
0010
0000
0100
0001
0010
0001
,  // measure 43
1000
0100
0010
0100
0010
0001
1000
0001
,  // measure 44
0010
0100
1000
0010
1000
0100
0010
0000
,  // measure 45
0001
0100
0010
0100
0010
1000
0100
1000
,  // measure 46
0010
0100
0001
0010
0001
0100
0010
0000
,  // measure 47
1000
0100
0010
0100
0010
0001
1000
0001
,  // measure 48
0010
0100
1000
0010
1000
0100
0010
0000
,  // measure 49
0001
0010
0000
0001
1000
0000
0010
0100
,  // measure 50
0000
0001
0000
1000
0100
0000
0010
0000
,  // measure 51
1200
0000
0310
0000
0001
0010
0100
0010
,  // measure 52
0002
0203
0320
1030
,  // measure 53
0201
0000
0310
0000
1000
0010
0100
0010
,  // measure 54
2000
0000
3001
0010
0001
0100
0010
0000
,  // measure 55
2010
0000
3001
0000
0010
0100
1000
0100
,  // measure 56
0020
0032
0203
0310
,  // measure 57
1000
0100
0010
0002
0000
0203
0000
0320
,  // measure 58
0000
1030
0100
1000
0020
0000
0130
0000
,  // measure 59
0201
0000
0310
0000
1000
0010
0100
0010
,  // measure 60
2000
3200
0320
0031
,  // measure 61
1200
0000
0310
0000
0001
0100
0010
0100
,  // measure 62
0002
0000
1003
0100
1000
0001
0010
0000
,  // measure 63
0012
0000
1003
0000
0100
0010
0001
0010
,  // measure 64
0200
2300
3020
0130
,  // measure 65
0001
0010
0100
2000
0000
3020
0000
0230
,  // measure 66
0000
0301
1000
0001
0020
0000
0130
0000
,  // measure 67
2100
0000
0001
0000
3100
0010
0001
0010
,  // measure 68
0100
0000
1000
0001
0101
0000
1100
0000
,  // measure 69
0001
0100
0010
1000
0010
0100
0001
2000
,  // measure 70
0000
0000
3001
0000
0010
0000
0001
0100
0002
0000
0000
0000
1003
0000
0000
0000
,  // measure 71
0012
0000
1000
0000
0103
0010
1000
0010
,  // measure 72
0100
0000
0001
1000
1100
0000
0101
0000
,  // measure 73
1000
0100
0010
0001
0010
0100
1000
0002
,  // measure 74
0000
0000
1003
0000
0010
0000
1000
0100
2000
0000
0000
0000
3001
0000
0000
0000
,  // measure 75
2010
0000
0001
0000
3100
0010
0001
0010
,  // measure 76
0100
0000
1000
0001
0101
0000
1100
0000
,  // measure 77
0001
0100
0010
1000
0010
0100
0001
2000
,  // measure 78
0000
0000
3001
0000
0010
0000
0001
0100
0002
0000
0000
0000
1003
0000
0000
0000
,  // measure 79
0012
0000
1000
0000
0103
0010
1000
0010
,  // measure 80
0100
0000
0001
1000
1100
0000
0101
0000
,  // measure 81
1000
0100
0010
0001
0010
0100
1000
0002
,  // measure 82
0000
0000
1003
0000
0010
0000
1000
0100
2000
0000
0000
0000
3001
0000
0000
0000
,  // measure 83
0100
0000
0001
0010
0100
0000
1000
0010
,  // measure 84
0100
0000
0001
1000
0100
0000
1000
0001
,  // measure 85
0100
0000
0100
0010
1000
0000
0100
0010
,  // measure 86
0001
0100
0010
1000
0002
0000
0013
0000
,  // measure 87
0001
0000
1000
0010
0100
0000
0001
0010
,  // measure 88
0100
0000
1000
0001
0100
0000
0001
1000
,  // measure 89
0100
0000
0100
0010
0001
0000
0100
0010
,  // measure 90
1000
0001
0010
0010
,  // measure 91
0100
0000
0000
0000
;

//---------------dance-single - ----------------
#NOTES:
     dance-single:
     :
     Medium:
     8:
     0.409985,0.471540,0.207270,0.334821,0.000000,360.000000,334.000000,26.000000,42.000000,0.000000,0.000000,0.409985,0.471540,0.207270,0.334821,0.000000,360.000000,334.000000,26.000000,42.000000,0.000000,0.000000:
// measure 0
0000
0000
0000
0000
,  // measure 1
0000
0000
0000
0000
,  // measure 2
0000
0000
0000
0000
,  // measure 3
0000
0000
0000
0000
,  // measure 4
0000
0000
0000
0000
,  // measure 5
0000
0000
0000
0000
,  // measure 6
0000
0000
0000
0000
,  // measure 7
0000
0000
0000
0000
,  // measure 8
0000
0000
0100
0000
0012
0000
0003
0200
,  // measure 9
0000
0000
0000
0000
0000
0300
0000
0000
,  // measure 10
0020
0000
0030
2000
0000
3000
0000
0200
,  // measure 11
0000
0000
0310
0010
,  // measure 12
0000
0000
0000
0000
0012
0000
0003
0200
,  // measure 13
0000
0000
0000
0000
0000
0300
0000
0000
,  // measure 14
1010
0000
0000
1100
0000
0000
0000
0011
,  // measure 15
0000
0000
0000
0101
0000
0000
0000
0110
,  // measure 16
0000
0000
0000
1001
0000
0000
0000
0011
,  // measure 17
0000
0000
0000
1100
0000
0000
0000
1010
,  // measure 18
0000
0000
0000
0101
0000
0000
0000
0001
,  // measure 19
1000
1000
1000
1000
,  // measure 20
1000
0000
1000
0000
0001
0010
0000
0000
,  // measure 21
0001
0000
0000
0001
1000
0000
0000
1000
,  // measure 22
0010
0000
0000
0010
1000
0000
0000
1000
,  // measure 23
0200
0000
0000
0310
0001
0010
0000
0001
,  // measure 24
0000
0001
0000
1000
0010
0000
0010
0000
,  // measure 25
1000
0000
0000
0001
0100
0000
0000
0001
,  // measure 26
1000
0000
0000
0100
1000
0000
0000
0001
,  // measure 27
0020
0000
0000
0031
1000
0001
0000
0100
,  // measure 28
0000
0100
0000
0010
1000
0000
0001
0000
,  // measure 29
0011
0000
0000
0100
1000
0000
0000
0001
,  // measure 30
0100
0000
0000
0010
1000
0000
0000
0001
,  // measure 31
0020
0000
0000
0130
0010
0100
0000
1000
,  // measure 32
0000
1000
0000
0001
0100
0000
0100
0000
,  // measure 33
0010
1000
0001
1000
,  // measure 34
0100
0010
0000
0020
0000
0000
0031
0000
,  // measure 35
2000
0000
0000
3010
0100
0010
0000
1000
,  // measure 36
0000
1000
0000
0001
0010
0000
0010
0000
,  // measure 37
0002
0000
0000
1003
0010
1000
0000
0100
,  // measure 38
0000
0100
0000
0010
0001
0000
0001
0000
,  // measure 39
0200
0000
0000
0310
1000
0010
0000
0100
,  // measure 40
0000
0100
0000
0001
1000
0000
1000
0000
,  // measure 41
0100
0000
0010
0000
0001
1000
0001
0000
,  // measure 42
0100
0000
0100
0000
0010
1000
0010
1000
,  // measure 43
0002
0000
0000
0103
0010
0100
0000
0001
,  // measure 44
0000
0001
0000
1000
0100
0000
0100
0000
,  // measure 45
2000
0000
0000
3001
0100
0001
0000
0010
,  // measure 46
0000
0010
0000
0100
1000
0000
1000
0000
,  // measure 47
0020
0000
0000
0130
0001
0100
0000
0010
,  // measure 48
0000
0010
0000
1000
0001
0000
0001
0000
,  // measure 49
0010
0100
0000
1000
0001
0000
0001
1000
,  // measure 50
0000
0010
0000
0100
0001
0000
1000
0000
,  // measure 51
0001
0000
0100
0000
0010
1000
0010
0000
,  // measure 52
0100
0001
2002
3003
,  // measure 53
1000
0000
0100
0000
0010
0001
0010
0000
,  // measure 54
0100
1000
2002
3003
,  // measure 55
0001
0000
0010
0000
0100
1000
0100
0000
,  // measure 56
0010
0001
2002
3003
,  // measure 57
1000
0010
1000
0020
0000
0230
0000
0302
,  // measure 58
0000
1003
0100
0000
0010
0000
0010
0000
,  // measure 59
0001
0000
0100
0000
0010
1000
0010
0000
,  // measure 60
0100
0001
2002
3003
,  // measure 61
1000
0000
0100
0000
0010
0001
0010
0000
,  // measure 62
0100
1000
2002
3003
,  // measure 63
0001
0000
0010
0000
0100
1000
0100
0000
,  // measure 64
0010
0001
2002
3003
,  // measure 65
1000
0010
1000
0020
0000
0230
0000
0302
,  // measure 66
0000
1003
0100
1000
0010
0000
0100
0000
,  // measure 67
0102
0000
0010
0000
1003
0010
0000
0100
,  // measure 68
0000
0000
0000
0001
0010
0000
0100
0000
,  // measure 69
2100
0000
0010
0000
3001
0010
0000
0100
,  // measure 70
0000
0000
1000
0001
1000
0000
0010
0000
,  // measure 71
0102
0000
0010
0000
1003
0010
0000
0100
,  // measure 72
0000
0000
0000
0001
0010
0000
0100
0000
,  // measure 73
2100
0000
0010
0000
3001
0010
0000
0100
,  // measure 74
0000
0000
1000
0001
1000
0000
0010
0000
,  // measure 75
2010
0000
0100
0000
3001
0100
0000
0010
,  // measure 76
0000
0000
0000
1000
0100
0000
0010
0000
,  // measure 77
0012
0000
0100
0000
1003
0100
0000
0010
,  // measure 78
0000
0000
0001
1000
0001
0000
0010
0000
,  // measure 79
0012
0000
0100
0000
1003
0010
0000
0100
,  // measure 80
0000
0000
0000
0001
0010
0000
0100
0000
,  // measure 81
1000
0000
0001
0010
0001
0010
0000
0100
,  // measure 82
0000
0000
1000
0001
1000
0000
0010
0000
,  // measure 83
0100
0000
0000
0100
0001
0000
0000
0001
,  // measure 84
1000
0000
0000
1000
0100
0000
0000
0100
,  // measure 85
0010
0000
0000
0010
0100
0000
0000
0100
,  // measure 86
1000
0010
0100
0010
,  // measure 87
1000
0000
0000
1000
0100
0000
0000
0100
,  // measure 88
0001
0000
0000
0001
0100
0000
0000
0100
,  // measure 89
1000
0000
0000
1000
0010
0000
0000
0010
,  // measure 90
0100
0001
1000
1000
,  // measure 91
0100
0000
0000
0000
;

//---------------dance-single - ----------------
#NOTES:
     dance-single:
     :
     Easy:
     4:
     0.224353,0.290179,0.015944,0.310906,0.000000,197.000000,195.000000,2.000000,39.000000,0.000000,0.000000,0.224353,0.290179,0.015944,0.310906,0.000000,197.000000,195.000000,2.000000,39.000000,0.000000,0.000000:
// measure 0
0000
0000
0000
0000
,  // measure 1
0000
0000
0000
0000
,  // measure 2
0000
0000
0000
0000
,  // measure 3
0000
0000
0000
0000
,  // measure 4
0000
0000
0000
0000
,  // measure 5
0000
0000
0000
0000
,  // measure 6
0000
0000
0000
0000
,  // measure 7
0000
0000
0000
0000
,  // measure 8
1000
0000
0010
0000
1000
0000
0000
0200
,  // measure 9
0000
0000
0300
0000
,  // measure 10
0020
0000
0000
0032
0000
0000
0000
2003
,  // measure 11
0000
0000
3010
0010
,  // measure 12
0100
0000
0001
0000
1000
0000
0000
0200
,  // measure 13
0000
0000
0000
0300
,  // measure 14
0010
0000
0000
0001
0000
0000
0000
0100
,  // measure 15
0000
0000
0000
1000
0000
0000
0000
0010
,  // measure 16
0000
0000
0000
1000
0000
0000
0000
0100
,  // measure 17
0000
0000
0000
0001
0000
0000
0000
0010
,  // measure 18
0000
0000
0000
0100
0000
0000
0000
1000
,  // measure 19
0000
0000
0000
0000
,  // measure 20
0000
0000
0000
0000
,  // measure 21
0010
0100
0001
0000
,  // measure 22
1000
0001
1000
0000
,  // measure 23
0020
0000
0230
0000
,  // measure 24
0302
0000
0203
0000
,  // measure 25
0310
1000
0010
1000
,  // measure 26
0100
0000
0010
0000
,  // measure 27
0002
0000
0103
0000
,  // measure 28
2000
0000
3001
0010
,  // measure 29
0001
0000
0100
0000
,  // measure 30
0010
0000
1000
0000
,  // measure 31
0200
0000
0320
0000
,  // measure 32
0032
0000
0023
0000
,  // measure 33
0130
1000
0100
1000
,  // measure 34
0001
0000
0100
0000
,  // measure 35
0020
0000
1000
0000
,  // measure 36
0001
0000
1000
0000
,  // measure 37
0230
0000
0001
0000
,  // measure 38
1000
0000
0001
0000
,  // measure 39
0320
0000
1000
0000
,  // measure 40
0130
0000
0001
0000
,  // measure 41
0011
0000
0000
0000
,  // measure 42
0000
0000
0000
0000
,  // measure 43
0200
0000
1000
0000
,  // measure 44
0001
0000
1000
0000
,  // measure 45
0320
0000
0001
0000
,  // measure 46
1000
0000
0001
0000
,  // measure 47
0230
0000
1000
0000
,  // measure 48
0310
0000
0001
0000
,  // measure 49
0101
0000
0000
0000
,  // measure 50
0000
0000
0000
0000
,  // measure 51
0010
1000
0010
0000
,  // measure 52
1000
0100
1000
0000
,  // measure 53
0001
0010
0001
0000
,  // measure 54
0100
0001
0100
0000
,  // measure 55
0010
1000
0010
0000
,  // measure 56
1000
0100
1000
0000
,  // measure 57
0002
0000
0023
0000
,  // measure 58
0130
1000
0001
1000
,  // measure 59
0001
0100
0001
0000
,  // measure 60
0010
0001
0010
0000
,  // measure 61
0100
1000
0100
0000
,  // measure 62
1000
0010
1000
0000
,  // measure 63
0001
0100
0001
0000
,  // measure 64
0010
0001
0010
0000
,  // measure 65
0200
0000
2300
0000
,  // measure 66
3010
0100
0010
0100
,  // measure 67
0001
0000
0010
0000
,  // measure 68
0100
1000
0010
1000
,  // measure 69
0100
0000
0010
0000
,  // measure 70
0001
0100
0001
0000
,  // measure 71
1000
0000
0010
0000
,  // measure 72
0100
0001
0010
0001
,  // measure 73
0100
0000
0010
0000
,  // measure 74
1000
0100
1000
0000
,  // measure 75
0001
0000
0010
0000
,  // measure 76
0001
0100
1000
0100
,  // measure 77
0001
0000
0010
0000
,  // measure 78
0100
1000
0100
0000
,  // measure 79
1000
0000
0010
0000
,  // measure 80
1000
0100
0001
0100
,  // measure 81
1000
0000
0010
0000
,  // measure 82
0100
0001
0100
0000
,  // measure 83
0020
0000
2030
0000
,  // measure 84
3200
0000
0302
0000
,  // measure 85
0023
0000
0032
0000
,  // measure 86
0203
0000
1300
0001
,  // measure 87
0020
0000
0032
0000
,  // measure 88
0203
0000
2300
0000
,  // measure 89
3020
0000
2030
0000
,  // measure 90
3200
0000
0301
0000
,  // measure 91
1000
0000
0000
0000
;

//---------------dance-single - ----------------
#NOTES:
     dance-single:
     :
     Beginner:
     1:
     0.088830,0.145089,0.000000,0.000000,0.000000,78.000000,78.000000,0.000000,0.000000,0.000000,0.000000,0.088830,0.145089,0.000000,0.000000,0.000000,78.000000,78.000000,0.000000,0.000000,0.000000,0.000000:
0000
0000
0000
0000
,
0000
0000
0000
0000
,
0000
0000
0000
0000
,
0000
0000
0000
0000
,
0000
0000
0000
0000
,
0000
0000
0000
0000
,
0000
0000
0000
0000
,
0000
0000
0000
0000
,
0000
0000
0000
0000
,
0000
0000
0000
0000
,
0000
0000
0000
0000
,
0000
0000
0000
0000
,
0000
0000
0000
0000
,
0000
0000
0000
0000
,
0010
0000
0000
0000
0000
0000
0000
1000
,
0000
0000
0000
0000
0000
0000
0000
0001
,
0000
0000
0000
0000
0000
0000
0000
1000
,
0000
0000
0000
0000
0000
0000
0000
0010
,
0000
0000
0000
0000
0000
0000
0000
0100
,
0000
0000
0000
0000
,
0000
0000
0000
0000
,
0001
0000
0001
0000
,
0001
0000
0000
0000
,
0010
0000
0000
0000
,
0100
0000
0000
0000
,
1000
0000
1000
0000
,
1000
0000
0000
0000
,
0010
0000
0000
0000
,
0100
0000
0000
0000
,
0001
0000
0000
0000
,
0010
0000
0000
0000
,
0001
0000
0000
0000
,
1000
0000
1000
0000
,
1000
0000
0000
0000
,
0010
0000
0000
0000
,
0100
0000
0000
0000
,
0000
0000
0000
0000
,
0001
0000
0000
0000
,
0000
0000
0000
0000
,
1000
0000
0000
0000
,
0000
0000
0000
0000
,
0100
0000
0000
0000
,
0000
0000
0000
0000
,
0010
0000
0000
0000
,
0000
0000
0000
0000
,
0001
0000
0000
0000
,
0000
0000
0000
0000
,
1000
0000
0000
0000
,
0000
0000
0000
0000
,
0010
0000
0000
0000
,
0000
0000
0000
0000
,
1000
0000
0000
0000
,
0100
0000
0000
0000
,
0010
0000
0000
0000
,
0001
0000
0000
0000
,
1000
0000
0000
0000
,
1000
0000
0000
0000
,
0001
0000
0000
0000
,
0000
0000
0000
0000
,
0001
0000
0000
0000
,
0010
0000
0000
0000
,
0100
0000
0000
0000
,
1000
0000
0000
0000
,
0001
0000
0000
0000
,
0001
0000
0000
0000
,
1000
0000
0000
0000
,
0000
0000
0000
0000
,
0010
0000
0010
0000
,
0010
0000
0000
0000
,
0100
0000
0100
0000
,
0100
0000
0000
0000
,
0010
0000
0010
0000
,
0010
0000
0000
0000
,
0100
0000
0100
0000
,
0100
0000
0000
0000
,
0001
0000
0001
0000
,
0001
0000
0000
0000
,
1000
0000
1000
0000
,
1000
0000
0000
0000
,
0001
0000
0001
0000
,
0001
0000
0000
0000
,
1000
0000
1000
0000
,
1000
0000
0000
0000
,
0100
0000
0000
0000
,
0010
0000
0000
0000
,
0100
0000
0000
0000
,
1000
0000
0000
0000
,
0010
0000
0000
0000
,
0100
0000
0000
0000
,
0010
0000
0000
0000
,
1000
0000
0000
0000
,
0001
0000
0000
0000
;
