#TITLE:Xperanza;
#SUBTITLE:;
#ARTIST:aran;
#TITLETRANSLIT:;
#SUBTITLETRANSLIT:;
#ARTISTTRANSLIT:;
#GENRE:;
#CREDIT:;
#BANNER:Xperanza.png;
#BACKGROUND:Xperanza-bg.png;
#LYRICSPATH:;
#CDTITLE:;
#MUSIC:Xperanza.ogg;
#OFFSET:-0.741000;
#SAMPLESTART:73.927536;
#SAMPLELENGTH:9.600004;
#SELECTABLE:YES;
#BPMS:0.000000=200.000000
;
#STOPS:
;
#BGCHANGES:;
#KEYSOUNDS:;
#ATTACKS:;

//---------------dance-single - ----------------
#NOTES:
     dance-single:
     :
     Challenge:
     18:
     0.939621,1.306454,0.329259,0.274383,0.623241,839.000000,797.000000,42.000000,35.000000,0.000000,0.000000,0.939621,1.306454,0.329259,0.274383,0.623241,839.000000,797.000000,42.000000,35.000000,0.000000,0.000000:
0000
0000
0000
0000
,
1000
0000
0100
0000
0000
0010
0001
0010
,
0000
0100
0000
1000
0000
0010
0000
0100
,
0000
0000
0001
0010
0100
1000
0000
1000
,
0000
0000
0000
0010
0000
0010
0000
0000
,
1000
0000
0001
0000
0000
0010
0100
0010
,
0000
0001
0000
0100
0000
0010
0000
0000
,
1000
0000
0100
0000
0001
0000
1000
0010
,
0000
0001
1000
0001
0000
0100
0001
0000
,
0011
0010
0100
1000
0010
0100
0001
0010
,
0100
1000
0010
0100
0001
1000
0001
0100
,
1001
0010
0100
1000
0010
0100
0001
0010
,
0100
1000
0010
0100
0001
1000
1100
0000
,
0011
0001
0100
0010
1000
0010
0100
0001
,
0010
0001
0100
0010
1000
0010
0100
0001
,
0010
0100
0010
0100
0010
0100
0010
0100
1000
0001
1000
0001
1000
0001
1000
0001
,
0100
0010
1000
0010
0000
1000
0100
1000
,
0001
0010
0001
0010
0001
0010
0001
0010
0001
0010
0001
0010
0001
0010
0001
0010
,
0100
1000
0100
1000
0100
1000
0100
1000
0100
1000
0100
1000
0100
1000
0100
1000
,
0001
0100
0001
0100
0001
0100
0001
0100
0010
1000
0010
1000
0010
1000
0010
1000
,
0001
0000
0010
0000
0100
0000
1000
0000
0001
0100
0001
0100
0010
0000
0000
0000
,
1020
0000
0130
0001
0021
0000
0130
1000
,
0001
0100
1000
0100
0001
0100
0010
0010
,
1000
0100
0010
0100
0012
0000
1003
1000
,
0001
0010
0100
0010
1000
0010
0001
1000
,
0010
0010
0100
0001
2010
0000
3100
0010
,
0001
0100
1000
0100
0001
0100
0010
1000
,
1002
0000
0103
1000
0100
0001
1010
0000
,
0102
0000
0000
0000
1003
0000
0020
0000
0000
0000
0130
0000
0001
0010
0100
1000
,
0020
0000
0130
0000
1002
0000
0103
0010
,
1000
0100
0010
0001
0010
0100
1000
0100
1000
0001
0100
0001
,
1000
0010
0010
0100
1002
0000
0013
0100
,
1000
0000
0001
0100
0002
0000
0000
0000
1003
0000
0100
0000
0010
0000
0100
1000
,
0001
0000
0100
0000
0201
0000
0000
0000
0310
0000
1000
0000
0001
0000
0100
0010
,
0200
0000
0000
0000
0301
0000
1000
0000
0010
0000
1000
0000
0100
0010
0100
0010
,
0001
0010
0100
1000
0001
0010
0100
1000
0001
0100
0010
1000
0001
0100
0010
1000
,
0001
0100
0001
0100
0001
0100
0001
0100
0010
1000
0010
1000
0010
1000
0010
1000
,
0002
0000
0013
0000
0000
0100
1000
0100
,
0010
0001
0000
0100
0000
0010
0000
1000
,
0001
0000
0100
0010
0100
0001
0000
0001
,
0000
0000
0000
0010
0000
0010
0000
0000
,
0001
0000
1000
0000
0000
0010
0100
0010
,
0000
1000
0000
0100
0000
0010
0000
0000
,
0001
0000
0100
0000
0010
0000
1000
0001
,
0000
0010
0100
0010
0000
0001
0010
0000
,
2200
0000
0000
3300
,
0020
0000
0000
0000
,
0230
0000
0000
0000
,
0301
0000
0010
0100
0020
0000
0000
0000
0031
0000
1000
0000
0010
0000
1000
0000
,
0001
0100
1000
0000
0100
0001
1000
0100
,
0100
0000
0010
0001
0010
0000
0000
0000
0100
0000
1000
0000
0001
0010
0100
1000
,
0001
0010
0100
1000
0001
0000
0100
0000
1000
0000
0100
0000
0001
0000
1000
0000
,
0000
0000
1000
0000
0000
0000
0001
0100
0001
0000
1000
0000
0001
0010
0100
1000
,
0001
0000
0100
0010
0100
0000
0001
0000
1000
0000
0001
0010
0001
0000
1000
0000
,
0001
0000
0100
0000
0010
1000
0001
0100
0010
1000
0001
0100
0010
1000
0010
0000
,
0100
0000
0001
1000
0001
0000
0010
0000
0001
1000
0001
0000
0010
0000
0001
0010
,
0100
0000
0000
1000
0000
0000
0001
0000
0000
1000
0000
0000
0010
0000
0000
0000
0000
0000
0100
0000
0000
0001
0000
0000
1000
0000
0000
0000
0100
0000
0000
0000
1000
0000
0000
0000
0001
0000
0000
0000
0100
0000
0000
0000
0100
0000
0000
0000
,
0010
1000
0010
1000
0010
1000
0010
1000
0001
0010
0001
0010
0001
0010
0001
0010
,
0100
1000
0100
1000
0100
1000
0100
1000
0001
0100
0001
0100
0001
0100
0001
0100
,
0010
1000
0010
1000
0001
0010
0001
0010
0100
1000
0100
1000
0001
0100
0001
0100
,
0020
0000
0000
0000
1030
0000
0001
0000
2000
0000
0000
0000
3100
0010
0100
0010
,
0001
0000
1010
0100
0001
0000
1100
0100
,
0010
0000
0000
0010
0001
0000
1000
0000
0010
0000
0000
0000
0101
0000
0001
0000
,
1000
0000
1100
0100
0001
0100
1100
0000
,
0010
0000
0001
1000
0001
0000
0100
0000
0020
0000
0000
0000
1030
0001
1000
0001
,
0100
0000
1010
0100
0001
0000
1100
0100
,
0010
0000
0000
0010
0001
0000
1000
0000
0010
0000
0000
0000
0101
0000
0001
0000
,
1000
0000
1100
0100
0001
0100
1100
0000
,
0010
0000
0001
1000
0001
0000
0100
0000
0010
0000
0000
0000
1000
0100
0010
0001
,
2000
3001
0010
0001
0100
0010
1000
0010
,
0100
0000
0001
1000
0001
0000
0100
0000
0010
0000
1000
0000
0100
0000
1000
0000
,
0001
0010
0100
0010
0002
0000
1003
0010
,
1000
0000
0001
0010
0001
0000
0100
0000
0010
0000
1000
0000
0010
0000
0100
0001
,
1000
0000
0100
0000
0010
0000
0000
0000
0001
0000
0010
0000
0001
0000
1000
0010
,
0100
0000
0000
0000
0001
0000
0100
0000
1000
0000
0100
0000
0001
0010
0100
1000
,
0001
1000
0100
0010
0001
0010
0100
1000
0001
1000
0100
0010
0001
0010
0100
1000
,
0001
0010
0001
0010
0001
0010
0001
0010
0100
1000
0001
1000
0010
0100
0001
1000
,
0001
0000
0100
0000
0000
0010
1000
0010
,
0000
0100
0000
0001
0000
0010
0000
0100
,
0000
0000
1000
0010
0100
0001
0000
0001
,
0000
0000
0000
0010
0000
0010
0000
0000
,
0001
0000
0100
0000
1000
0000
0100
0000
0001
0000
0010
0000
1000
0000
0010
0001
,
1000
0000
0010
0000
0001
0000
0010
0000
1000
0000
0100
0000
0001
0000
0100
1000
,
0001
0100
0001
0100
0001
0100
0001
0100
0010
1000
0010
1000
0010
1000
0010
1000
,
0001
0000
0000
0110
0000
0000
1010
0000
0000
0110
0000
0000
0101
0000
1000
0000
,
0001
1000
0100
0010
0100
1000
0010
0100
,
0001
0100
1000
0100
0001
0010
0100
0010
,
0001
1000
0010
0100
0001
1000
0100
1000
,
0010
0100
0010
0001
0010
0100
0001
1000
,
1100
1000
0001
0100
1000
0100
0001
0010
,
0011
0010
0001
1000
0010
1000
0001
1000
,
1100
1000
0001
0100
0110
0100
0001
1000
,
1100
1000
0001
0100
0010
1000
0001
0010
,
0002
0000
1003
0100
1200
0000
0310
0001
,
1000
0010
0001
0010
2000
0000
3001
0010
,
0021
0000
0130
1000
2100
0000
3001
0100
,
0001
0010
0002
0000
1003
0010
0100
0001
,
2001
0000
3100
0001
0100
0010
0001
2010
,
0000
3001
0100
0002
0000
1003
0100
0010
,
0011
0000
0100
1000
0011
0100
1000
0102
,
0000
1003
0010
0200
0000
0000
0000
0000
,
0300
0000
0000
0000
;

//---------------dance-single - ----------------
#NOTES:
     dance-single:
     :
     Hard:
     13:
     0.693237,0.712611,0.156790,0.478210,0.031358,619.000000,599.000000,20.000000,61.000000,0.000000,0.000000,0.693237,0.712611,0.156790,0.478210,0.031358,619.000000,599.000000,20.000000,61.000000,0.000000,0.000000:
0000
0000
0000
0000
,
0010
0000
1000
0000
0000
0001
0010
0001
,
0000
0100
0000
0010
0000
1000
0000
0001
,
0000
0000
0010
0100
1000
0001
0000
0001
,
0000
0000
0000
1000
0000
1000
0000
0000
,
0010
0000
0100
0000
0000
0001
1000
0001
,
0000
1000
0000
0010
0000
0100
0000
0000
,
0001
0000
0010
0000
0100
0000
1000
0010
,
0000
1000
0001
1000
0000
0001
0010
0000
,
2100
0000
3001
0000
0000
0100
0010
0100
,
0000
0001
0000
0010
0000
0100
0000
1000
,
0002
0000
1003
0100
0010
0100
0000
0001
,
0000
0010
0000
1000
0000
0001
0010
0000
,
0100
1000
0001
1000
0010
0100
0001
0100
,
0010
1000
0001
1000
0100
0010
0001
0010
,
0100
1000
0001
0100
1000
0100
0001
1000
,
0100
0010
0001
0020
0000
0130
1000
0000
,
2002
3003
0020
0030
,
0202
0303
0020
0030
,
2100
3001
0102
1003
,
0010
0100
0001
0100
0010
1000
0001
0000
,
0021
0000
0000
0130
2000
0000
0000
3001
,
0100
0010
1000
0010
0100
0001
1000
0001
,
0010
0100
1000
0001
0020
0000
0000
0130
,
0100
1000
0001
1000
0010
0100
0001
1000
,
0100
0010
0100
0010
0200
0000
0000
1300
,
0001
0010
0001
0100
0010
1000
0100
1000
,
0001
0000
0100
0010
1000
0000
0101
0000
,
1200
0000
0000
0000
0000
0000
0310
0000
0000
0000
0000
0000
0001
1000
0001
1000
,
0001
0000
0000
0100
0020
0000
0000
1030
,
0001
0010
0100
1000
0001
0010
0100
1000
,
0002
0000
1003
0100
0020
0000
0000
0031
,
1000
0100
0010
0001
1000
0100
0010
0001
,
1000
0010
1000
0000
0001
0010
0100
1000
,
0000
1000
0010
0000
0100
0001
0100
0000
,
0001
1000
0100
1000
0001
0100
0010
0100
,
0001
1000
0001
1000
0001
1000
0001
0000
,
0021
0000
0130
0000
0000
1000
0001
1000
,
0010
0200
0000
0302
0000
2003
0000
3001
,
0010
0000
0100
1000
0100
0010
0000
0001
,
0100
0000
0010
1000
0000
1000
0000
1000
,
0002
0000
0013
0000
0100
1000
0001
2000
,
0000
3020
0000
0230
0000
0301
1000
0010
,
1000
0000
0011
0000
0100
0010
0000
1001
,
0000
0010
0100
1000
0000
0010
0100
0001
,
2000
0000
0000
0000
,
3200
0000
0000
0000
,
0320
0000
0000
0000
,
0032
0000
1000
0000
0103
0010
0100
0000
,
0001
1000
0001
0000
1000
0100
0010
0100
,
0000
1000
0001
0000
0100
0001
1000
0010
,
1000
0010
0100
0001
1000
0001
0010
0100
,
0000
0100
0000
1000
0001
1000
0010
0000
,
1010
0000
0001
0100
1000
0100
0001
0000
,
1000
0100
0010
0100
1000
0001
0100
0001
,
1000
0010
0100
0010
1000
0001
0010
0100
,
1000
0010
0100
0001
0020
0000
0030
0000
,
2002
3003
0220
0330
,
2200
3300
0202
0303
,
2020
3030
0022
0033
,
1001
0000
0000
0000
0100
0000
0010
0000
0200
0000
0000
0000
0301
1000
0001
1000
,
0001
0010
0100
0010
0001
1000
0010
1000
,
0001
0100
0010
0100
0002
0000
1003
0010
,
1000
0001
0010
0001
1000
0100
0010
0100
,
1000
0000
0001
0000
0100
0000
0001
0000
2000
0000
0000
0000
3010
0100
0010
0100
,
0001
1000
0100
1000
0001
0010
0100
0010
,
0001
1000
0010
1000
0002
0000
0103
0010
,
0100
0001
1000
0100
0010
0100
1000
0001
,
0010
0100
1000
0100
0010
0001
2000
0000
,
3010
0100
0001
0100
0010
0000
1000
0001
,
1000
0100
0010
0100
1000
0000
0001
0010
,
0001
1000
0010
1000
0001
0100
0001
0000
,
1000
0100
0010
0100
1000
0001
0010
0001
,
0010
0100
1000
0001
0100
0010
1000
0001
,
1000
0010
0100
0001
1000
0100
1000
0001
,
1000
0010
0100
0001
0100
0010
1000
0001
,
0010
0100
0010
0100
0010
0100
0010
0100
,
2000
0000
3001
0000
0000
0100
0001
0100
,
0000
0010
0000
1000
0000
0001
0000
0010
,
0000
0000
0001
0010
0100
1000
0000
1000
,
0000
0000
0000
0001
0000
0001
0000
0000
,
1010
1000
0100
0010
0001
0010
0100
1000
,
0001
0100
0010
0100
0001
1000
0100
1000
,
0001
0010
0100
1000
0001
0010
0100
1000
,
0001
0000
0000
0100
0000
0000
1000
0000
0000
0100
0000
0000
0001
0000
1000
0000
,
0001
0010
0001
1000
0001
0100
0010
0100
,
0001
1000
0010
1000
0001
0010
0100
0010
,
0001
0100
0010
1000
0100
0010
0001
1000
,
0010
1000
0001
0010
0100
1000
0010
0100
,
0001
1000
0100
1000
0001
1000
0020
0000
,
0130
0001
1000
0001
0010
0001
2000
0000
,
3100
0010
0001
0100
0010
1000
0001
1000
,
0010
0100
0001
0100
0000
0010
1000
0001
,
2000
0000
3100
0010
0002
0000
0103
0010
,
0100
0001
1000
0010
2000
0000
3100
0010
,
0002
0000
0103
0010
2000
0000
3001
0010
,
0100
1000
0200
0000
1300
0001
1000
0010
,
0200
0000
0301
1000
0001
0010
0100
1000
,
0000
1000
0010
0100
0000
0100
0001
1000
,
0001
0010
0100
1000
0001
0100
0010
2000
,
0000
3100
0010
0002
0000
0000
0000
0000
,
0003
0000
0000
0000
;

//---------------dance-single - ----------------
#NOTES:
     dance-single:
     :
     Medium:
     10:
     0.536446,0.593843,0.172469,0.305741,0.031358,479.000000,457.000000,22.000000,39.000000,0.000000,0.000000,0.536446,0.593843,0.172469,0.305741,0.031358,479.000000,457.000000,22.000000,39.000000,0.000000,0.000000:
0000
0000
0000
0000
,
1000
0000
0000
0000
,
0010
0000
0000
0000
,
0100
0000
0000
0000
,
0001
0000
0000
0000
,
1000
0000
0000
0000
,
0100
0000
0000
0000
,
0010
0000
0000
0000
,
0100
0000
1000
0000
,
0101
0100
0010
1000
,
0001
0010
0100
1000
,
1010
0010
0100
0001
,
1000
0100
0010
0001
,
0101
1000
1100
0001
,
0101
1000
1100
0001
,
1000
0000
0010
0000
1000
0000
0100
0010
,
0000
0001
0010
0001
0000
0010
0100
0000
,
2200
3300
0010
0000
,
0022
0033
1000
0000
,
0202
0303
0010
0000
,
1001
0100
0010
2000
,
3001
0000
0100
0010
0100
0000
0001
0000
,
1000
0100
1000
0100
0010
0100
0010
0100
,
0010
0001
2002
3003
,
0001
0100
0001
0100
0010
1000
0010
1000
,
0001
0010
0001
0000
2002
0000
3003
0000
,
1000
0100
1000
0100
0010
0100
0010
0100
,
0020
0000
0032
0000
2003
0000
3001
0100
,
0001
0000
1000
0100
0000
0100
0010
0001
,
1000
0000
0001
0100
0020
0000
0000
0000
,
1030
0001
1000
0000
0100
1000
0100
0000
,
0010
0001
0022
0033
,
0001
0010
0001
0000
1000
0010
1000
0000
,
0100
0000
0110
0000
0001
0000
1000
0010
,
0000
1000
0001
0000
0010
0100
0010
0000
,
0001
0010
0100
1000
,
0001
0100
0001
0100
0010
1000
0010
1000
,
0002
0000
0023
0000
0000
0031
1000
0000
,
1010
0100
0001
0100
,
0010
0000
1000
0100
1000
0000
0001
0000
,
0010
0000
0100
0000
0110
0000
0010
0001
,
0010
0000
0100
1000
0001
0000
0100
0010
,
0100
0000
0001
0000
0101
0000
0001
1000
,
0200
0000
0310
0000
0001
1000
0000
1010
,
0000
1000
0001
1000
0000
0100
0010
0000
,
0002
0000
0000
0000
,
0203
0000
0000
0000
,
0320
0000
0000
0000
,
2030
0000
0100
0100
,
3001
0000
0010
0000
0001
0000
1000
0010
,
0000
0010
1000
0000
0001
0010
0001
0000
,
1000
0100
1000
0100
0010
0001
0010
0001
,
0000
0001
0000
1000
0010
1000
0001
0000
,
1000
0000
0100
0010
0100
0000
1000
0000
,
0001
0000
0100
0010
0100
0000
0001
0000
,
1000
0010
1000
0010
0100
0010
0100
0010
,
0100
0001
0100
0001
2000
0000
0000
0000
,
3001
0000
0010
0000
,
1000
0000
0100
0000
,
0001
0010
1000
0100
,
0001
0000
1000
0100
1000
0000
0001
0100
,
0001
0000
0010
0100
0010
0000
0100
1000
,
0100
0000
0000
0010
0000
0000
0001
0000
1000
0000
0000
0000
0001
0000
0100
0000
,
0001
0000
1000
0010
1000
0010
1000
0000
,
0001
0000
0000
0010
0000
0000
0100
0000
1000
0000
0000
0000
0001
0000
0100
0000
,
0001
0000
1000
0100
1000
0000
0001
0010
,
0001
0000
0000
1000
0000
0000
0010
0000
1000
0000
0000
0000
0001
0000
0100
0000
,
0001
0000
1000
0100
1000
0100
1000
0000
,
0001
0000
0000
0010
0000
0000
0100
0000
1000
0000
0000
0000
0001
0000
0100
0000
,
0010
0000
1000
0001
1000
0000
0001
0010
,
0001
0000
0000
1000
0000
0000
0010
0000
0100
0000
0000
0000
0001
0000
1000
0000
,
0001
0000
0010
0100
1000
0100
0010
0000
,
0001
0000
0000
0100
0000
0000
0010
0000
1000
0000
0000
0000
0001
0000
0010
0000
,
0100
0010
0002
0000
1003
0010
1000
0010
,
0200
0000
0301
1000
0001
1000
0010
0000
,
0200
0000
0301
1000
0002
0000
1003
0100
,
1000
0000
0100
0000
0010
0001
0010
0001
,
1000
0010
0000
0010
,
0000
0100
0000
0100
,
0000
0001
0000
0001
,
0000
0100
0000
0010
,
1010
0001
0011
1000
,
1100
0001
0101
0010
,
1000
0000
0100
0000
0010
0000
0001
1000
,
0001
0000
0000
0100
0000
0000
0010
0000
0000
0100
0000
0000
0001
0000
1000
0000
,
0002
0000
0013
0000
0100
1000
0001
1000
,
0010
0100
0001
1000
,
0010
0000
1000
0100
1000
0100
0010
0001
,
0010
0000
0100
0000
1000
0000
0001
0100
,
0001
0000
0010
0000
0100
0000
1000
0100
,
1000
0000
0010
0000
0100
0000
0001
0010
,
0100
0000
1000
0000
0010
0000
1000
0002
,
0000
0013
0100
0010
0000
0010
0001
1000
,
0002
0000
0103
0010
0200
0000
0301
1000
,
0010
0000
0100
0000
0020
0000
1030
0001
,
0100
0000
0001
1000
0100
0000
1000
0001
,
1000
0010
2000
0000
3001
0000
0010
0000
,
0200
0000
1300
0001
1000
0001
0100
0020
,
0000
1030
0001
2000
0000
3001
0010
0001
,
0100
0000
0010
0000
1000
0100
0000
0100
,
0000
0010
0001
0020
0000
0000
0000
0000
,
0030
0000
0000
0000
;

//---------------dance-single - ----------------
#NOTES:
     dance-single:
     :
     Easy:
     7:
     0.359498,0.435485,0.078395,0.188148,0.000000,321.000000,311.000000,10.000000,24.000000,0.000000,0.000000,0.359498,0.435485,0.078395,0.188148,0.000000,321.000000,311.000000,10.000000,24.000000,0.000000,0.000000:
0000
0000
0000
0000
,
0010
0000
0000
0000
,
1000
0000
0000
0000
,
0100
0000
0000
0000
,
0010
0000
0000
0000
,
0001
0000
0000
0000
,
1000
0000
0000
0000
,
0010
0000
0000
0000
,
1000
0000
0100
0000
,
1000
0100
0010
0001
,
0100
0010
1000
0000
,
0011
0100
1000
0010
,
0100
0001
1000
0001
,
1001
0000
0110
0000
,
1001
0000
0110
0000
,
1000
0100
0010
0001
,
0200
0000
0310
1000
,
1010
0000
0100
0000
,
0101
0000
0001
0000
,
0011
0000
0100
0000
,
1000
0001
1000
0010
,
2000
0000
3200
0000
,
0310
0001
1000
0001
,
0200
0000
0320
0000
,
1030
0001
1000
0100
,
0020
0000
0032
0000
,
1003
0010
0100
0001
,
2000
0000
3100
0010
,
0010
0000
0000
0001
0000
0000
1000
0000
,
0010
0000
2000
0000
,
3001
0010
0100
1000
,
0002
0000
0203
0000
,
0310
1000
0001
1000
,
0100
0010
0001
0002
,
0103
0010
0020
1030
,
0001
0010
1000
0010
,
0001
1000
0001
0100
,
0220
0000
0330
0001
,
1000
0100
0010
0100
,
1000
0000
0010
0000
,
0100
0001
0010
0001
,
1000
0000
0010
0000
,
0100
0001
0010
0001
,
1000
0100
0010
0000
,
0001
1000
0010
1000
,
0200
0000
0000
0000
,
0320
0000
0000
0000
,
0032
0000
0000
0000
,
0023
0000
0130
0000
,
1000
0001
1000
0010
,
0100
0001
0100
0010
,
1000
1000
0001
0001
,
1000
0001
0010
0001
,
0100
0010
0100
0000
,
0010
1000
0010
0000
,
1000
0001
1000
0001
,
0010
0010
0200
0000
,
1300
0000
0010
0000
,
0001
0000
0010
0000
,
1000
0100
0010
0001
,
2000
3010
0010
0200
,
0301
0010
0001
1000
,
0010
0010
0010
0000
,
0100
0001
1000
0001
,
0010
0010
0010
0001
,
1000
0100
0010
0100
,
1000
1000
1000
0000
,
0010
0100
0001
0100
,
0010
0010
0010
1000
,
0002
0000
0013
0001
,
1000
0001
0100
0001
,
1000
0100
0010
0100
,
1000
0001
1000
0010
,
0100
0001
0010
0001
,
0100
0010
1000
0010
,
1000
0100
0010
0001
,
1000
1000
0001
0001
,
0010
0100
0000
0100
,
0000
1000
0000
1000
,
0000
0010
0000
0010
,
0000
0100
0000
0100
,
0001
0010
0001
0010
,
0100
1000
0100
1000
,
0001
0100
0010
1000
,
0001
0000
0000
0010
0000
0000
0001
0000
,
1000
1010
0001
0100
,
1000
0100
0001
1000
,
0001
0010
0001
0010
,
0100
1000
0100
1000
,
0001
0100
1000
0100
,
0001
1000
0010
1000
,
0001
0010
0001
0000
,
1000
0010
1000
0000
,
0100
0010
0001
0000
,
1000
0010
1000
0000
,
0001
0010
0001
1000
,
0001
0100
0001
0000
,
1000
0000
0100
0000
0010
0000
0001
1000
,
0000
0010
0100
0010
,
1000
0000
1000
0000
0001
0000
0001
0010
,
0000
0100
0000
2000
0000
0000
0000
0000
,
3000
0000
0000
0000
;

//---------------dance-single - ----------------
#NOTES:
     dance-single:
     :
     Beginner:
     3:
     0.165750,0.195988,0.000000,0.047037,0.000000,148.000000,148.000000,0.000000,6.000000,0.000000,0.000000,0.165750,0.195988,0.000000,0.047037,0.000000,148.000000,148.000000,0.000000,6.000000,0.000000,0.000000:
// measure 0
0000
0000
0000
0000
,  // measure 1
1000
0000
0000
0000
,  // measure 2
0010
0000
0000
0000
,  // measure 3
0100
0000
0000
0000
,  // measure 4
0001
0000
0000
0000
,  // measure 5
1000
0000
0000
0000
,  // measure 6
0001
0000
0000
0000
,  // measure 7
0010
0000
0000
0000
,  // measure 8
0100
0000
1000
0000
,  // measure 9
1000
0000
0000
0000
,  // measure 10
0000
0000
0000
0000
,  // measure 11
0001
0000
0000
0000
,  // measure 12
0000
0000
0000
0000
,  // measure 13
0010
0000
0010
0000
,  // measure 14
0100
0000
0100
0000
,  // measure 15
1000
0000
0001
0000
,  // measure 16
1000
0000
0000
0000
,  // measure 17
0001
0000
0000
0000
,  // measure 18
0100
0000
0000
0000
,  // measure 19
0010
0000
0010
0000
,  // measure 20
0010
0000
0000
0000
,  // measure 21
1000
0000
1000
0000
,  // measure 22
0002
0000
0000
0000
,  // measure 23
0013
0000
0100
0000
,  // measure 24
0020
0000
0000
0000
,  // measure 25
0031
0000
0001
0000
,  // measure 26
2000
0000
0000
0000
,  // measure 27
3001
0000
0100
0000
,  // measure 28
0001
0000
0000
0000
,  // measure 29
1000
0000
0010
0000
,  // measure 30
2000
0000
0000
0000
,  // measure 31
3100
0000
0100
0000
,  // measure 32
0020
0000
0000
0000
,  // measure 33
0031
0000
0001
0000
,  // measure 34
1000
0000
1000
0000
,  // measure 35
0010
0000
0010
0000
,  // measure 36
0010
0000
0010
0000
,  // measure 37
0020
0000
0000
0000
,  // measure 38
1030
0000
0001
0000
,  // measure 39
0100
0000
0000
0000
,  // measure 40
0100
0000
0000
0000
,  // measure 41
0001
0000
1000
0000
,  // measure 42
0001
0000
0010
0000
,  // measure 43
0100
0000
0100
0000
,  // measure 44
0100
0000
0000
0000
,  // measure 45
1000
0000
0000
0000
,  // measure 46
0000
0000
0000
0000
,  // measure 47
0001
0000
0000
0000
,  // measure 48
1000
0000
0000
0000
,  // measure 49
0010
0000
0010
0000
,  // measure 50
1000
0000
1000
0000
,  // measure 51
0001
0000
0001
0000
,  // measure 52
0010
0000
0010
0000
,  // measure 53
0001
0000
0001
0000
,  // measure 54
1000
0000
1000
0000
,  // measure 55
0001
0000
1000
0000
,  // measure 56
0001
0000
0001
0000
,  // measure 57
0100
0000
0000
0000
,  // measure 58
0100
0000
0000
0000
,  // measure 59
0010
0000
0010
0000
,  // measure 60
0010
0000
1000
0000
,  // measure 61
0001
0000
0001
0000
,  // measure 62
0010
0000
0000
0000
,  // measure 63
0001
0000
1000
0000
,  // measure 64
0001
0000
0000
0000
,  // measure 65
1000
0000
1000
0000
,  // measure 66
0010
0000
0000
0000
,  // measure 67
1000
0000
0001
0000
,  // measure 68
1000
0000
0000
0000
,  // measure 69
0001
0000
0010
0000
,  // measure 70
0001
0000
1000
0000
,  // measure 71
0001
0000
0100
0000
,  // measure 72
0001
0000
0000
0000
,  // measure 73
1000
0000
0100
0000
,  // measure 74
1000
0000
0001
0000
,  // measure 75
1000
0000
0010
0000
,  // measure 76
1000
0000
0000
0000
,  // measure 77
0001
0000
0000
0000
,  // measure 78
0010
0000
0000
0000
,  // measure 79
0100
0000
0000
0000
,  // measure 80
1000
0000
0000
0000
,  // measure 81
0001
0000
0001
0000
,  // measure 82
0100
0000
0100
0000
,  // measure 83
0001
0000
1000
0000
,  // measure 84
0001
0000
0000
0000
,  // measure 85
1000
0000
0100
0000
,  // measure 86
1000
0000
0000
0000
,  // measure 87
0001
0000
1000
0000
,  // measure 88
0001
0000
0000
0000
,  // measure 89
0100
0000
0001
0000
,  // measure 90
0100
0000
0000
0000
,  // measure 91
0001
0000
1000
0000
,  // measure 92
0001
0000
0000
0000
,  // measure 93
1000
0000
1000
0000
,  // measure 94
0010
0000
0010
0000
,  // measure 95
1000
0000
0001
0000
,  // measure 96
1000
0000
0000
0000
,  // measure 97
0100
0000
0010
0000
,  // measure 98
0001
0000
0000
0000
,  // measure 99
1000
0000
0001
0000
,  // measure 100
0100
0000
0000
0000
;
