#TITLE:Wonderland;
#SUBTITLE:;
#ARTIST:kors k;
#TITLETRANSLIT:;
#SUBTITLETRANSLIT:;
#ARTISTTRANSLIT:;
#GENRE:;
#CREDIT:;
#BANNER:Wonderland.png;
#BACKGROUND:Wonderland-bg.png;
#LYRICSPATH:;
#CDTITLE:;
#MUSIC:Wonderland.ogg;
#OFFSET:0.800000;
#SAMPLESTART:21.847698;
#SAMPLELENGTH:10.700016;
#SELECTABLE:YES;
#BPMS:0.000000=180.000000
;
#STOPS:
;
#BGCHANGES:;
#KEYSOUNDS:;
#ATTACKS:;

//---------------dance-single - ----------------
#NOTES:
     dance-single:
     :
     Hard:
     15:
     0.908812,1.024938,0.452704,0.079422,0.758478,801.000000,744.000000,57.000000,10.000000,0.000000,0.000000,0.908812,1.024938,0.452704,0.079422,0.758478,801.000000,744.000000,57.000000,10.000000,0.000000,0.000000:
0000
0000
0000
0000
,
0000
0000
0000
0000
,
0000
0000
0000
0000
,
0000
0000
0000
0000
,
0000
0000
0000
0000
,
1000
0000
0100
0000
0010
0001
0000
0010
0100
0000
0010
0001
0000
0010
0100
0000
,
1000
0000
0001
0000
0100
0010
0000
0100
0001
0000
0100
0010
0000
0100
0001
0000
,
1000
0000
0010
0000
0100
0001
0000
0100
0010
0000
0100
0001
0000
0100
0010
0000
,
1000
0000
0100
0000
0010
0001
0000
0010
0100
0000
0010
0001
0000
0010
0100
0000
,
1000
0000
0010
0000
0100
0010
0000
0100
0010
0000
0100
0010
0000
0100
0010
0000
,
1000
0000
0001
0000
0010
0001
0000
0010
0001
0000
0010
0001
0000
0010
0001
0000
,
0100
0000
0010
0000
1000
0010
0000
1000
0010
0000
1000
0010
0000
1000
0010
0000
,
0100
0000
0001
0000
1000
0001
0000
1000
0001
0000
1000
0001
0000
1000
0001
0000
,
0010
0001
0010
0000
0100
1000
0100
0000
0010
0001
0010
0000
0100
1000
0100
0000
,
1000
0001
0100
0000
0010
1000
0010
0000
0100
0001
0100
0000
0010
1000
0010
0000
,
0100
0001
0100
0001
1000
0100
1000
0100
0010
0001
0010
0001
1000
0010
1000
0010
,
0100
0000
0001
0000
0000
0000
0110
0000
0000
0000
1001
0000
0000
0000
1000
0100
,
0010
0001
0010
0001
0010
0100
1000
0001
,
0001
0000
1000
0010
1000
0000
0001
0000
0011
0000
0100
0000
1001
0000
0100
0000
,
1000
0000
0010
0000
1000
0000
1000
0000
0001
0010
0100
0000
1000
0000
0100
0000
,
0010
0000
0001
0100
0001
0000
1000
0000
0010
0000
1000
0000
0200
0000
0000
0000
,
0310
0001
0010
0001
0010
0100
1000
0001
,
0001
0000
1000
0010
1000
0000
0001
0000
0011
0000
0100
0000
1001
0000
0100
0000
,
1000
0000
0010
0000
1000
0000
1000
0000
0001
0010
0100
0000
1000
0000
0100
0000
,
0010
0000
0001
0100
0001
0100
0010
1000
0010
0000
0100
0000
0001
0000
0000
0000
,
1100
0000
1000
0000
1010
0000
1000
0000
0100
0000
0010
0001
0000
0010
0001
0000
,
1000
0000
0010
0000
0001
0000
0010
0000
1000
0000
0100
0010
0100
0000
0000
0000
,
0101
0000
0001
0000
0011
0000
0001
0000
0100
0000
0010
1000
0000
0010
1000
0000
,
0001
0000
0010
0000
1000
0000
0010
0000
0001
0000
0100
0010
0200
0000
0000
0000
,
0301
0000
1000
0010
1000
0000
0100
1000
0100
0000
0010
0001
0000
0010
0001
0000
,
1000
0000
0100
0000
0001
0000
0100
0000
1000
0000
0010
0100
0010
0000
0000
0000
,
1000
0000
0001
0010
0001
0000
0100
0001
0100
0000
0010
1000
0000
0010
1000
0000
,
0001
0000
0010
0000
0100
0000
1000
0000
0010
0100
0010
0100
0010
0000
0000
0000
,
1010
0000
0010
0000
0110
0000
0100
0000
0101
0000
1000
0001
0000
1000
0001
0000
,
0010
0000
0100
0000
1000
0000
0010
0000
0100
0000
0001
1000
0001
0000
0000
0000
,
0011
0000
0010
0000
0110
0000
0100
0000
1100
0000
0001
1000
0000
0001
1000
0000
,
0010
0000
0100
0000
0001
0000
0010
0000
0100
0000
1000
0001
1000
0000
0000
0000
,
0101
0000
0110
0000
1010
0000
1001
0000
1100
0000
0010
0100
0000
0010
0100
0000
,
1000
0000
0100
0000
0001
0000
0100
0000
1000
0000
0001
0100
0001
0000
0000
0000
,
1000
0000
1000
0000
1000
0000
1000
0000
0010
0100
0010
0100
0010
0100
0010
0100
,
0020
1030
0002
0013
,
2100
0000
0000
0000
,
3002
0000
0000
0000
0000
0000
0103
0010
,
0100
0001
0010
0000
,
0100
1000
0010
0000
,
2010
0000
0000
0000
,
3002
0000
0000
0000
0000
0000
0013
0100
,
0010
0001
0100
0000
,
0010
1000
0100
0010
,
0001
0000
1000
0000
0001
0010
0000
0100
0010
0000
0001
0010
0000
0100
0010
0000
,
0001
0000
1000
0000
0001
0100
0000
0010
0100
0000
0001
0100
0000
0010
0100
0000
,
0001
0000
0010
0000
0100
1000
0000
0100
0010
0000
0100
1000
0000
0100
0010
0000
,
0001
0000
0100
0000
0010
1000
0000
0010
0100
0000
0010
1000
0000
0010
0100
0000
,
0001
0100
0001
0000
1000
0010
1000
0000
0001
0100
0001
0000
1000
0010
1000
0000
,
0001
0010
0001
0000
1000
0100
1000
0000
0001
0010
0001
0000
1000
0100
1000
0000
,
0001
0010
0001
0010
0100
1000
0100
1000
0001
0100
0001
0100
0010
1000
0010
1000
,
0001
0000
0010
0000
0000
0000
0110
0000
0000
0000
1001
0000
0000
0000
1000
0100
,
0010
0000
0001
0010
0001
0010
0001
0010
0001
1000
0100
0000
0010
0000
0100
0000
,
0000
0000
1000
0000
0001
0000
0001
0000
1000
0010
0100
0001
1000
0100
1000
0100
,
0010
0000
0100
1000
0001
0100
0010
0100
0001
0000
1000
0000
0100
0000
0010
0000
,
0001
0010
0100
1000
0010
0100
1001
0100
,
0001
0000
1000
0010
1000
0010
1000
0010
1000
0001
0100
0000
0010
0000
0100
0000
,
0000
0000
0001
0000
1000
0000
1000
0000
0001
0010
0100
1000
0001
0100
0001
0100
,
0010
0000
0100
0001
1000
0000
1100
0000
1000
0001
0010
0000
0011
0000
0010
0001
,
1000
0000
0010
0000
0001
0000
0010
0000
1000
0001
1000
0001
1000
0000
0000
0000
,
1001
0000
0000
0100
0010
0000
0110
0000
0000
0000
1000
0000
1001
0000
0000
0000
,
1001
0000
0000
0010
0100
0000
0110
0000
0000
0000
0001
0000
1001
0000
0000
0000
,
1001
0000
0000
0100
0010
0000
0110
0000
0000
0000
1000
0000
1001
0000
0000
0000
,
1001
0000
0000
0010
0100
0000
0110
0000
0000
0000
0001
0000
1001
0000
0000
0000
,
1001
0000
1000
0100
0010
0000
0100
0000
0011
0000
0100
0000
1000
0000
0000
0000
,
1001
0000
0001
0010
0100
0000
0010
0000
1100
0000
0010
0000
0001
0000
0000
0000
,
1000
0010
1000
0010
0100
0001
0100
0001
1000
0100
1000
0100
0010
0001
0010
0001
,
1000
0000
0010
0000
0000
0000
0110
0000
0000
0000
1001
0000
0000
0000
1000
0100
,
0010
0001
0010
0001
0010
0100
1000
0001
,
0001
0000
1000
0010
1000
0000
0001
0000
0011
0000
0100
0000
1001
0000
0100
0000
,
1000
0000
0010
0000
1000
0000
1000
0000
0001
0010
0100
0000
1000
0000
0100
0000
,
0010
0000
0001
0100
0001
0000
1000
0000
0010
0000
1000
0000
0200
0000
0000
0000
,
0310
0001
0010
0001
0010
0100
1000
0001
,
0001
0000
1000
0010
1000
0000
0001
0000
0011
0000
0100
0000
1001
0000
0100
0000
,
1000
0000
0010
0000
1000
0000
1000
0000
0001
0010
0100
0000
1000
0000
0100
0000
,
0010
0000
0001
0100
0001
0100
0010
1000
0010
0000
0100
0000
0001
0000
1000
0100
,
0010
0000
0001
1000
0001
0000
0010
0100
0010
0000
0001
0000
0100
0000
0010
0000
,
1000
0100
1000
0100
0010
0001
0010
0001
1000
0000
0010
0000
0001
0000
0010
0100
,
0010
0000
1000
0000
1000
0000
0100
0010
0100
1000
0001
0000
0010
0000
0100
0000
,
1000
0000
0001
0100
0001
0000
0010
0000
0100
0000
1000
0001
2000
0000
0000
0000
,
3001
0010
0100
1000
0010
0100
0001
1000
,
0001
0000
0010
0100
0010
0000
0001
0000
1001
0000
0000
0000
1001
0000
0010
0100
,
0001
0000
0000
0011
0000
0000
0110
0000
1100
0000
0000
1010
0000
0000
0110
0000
,
0001
0100
0001
0100
0010
1000
0010
1000
0001
0010
0100
1000
0100
0010
0001
0010
,
0100
0000
0000
0000
;

//---------------dance-single - ----------------
#NOTES:
     dance-single:
     :
     Medium:
     12:
     0.646720,0.636169,0.412993,0.095306,0.063537,570.000000,518.000000,52.000000,12.000000,0.000000,0.000000,0.646720,0.636169,0.412993,0.095306,0.063537,570.000000,518.000000,52.000000,12.000000,0.000000,0.000000:
0000
0000
0000
0000
,
0000
0000
0000
0000
,
0000
0000
0000
0000
,
0000
0000
0000
0000
,
0000
0000
0000
0000
,
1000
0000
0001
0000
0000
0010
0000
0000
0100
0000
0000
0010
0000
0000
0001
0000
,
1000
0000
0100
0000
0000
0010
0000
0000
0001
0000
0000
0010
0000
0000
0100
0000
,
1000
0000
0010
0000
0000
0100
0000
0000
0001
0000
0000
0100
0000
0000
0010
0000
,
1000
0000
0001
0000
0000
0010
0000
0000
0100
0000
0000
0010
0000
0000
0001
0000
,
1000
0000
1010
0000
0001
0100
0010
0100
,
0001
0000
0011
0000
1000
0100
0010
0100
,
1000
0000
0110
0000
0001
0010
0100
1000
,
0100
0000
0110
0000
1000
0100
0010
0001
,
1000
0010
0100
0010
1000
0010
0100
0010
,
1000
0001
0010
0001
1000
0001
0010
0001
,
1000
0100
0010
0001
0100
0010
1000
0100
,
0010
0001
0000
1001
0000
1001
0000
0001
,
1000
0010
1000
0010
1000
0100
0010
0001
,
0000
0100
0010
0010
1000
0010
0100
0001
,
1000
0100
1000
0100
0001
0100
0001
0100
,
0010
0001
1000
0001
0100
0000
0110
0000
,
0001
0010
0001
0010
0001
0100
0010
1000
,
0000
0100
0010
0010
0001
0010
0100
1000
,
0001
0100
0001
0100
1000
0100
1000
0100
,
0001
1000
0001
1000
0100
0010
0001
0000
,
1010
0000
0000
0000
0101
0000
0000
0000
1010
0000
0000
1000
0000
0000
0001
0000
,
0010
0100
1000
0100
0010
0001
1000
0000
,
0011
0000
0000
0000
1100
0000
0000
0000
0011
0000
0000
0001
0000
0000
1000
0000
,
0010
0100
0001
0100
0010
1000
0100
0000
,
0110
0000
0000
0000
1001
0000
0000
0000
0110
0000
0000
0100
0000
0000
1000
0000
,
0001
0010
0100
0010
0001
1000
0010
0000
,
0110
0000
1001
0000
0110
0010
1000
0010
,
0100
0001
1000
0001
0010
0100
2000
0000
,
3001
0000
0010
0000
0001
0000
0100
0000
0001
0000
0000
1010
0000
0000
0101
0000
,
0001
1000
0100
1000
0001
0000
0110
0000
,
1000
0000
0100
0000
1000
0000
0010
0000
1000
0000
0000
0011
0000
0000
1100
0000
,
1000
0001
0100
0001
1000
0000
0110
0000
,
0001
0000
0100
0000
1000
0000
0100
0000
0001
0000
0000
0001
0000
0000
0001
0000
,
1000
0110
1001
0110
,
1000
0010
1000
0010
0100
0001
0010
0100
,
2000
0100
0002
3003
,
0021
0000
0000
0000
,
0230
0000
0000
0000
,
2300
0000
0001
0000
,
3020
0000
0130
0000
,
1020
0000
0000
0000
,
0230
0000
0000
0000
,
0302
0000
1000
0000
,
0023
0000
0130
1000
,
1001
0000
1001
0000
0001
0100
0001
0000
,
0101
0000
0101
0000
0001
1000
0001
0000
,
1001
0000
1001
0000
1000
0100
1000
0000
,
1100
0000
1100
0000
1000
0001
1000
0000
,
0001
0010
0100
1000
0001
0100
0001
0000
,
1000
0010
0100
0001
1000
0100
1000
0000
,
0101
0001
1000
0000
1100
1000
0001
0000
,
0100
0010
0000
1001
0000
1001
0000
0010
,
0001
0100
0001
0100
0001
0010
0100
0010
,
0000
0001
1000
0001
0100
1000
0100
0001
,
1000
0100
1000
0100
0010
0001
0010
0001
,
1000
0100
0010
0100
2000
0000
3010
0000
,
0101
0001
1000
0100
1000
0010
0100
0010
,
0000
1000
0001
0001
0010
0100
1000
0001
,
1000
0000
0000
0110
0000
0000
0001
1000
,
0000
0110
0000
0010
1000
0100
0010
0000
,
0001
0100
0001
0010
0001
1000
0001
0000
,
1000
0100
1000
0010
1000
0001
1000
0000
,
0001
0100
1000
0100
0010
0100
0001
0000
,
1000
0010
0001
0010
0100
0010
1000
0000
,
0001
0100
0010
1000
0001
0010
1000
0000
,
0001
0100
0010
1000
0001
0100
1000
0000
,
0001
0100
1000
0100
0001
1000
0100
0010
,
0001
1000
0000
0110
0000
0110
0000
1000
,
0001
0010
0001
0010
0001
0100
0010
1000
,
0000
0100
0010
0010
0001
0010
0100
1000
,
0001
0100
0001
0100
1000
0100
1000
0100
,
0010
1000
0001
1000
0100
0000
0110
0000
,
1000
0010
1000
0010
1000
0100
0010
0001
,
0000
0100
0010
0010
1000
0010
0100
0001
,
1000
0100
1000
0100
0001
0100
0001
0100
,
1000
0001
1000
0001
0100
0010
1000
0000
,
0001
0010
0001
0100
0001
0010
0100
0010
,
1000
0001
0100
1000
0010
0001
1000
0100
,
0001
0010
0001
0001
1000
0010
1000
1000
,
0100
0010
0100
1000
0010
0100
0001
0000
,
1001
0001
0010
0100
1000
0100
0010
0000
,
1001
1000
0100
0010
0001
0010
0100
0000
,
1000
0000
0000
1010
0000
0000
1000
0000
0001
0000
0000
0011
0000
0000
0001
0000
,
1000
0100
0010
0001
0010
0100
1000
0001
,
0100
0000
0000
0000
;

//---------------dance-single - ----------------
#NOTES:
     dance-single:
     :
     Easy:
     8:
     0.436820,0.565483,0.460646,0.039711,0.000000,385.000000,327.000000,58.000000,5.000000,0.000000,0.000000,0.436820,0.565483,0.460646,0.039711,0.000000,385.000000,327.000000,58.000000,5.000000,0.000000,0.000000:
0000
0000
0000
0000
,
0000
0000
0000
0000
,
0000
0000
0000
0000
,
0000
0000
0000
0000
,
0000
0000
0000
0000
,
1000
0100
1000
1000
,
0001
0100
0001
0001
,
1000
0010
1000
1000
,
0001
0010
0001
0001
,
1000
0010
1000
0000
0100
0000
0100
0000
,
1000
0010
1000
0000
0100
0000
0010
0000
,
0001
0100
0001
0000
0010
0000
0010
0000
,
0001
0100
0001
0000
0010
0000
0100
0000
,
1000
0001
1000
0000
0010
0000
1010
0000
,
0001
1000
0001
0000
0010
0000
0011
0000
,
1000
0100
1000
0000
0001
0100
0001
0000
,
1001
0000
0000
0000
,
0010
0000
1000
0000
0001
0010
0100
1000
,
0000
0001
0011
0011
,
1000
0010
1000
0000
0001
0010
0001
0000
,
1010
0101
1001
0000
,
1000
0000
0010
0000
1000
0100
0010
0001
,
0000
1000
1010
1010
,
0001
0010
0001
0000
1000
0010
1000
0000
,
0100
0010
0110
0000
,
1000
0001
1000
1000
,
0011
0110
1100
0000
,
0001
1000
0001
0001
,
1010
0110
0101
0000
,
1000
0100
1000
0000
0001
0100
0001
0000
,
0010
0100
0110
0000
,
0100
1000
0100
0000
0010
0001
0010
0000
,
0100
0000
0100
0000
,
1000
0000
0001
0000
1000
0100
1000
0000
,
0010
0100
0101
0000
,
0001
0000
1000
0000
0001
0100
0001
0000
,
0010
0100
1100
0000
,
1000
0100
1000
0100
1000
0000
0001
0000
,
1010
0110
0101
0000
,
0001
0100
0001
0000
1000
0100
1000
0000
,
0001
0000
0001
0000
,
2000
0000
0000
0000
,
3020
0000
0000
0130
,
0000
0000
0000
0000
,
0000
0000
0000
0100
,
0002
0000
0000
0000
,
0023
0000
0000
0130
,
0000
0000
0000
0000
,
0000
0000
0000
0100
,
1100
0000
1001
0000
,
0101
0000
1001
0000
,
1010
0000
0011
0000
,
1010
0000
0011
0000
,
0010
0000
0100
0000
1000
0001
1000
0000
,
0010
0000
0100
0000
0001
1000
0001
0000
,
1000
0100
1000
0000
0001
0100
0001
0000
,
1001
0000
0000
0000
,
1000
0000
0010
0000
1001
0000
0010
0001
,
0000
1000
1010
0101
,
1000
1000
0001
0001
,
0010
0100
0010
0000
0001
1000
0001
0000
,
0001
0000
0010
0000
1001
0000
0010
1000
,
0000
0001
0011
1100
,
0001
0000
0000
0100
0000
0000
0010
1000
,
0000
1000
0010
0000
0100
0000
0101
0000
,
1000
0100
1000
1000
,
0001
0100
0001
0001
,
1000
0000
0010
0000
1000
0001
1000
0000
,
0001
0000
0010
0000
0001
1000
0001
0000
,
0011
0000
0100
1000
,
1001
0000
0100
0001
,
1001
0000
0000
0110
0000
0000
1001
0000
,
0010
0001
0000
0100
0000
0100
0000
0000
,
0010
0000
1000
0000
0001
0010
0100
1000
,
0000
0001
0011
0011
,
1000
0010
1000
0000
0001
0010
0001
0000
,
1010
0101
1001
0000
,
1000
0000
0010
0000
1000
0100
0010
0001
,
0000
1000
1010
1010
,
0001
0010
0001
0000
1000
0010
1000
0000
,
0100
0010
0110
0000
,
0100
1000
0100
0000
0010
0001
0010
0000
,
0002
1003
1010
0101
,
1000
0100
1000
0000
0100
0010
0100
0000
,
1000
0001
0110
0110
,
1000
0000
0001
0000
0100
0001
0100
0000
,
0001
0000
1000
0000
0100
1000
0100
0000
,
0011
0000
0011
0000
,
1000
0100
1000
0000
0001
0010
0100
1000
,
0001
0000
0000
0000
;

//---------------dance-single - ----------------
#NOTES:
     dance-single:
     :
     Beginner:
     5:
     0.245073,0.318084,0.182670,0.031769,0.000000,216.000000,193.000000,23.000000,4.000000,0.000000,0.000000,0.245073,0.318084,0.182670,0.031769,0.000000,216.000000,193.000000,23.000000,4.000000,0.000000,0.000000:
// measure 0
0000
0000
0000
0000
,  // measure 1
0000
0000
0000
0000
,  // measure 2
0000
0000
0000
0000
,  // measure 3
0000
0000
0000
0000
,  // measure 4
0000
0000
0000
0000
,  // measure 5
2000
0000
0000
0000
,  // measure 6
3200
0000
0000
0000
,  // measure 7
0320
0000
0000
0000
,  // measure 8
0032
0000
0000
0000
,  // measure 9
1003
0100
1000
0000
,  // measure 10
0001
0010
0001
0000
,  // measure 11
1000
0010
1000
0000
,  // measure 12
0001
0100
0001
0000
,  // measure 13
1000
0000
1100
0000
,  // measure 14
0001
0000
0101
0000
,  // measure 15
1000
0010
0100
0001
,  // measure 16
1000
0000
0000
0000
,  // measure 17
0010
0010
0010
0000
,  // measure 18
0100
0100
0100
0000
,  // measure 19
0001
0000
1000
0000
,  // measure 20
1001
0000
1001
0000
,  // measure 21
0010
0010
0010
0000
,  // measure 22
0100
0100
0100
0000
,  // measure 23
0001
0000
1000
0000
,  // measure 24
1001
0000
1001
0000
,  // measure 25
1000
0100
1000
1000
,  // measure 26
0100
0100
0100
0000
,  // measure 27
0010
0001
0010
0010
,  // measure 28
0001
0001
0001
0000
,  // measure 29
1000
0010
1000
1000
,  // measure 30
0010
0010
0010
0000
,  // measure 31
0100
0001
0100
0000
,  // measure 32
0001
1000
0001
0000
,  // measure 33
1010
0000
1010
0000
,  // measure 34
0010
1000
0010
0000
,  // measure 35
0011
0000
0011
0000
,  // measure 36
0001
0010
0001
0000
,  // measure 37
0100
0100
0100
0000
,  // measure 38
0100
0100
0100
0000
,  // measure 39
0010
0000
1000
0000
,  // measure 40
1001
0000
0000
0000
,  // measure 41
0010
0000
0000
0000
,  // measure 42
0100
0000
0000
0000
,  // measure 43
1000
0000
0000
0000
,  // measure 44
0100
0000
0000
0000
,  // measure 45
0010
0000
0000
0000
,  // measure 46
0001
0000
0000
0000
,  // measure 47
1000
0000
0000
0000
,  // measure 48
0001
0000
0000
0000
,  // measure 49
0100
0000
0100
0000
,  // measure 50
0010
0000
0010
0000
,  // measure 51
1000
0000
1000
0000
,  // measure 52
0001
0000
0001
0000
,  // measure 53
1000
0100
1000
0000
,  // measure 54
0001
0100
0001
0000
,  // measure 55
0010
0000
0010
0000
,  // measure 56
1001
0000
0000
0000
,  // measure 57
1000
0100
0010
0000
,  // measure 58
0001
1000
0001
0000
,  // measure 59
1000
0000
1100
0000
,  // measure 60
1000
0000
1010
0000
,  // measure 61
0001
0100
0010
0000
,  // measure 62
1000
0001
1000
0000
,  // measure 63
0001
0000
0000
0010
0000
0000
0100
0000
,  // measure 64
0000
1000
0000
0000
0001
0000
0000
0000
,  // measure 65
1000
0000
0000
0000
,  // measure 66
0010
0000
0000
0000
,  // measure 67
0100
0000
0000
0000
,  // measure 68
0001
0000
0000
0000
,  // measure 69
0010
0000
0010
0000
,  // measure 70
0100
0000
0100
0000
,  // measure 71
1000
0001
1000
0001
,  // measure 72
0100
0000
0000
0000
,  // measure 73
0010
0010
0010
0000
,  // measure 74
0100
0100
0100
0000
,  // measure 75
0001
0000
1000
0000
,  // measure 76
1001
0000
1001
0000
,  // measure 77
0010
0010
0010
0000
,  // measure 78
0100
0100
0100
0000
,  // measure 79
0001
0000
1000
0000
,  // measure 80
1001
0000
1001
0000
,  // measure 81
1000
0100
1000
0100
,  // measure 82
0010
0000
0011
0000
,  // measure 83
0001
0100
0001
0100
,  // measure 84
0010
0000
1010
0000
,  // measure 85
1000
0100
1000
0000
,  // measure 86
0001
0100
0001
0000
,  // measure 87
1000
0000
0001
0000
,  // measure 88
1001
0000
0110
0000
,  // measure 89
1001
0000
0000
0000
;
