#VERSION:0.83;
#TITLE:Virtual;
#SUBTITLE:;
#ARTIST:Moe Shop, Puniden;
#TITLETRANSLIT:;
#SUBTITLETRANSLIT:;
#ARTISTTRANSLIT:;
#GENRE:;
#ORIGIN:;
#CREDIT:;
#BANNER:Virtual.png;
#BACKGROUND:Virtual-bg.png;
#PREVIEWVID:;
#JACKET:Virtual-jacket.png;
#CDIMAGE:;
#DISCIMAGE:;
#LYRICSPATH:;
#CDTITLE:;
#MUSIC:Virtual.ogg;
#OFFSET:-0.640999;
#SAMPLESTART:18.091999;
#SAMPLELENGTH:17.479994;
#SELECTABLE:YES;
#BPMS:0.000=110.000;
#STOPS:;
#DELAYS:;
#WARPS:;
#TIMESIGNATURES:0.000=4=4;
#TICKCOUNTS:0.000=4;
#COMBOS:0.000=1;
#SPEEDS:0.000=1.000=0.000=0;
#SCROLLS:0.000=1.000;
#FAKES:;
#LABELS:0.000=Song Start;
#BGCHANGES:;
#KEYSOUNDS:;
#ATTACKS:
;

//---------------dance-single - ----------------
#NOTEDATA:;
#CHARTNAME:;
#STEPSTYPE:dance-single;
#DESCRIPTION:;
#CHARTSTYLE:;
#DIFFICULTY:Hard;
#METER:12;
#RADARVALUES:0.399185,0.407285,0.075522,0.217125,0.146323,296.000000,288.000000,8.000000,23.000000,0.000000,0.000000,0.000000,0.000000,0.000000,0.399185,0.407285,0.075522,0.217125,0.146323,296.000000,288.000000,8.000000,23.000000,0.000000,0.000000,0.000000,0.000000,0.000000;
#CREDIT:;
#NOTES:
0000
0000
0000
0000
,
0000
0000
0000
0000
,
0000
0000
0000
0000
,
0000
0000
0000
0000
,
2000
0100
0000
3100
,
0020
0031
0200
0310
,
2000
0001
0000
3001
,
0000
0001
0000
0001
,
1000
0100
1000
0000
0001
0000
0100
0000
0010
0000
0000
0000
1000
0000
0000
0001
,
0010
0100
1000
0000
0001
0000
0101
0000
,
0001
0100
0001
0000
1000
0000
0100
0000
0010
0000
0000
0000
0001
0000
0000
1000
,
0010
0100
0001
0100
0010
1000
0001
0000
,
1000
0000
0100
0000
1000
0000
0000
0000
0001
0010
0001
0010
0001
0000
0000
0100
,
0000
0001
1000
0100
0020
0000
0031
0000
,
1000
0100
0001
0100
1000
0010
1000
0002
,
0000
0000
0103
0000
0010
0000
0100
0000
0002
0000
0000
0023
0000
0000
0130
0000
,
1000
0100
1000
0000
0001
0000
0100
0000
0010
0000
0100
0000
0001
0000
0010
0000
,
0100
1000
0010
1000
0000
0001
0101
0000
,
0001
0100
0001
0000
1000
0000
0100
0000
0010
0000
0100
0000
2000
0000
0000
3010
,
0000
0100
0001
0100
0010
0000
1010
0000
,
0001
0010
0001
0000
0000
0000
1000
0000
0001
0000
0100
0000
1000
0000
0100
0000
,
0001
0020
0000
0130
0000
1000
0010
1000
,
0001
0100
0001
0100
0010
1000
0100
0001
,
0000
0000
0100
0000
1000
0000
0100
0000
0020
0000
0000
0032
0000
0000
1003
0000
,
1010
0110
0101
1001
,
0001
0000
0100
0000
1000
0000
0100
0000
0002
0000
0000
0013
0000
0000
0000
0000
,
0100
1000
0010
1000
0100
0010
0001
0001
,
1000
0010
0001
0010
1000
0100
1000
1000
,
0100
0010
0200
0000
1300
0010
1000
0001
,
1000
0000
0100
0000
0010
0000
0001
0000
0100
0000
0001
1000
0001
0000
0000
0000
,
0100
0000
0010
0000
1000
0000
0010
0000
0100
0001
0100
0000
0000
0000
0000
0000
,
0001
1000
0100
1000
0010
0100
1000
0100
,
0000
0001
1000
0001
0010
0100
2100
0000
,
3001
0000
0100
0000
0010
0000
0100
0001
0000
1000
0000
0001
0000
0000
0000
0000
,
1000
0000
0100
0000
0010
0000
0100
0000
1000
0000
1000
0010
0000
0000
0000
0000
,
0100
0001
0100
0000
0010
0000
1000
0000
0001
0000
0010
0001
0000
0000
0000
0000
,
1000
0000
0001
0100
0001
0000
1000
0000
0010
0000
1000
0000
0200
0000
0000
0000
,
2300
0000
0000
3010
0000
0000
0000
0000
0100
0001
0100
0001
0000
0000
1000
0000
,
0002
0000
0000
0013
0000
0000
0000
0000
0010
0000
0001
1000
0001
0000
0100
0000
,
0001
0000
0010
0000
1000
0000
0010
0000
0001
0000
0000
0100
0000
0000
0000
0000
,
0010
1000
0001
1000
0100
0010
0001
0001
,
1000
0100
0010
0100
2000
0000
3010
0200
,
0001
0000
0000
0000
0310
0000
1000
0001
,
1000
0100
0010
0100
2000
0000
3001
0020
,
0100
0000
0130
1000
0001
1000
0001
0000
,
0100
0000
0010
0000
0100
0000
0000
0000
0001
0000
1000
0000
0010
0000
0000
0100
,
0000
0000
0000
0001
0020
0000
0130
0000
,
1000
0000
0100
0000
0001
0000
0100
0000
1000
0000
0001
0000
0010
0000
0100
0100
;

//---------------dance-single - ----------------
#NOTEDATA:;
#CHARTNAME:;
#STEPSTYPE:dance-single;
#DESCRIPTION:;
#CHARTSTYLE:;
#DIFFICULTY:Challenge;
#METER:13;
#RADARVALUES:0.465267,0.561544,0.103842,0.132163,0.538091,345.000000,334.000000,11.000000,14.000000,0.000000,0.000000,0.000000,0.000000,0.000000,0.465267,0.561544,0.103842,0.132163,0.538091,345.000000,334.000000,11.000000,14.000000,0.000000,0.000000,0.000000,0.000000,0.000000;
#CREDIT:;
#OFFSET:-0.662999;
#BPMS:0.000000=110.000000
;
#STOPS:96.000000=0.272728
,96.500000=0.272728
,97.000000=0.272728
,97.500000=0.272728
,100.000000=0.272724
,100.250000=0.272728
,100.500000=0.409092
,103.750000=0.409092
,107.000000=0.272728
,110.000000=0.272728
,112.500000=0.272720
,112.750000=0.272728
,113.000000=0.409096
,116.250000=0.409088
,119.500000=0.272728
,122.500000=0.272728
,125.000000=0.272720
,125.250000=0.272728
,125.500000=0.409096
,128.750000=0.409088
,132.000000=0.272728
,135.000000=0.272728
,137.500000=0.272720
,137.750000=0.272728
,138.000000=0.409096
,141.250000=0.409088
,144.500000=0.272728
;
#DELAYS:;
#WARPS:;
#TIMESIGNATURES:0.000000=4=4
;
#TICKCOUNTS:0.000000=4
;
#COMBOS:0.000000=1
;
#SPEEDS:0.000000=1.000000=0.000000=0
;
#SCROLLS:0.000000=1.000000
;
#FAKES:;
#LABELS:0.000000=Song Start
;
#NOTES:
0000
0000
0000
0000
,
0000
0000
0000
0000
,
0000
0000
0000
0000
,
0000
0000
0000
0000
,
1000
0100
0010
0001
0000
0000
0000
0000
0000
0000
0000
0000
0000
0000
0000
0000
,
0001
0100
0010
1000
0000
0000
0000
0000
0100
0010
0001
1000
0000
0000
0000
0000
,
1000
0100
0010
0001
0000
0000
0000
0000
0000
0000
0000
0000
0100
0000
0000
0000
,
0000
0000
0000
0000
0100
0000
0000
0000
0000
0000
0000
0000
0100
0000
0000
0001
,
1000
0010
1000
0000
0100
0000
0010
0000
0002
0000
0000
0000
0103
0000
0010
1000
,
0000
1000
0010
0000
0100
0000
0001
0010
0000
0000
0001
0000
1001
0000
0000
0001
,
1000
0010
1000
0000
0010
0000
0100
0000
0020
0000
0000
0000
1030
0000
0000
0100
,
0000
0100
0010
0000
0001
0000
0001
0100
0000
0000
0010
0000
1000
0000
0010
1000
,
0001
0100
0001
0000
0010
0000
0100
0000
1000
0000
0100
0000
0010
0000
0001
0100
,
0000
0100
0001
0000
1000
0000
0010
0100
0000
0000
0001
0000
1000
0000
0001
0000
,
0010
0100
0010
0000
0001
0000
1000
0000
0001
0000
0100
0000
0010
0000
1000
0100
,
0000
0100
1000
0000
0002
0000
0003
0000
0101
0000
0000
0110
0000
0000
1001
0000
,
1000
0010
1000
0000
0100
0000
0010
0000
0002
0000
0000
0000
0103
0000
0010
1000
,
0000
1000
0010
0000
0100
0000
0001
0010
0000
0000
0001
0000
1001
0000
0000
0001
,
1000
0010
1000
0000
0010
0000
0100
0000
0001
0000
0010
0000
0001
0000
1000
0100
,
0000
0100
0010
0000
0001
0000
0001
0100
0000
0000
0010
0000
1000
0000
0010
1000
,
0001
0100
0001
0000
0010
0000
0100
0000
1000
0000
0100
0000
0010
0000
0001
0100
,
0000
0100
0001
0000
1000
0000
0010
0100
0000
0000
0001
0000
1000
0000
0001
0000
,
0010
0100
0010
0000
0001
0000
1000
0000
0001
0000
0100
0000
0010
0000
1000
0001
,
0000
0001
1000
0000
0020
0000
0030
0000
0101
0000
0000
0110
0000
0000
1001
0000
,
0002
0000
0023
0000
0230
0000
2300
0000
3001
0000
0010
0100
0000
0010
0001
1000
,
0001
0001
0001
0100
0000
0010
1000
0000
1000
0010
0000
0100
0001
1000
0001
0010
,
0100
0000
0010
0001
0010
0001
1000
0000
0010
0100
0000
0100
0001
0000
0001
0000
,
1000
0010
0000
0010
1000
0000
0100
0000
1001
0000
0001
0000
0010
0100
0000
0010
,
0001
1000
0001
0001
0001
0100
0000
0010
1000
0000
1000
0010
0000
0100
0001
1000
,
0001
0010
0100
0000
0010
0001
0010
0001
1000
0000
0010
0100
0000
0100
0001
0000
,
0001
0000
1000
0010
0000
0010
1000
0000
0100
0000
1001
0000
0001
0000
0010
0100
,
0000
0010
0001
1000
0001
0001
0001
0100
0000
0010
1000
0000
1000
0010
0000
0100
,
0001
1000
0001
0010
0100
0000
0010
0001
0010
0001
1000
0000
0010
0100
0000
0100
,
0001
0000
0001
0000
1000
0010
0000
0010
1000
0000
0100
0000
1001
0000
0001
0000
,
0010
0100
0000
0010
0001
1000
0001
0001
0001
0100
0000
0010
1000
0000
1000
0010
,
0000
0100
0001
1000
0001
0010
0100
0000
0010
0001
0010
0001
1000
0000
0010
0100
,
0000
0000
0100
0000
0100
0000
0010
1000
0010
1000
0100
0000
0010
0000
0001
0000
,
0010
0100
2000
0000
0000
0000
0000
0000
0000
0000
0000
0000
0000
0000
0000
0000
,
0000
3002
0000
0000
0000
0000
0000
0000
,
0203
0000
0000
0000
,
0000
0320
0000
0000
0000
0000
0000
0000
,
0000
0000
1030
0000
0001
0000
1000
0000
0000
0000
0001
0100
1000
0100
0001
0010
,
0000
0001
0000
0000
0000
0000
0000
0000
1000
0000
0200
0000
0000
0000
0310
0000
,
0000
0001
0100
1000
0100
0001
0010
0100
,
1000
1000
0000
0000
0000
0000
0000
0000
0000
0000
0000
0000
0000
0000
0000
0000
;

//---------------dance-single - ----------------
#NOTEDATA:;
#CHARTNAME:;
#STEPSTYPE:dance-single;
#DESCRIPTION:;
#CHARTSTYLE:;
#DIFFICULTY:Medium;
#METER:8;
#RADARVALUES:0.298040,0.316365,0.066081,0.132163,0.160483,221.000000,214.000000,7.000000,14.000000,0.000000,0.000000,0.000000,0.000000,0.000000,0.298040,0.316365,0.066081,0.132163,0.160483,221.000000,214.000000,7.000000,14.000000,0.000000,0.000000,0.000000,0.000000,0.000000;
#CREDIT:;
#NOTES:
1000
0000
0000
0000
,
0000
0000
0000
0000
,
0000
0000
0000
0000
,
0000
0000
0000
0000
,
2000
0001
0000
0001
,
3200
0010
2300
0001
,
3020
0100
0000
0130
,
0000
0100
0000
0100
,
0001
0100
0001
1000
0010
0000
0100
0000
,
0001
1000
1100
0101
,
1000
0100
1000
0001
0010
0000
0001
1000
,
0000
0010
1010
0011
,
0001
0000
0100
0000
0001
0000
0000
0000
1000
0000
0000
0000
0010
0000
0000
0100
,
0000
0000
0001
0100
0001
0000
0010
0000
,
0100
1000
0100
0000
0010
0001
0010
0000
,
0100
0000
0000
0000
1000
0000
0000
0000
0010
0000
0000
0100
0000
0000
0001
0000
,
1000
0100
1000
0000
0010
0000
0100
0000
,
0001
0010
0001
0010
0000
0001
1000
0000
,
0001
0000
0100
0000
0001
0000
0000
0000
0010
0000
0000
0000
0100
0000
0000
1000
,
0000
0000
0000
1000
0010
0000
0010
0000
,
1000
0001
1000
0000
0100
0000
0010
0000
,
0001
0010
0000
0001
0000
1000
0010
0000
,
0100
0001
0100
0000
0010
1000
0010
1000
,
0000
0000
0000
0000
0100
0000
0000
0000
0010
0000
0000
0001
0000
0000
1000
0000
,
0002
0203
0320
2030
,
3001
0000
0010
0000
0000
0100
0000
0000
1000
0000
0000
0010
0000
0000
0100
0000
,
0000
0000
0100
0000
0000
0001
0000
0000
1000
0000
0000
0100
0000
0000
0010
0000
,
0000
0000
0010
0000
0000
0001
0000
0000
1000
0000
0000
0010
0000
0000
0100
0000
,
0000
0000
0100
0000
0000
0001
0000
0000
1000
0000
0000
0000
0102
0000
0000
0000
,
1003
0000
0010
0000
0000
0100
0000
0000
0001
0000
0000
0100
0000
0000
0010
0000
,
0000
0000
0010
0000
0000
1000
0000
0000
0100
0000
0000
0010
0000
0000
0001
0000
,
0000
0000
0001
0000
0000
0010
0000
0000
0100
0000
0000
0010
0000
0000
0001
0000
,
0000
0000
0001
0000
0000
0100
0000
0000
0010
0000
0000
0000
1001
0000
0000
0000
,
0001
0000
0010
0000
0000
0100
0000
0000
1000
0000
0000
0010
0000
0000
0100
0000
,
0000
0000
0100
0000
0000
0001
0000
0000
1000
0000
0000
0100
0000
0000
0010
0000
,
0000
0000
0010
0000
0000
0001
0000
0000
1000
0000
0000
0010
0000
0000
0100
0000
,
0000
0000
0100
0000
0000
0001
0000
0000
1000
0000
0000
0000
0102
0000
0000
0000
,
1003
0000
0010
0000
0000
0100
0000
0000
0001
0000
0000
0100
0000
0000
0010
0000
,
0000
0000
0010
0000
0000
1000
0000
0000
0100
0000
0000
0010
0000
0000
0001
0000
,
0000
0000
0001
0000
0000
0010
0000
0000
0100
0000
0000
0010
0000
0000
0001
0000
,
0000
0000
0001
0000
0000
0100
0000
0000
0010
0000
0000
1000
0000
0000
0001
0000
,
1000
0000
0100
0000
0010
0001
0010
0200
,
0000
0000
0010
1300
,
0001
0100
0001
0000
2000
0000
3010
0200
,
0000
0000
0000
0301
1000
0001
1000
0000
,
0100
0000
0010
0000
0100
0000
0000
0000
1000
0000
0000
0000
0001
0000
0000
0100
,
0000
0000
0000
0100
0020
0000
1030
0000
,
0001
0010
0001
0000
1000
0100
1000
0001
;

//---------------dance-single - ----------------
#NOTEDATA:;
#CHARTNAME:;
#STEPSTYPE:dance-single;
#DESCRIPTION:;
#CHARTSTYLE:;
#DIFFICULTY:Easy;
#METER:5;
#RADARVALUES:0.198244,0.225385,0.018880,0.122723,0.000000,147.000000,145.000000,2.000000,13.000000,0.000000,0.000000,0.000000,0.000000,0.000000,0.198244,0.225385,0.018880,0.122723,0.000000,147.000000,145.000000,2.000000,13.000000,0.000000,0.000000,0.000000,0.000000,0.000000;
#CREDIT:;
#NOTES:
// measure 0
0000
0000
0000
0000
,  // measure 1
0000
0000
0000
0000
,  // measure 2
0000
0000
0000
0000
,  // measure 3
0000
0000
0000
0000
,  // measure 4
2000
3010
0000
0010
,  // measure 5
0200
0301
0020
0130
,  // measure 6
2000
3100
0000
0010
,  // measure 7
0000
0001
0000
1000
,  // measure 8
0001
0100
1000
0100
,  // measure 9
0001
0000
0010
0010
,  // measure 10
0100
1000
0010
1000
,  // measure 11
0100
0000
0010
0001
,  // measure 12
1000
0010
1000
0000
,  // measure 13
0100
0000
0010
0001
,  // measure 14
1000
1000
0010
1000
,  // measure 15
0000
0000
0100
0010
,  // measure 16
0001
0100
1000
0100
,  // measure 17
0001
0000
0010
0000
,  // measure 18
0100
1000
0010
1000
,  // measure 19
0100
0000
0010
0010
,  // measure 20
0001
0000
1000
0000
,  // measure 21
0010
1000
0010
0000
,  // measure 22
0100
0001
0010
0100
,  // measure 23
1000
0000
0010
0010
,  // measure 24
0200
0302
0023
0230
,  // measure 25
1300
0100
0010
0100
,  // measure 26
0001
0100
0010
0100
,  // measure 27
1000
0010
0100
0010
,  // measure 28
0001
0010
0100
0101
,  // measure 29
1000
0100
1000
0010
,  // measure 30
1000
0100
1000
0000
,  // measure 31
0001
0010
0001
0100
,  // measure 32
0001
0010
0001
0101
,  // measure 33
0010
1000
0010
0000
,  // measure 34
0100
0001
0010
0100
,  // measure 35
1000
0010
1000
0000
,  // measure 36
0001
0010
0100
1000
,  // measure 37
0001
0001
0100
0000
,  // measure 38
1000
1000
0100
0000
,  // measure 39
0001
1000
0010
1000
,  // measure 40
0100
0010
0001
0010
,  // measure 41
0200
0000
0000
0000
,  // measure 42
2300
0000
3010
0010
,  // measure 43
0200
0000
0000
0000
,  // measure 44
0302
0000
0013
0010
,  // measure 45
0001
1000
0001
0100
,  // measure 46
0020
0000
1030
1000
,  // measure 47
0001
0010
0100
0010
;

//---------------dance-single - ----------------
#NOTEDATA:;
#CHARTNAME:;
#STEPSTYPE:dance-single;
#DESCRIPTION:;
#CHARTSTYLE:;
#DIFFICULTY:Beginner;
#METER:1;
#RADARVALUES:0.124071,0.156943,0.000000,0.000000,0.000000,92.000000,92.000000,0.000000,0.000000,0.000000,0.000000,0.000000,0.000000,0.000000,0.124071,0.156943,0.000000,0.000000,0.000000,92.000000,92.000000,0.000000,0.000000,0.000000,0.000000,0.000000,0.000000,0.000000;
#CREDIT:;
#NOTES:
0000
0000
0000
0000
,
0000
0000
0000
0000
,
0000
0000
0000
0000
,
0000
0000
0000
0000
,
1000
0000
0000
0000
,
0010
0000
0100
0000
,
0001
0000
0000
0000
,
0000
0000
0000
0000
,
0010
0010
0010
0000
,
0001
0000
0001
0000
,
1000
1000
1000
0000
,
0001
0000
0001
0000
,
0100
0000
0010
0000
,
0100
0000
0001
0001
,
0010
0000
0100
0000
,
1000
0000
0010
0010
,
1000
0000
1000
0000
,
0100
0100
0100
0000
,
1000
0000
1000
0000
,
0001
0000
0001
0000
,
0100
0000
0100
0000
,
0010
0010
0010
0000
,
1000
0000
0001
0000
,
1000
0000
0100
0100
,
0010
0000
0010
0000
,
0001
0000
0001
0000
,
0100
0000
0100
0000
,
0001
0000
0001
0000
,
1000
0000
0000
0001
,
1000
0000
1000
0000
,
0100
0000
0100
0000
,
1000
0000
1000
0000
,
0001
0000
0000
1000
,
0010
0010
0010
0000
,
0100
0000
0100
0000
,
0001
0001
0001
0000
,
0100
0000
0100
0000
,
0010
0010
0000
0000
,
1000
1000
0000
0000
,
0100
0000
0010
0000
,
0001
0000
1000
0000
,
0001
0000
0000
0000
,
0000
0000
0100
0100
,
0010
0000
0000
0000
,
0000
0000
1000
1000
,
0001
0000
0010
0000
,
0100
0000
0010
0000
,
0001
0001
0001
0000
;
