#TITLE:The Second Summer;
#SUBTITLE:;
#ARTIST:rira;
#TITLETRANSLIT:;
#SUBTITLETRANSLIT:;
#ARTISTTRANSLIT:;
#GENRE:TROP;
#CREDIT:;
#BANNER:The Second Summer.png;
#BACKGROUND:The Second Summer-bg.png;
#LYRICSPATH:;
#CDTITLE:;
#MUSIC:The Second Summer.ogg;
#OFFSET:-0.126000;
#SAMPLESTART:28.252193;
#SAMPLELENGTH:14.999982;
#SELECTABLE:YES;
#BPMS:0.000000=128.000214
;
#STOPS:
;
#BGCHANGES:;
#KEYSOUNDS:;
#ATTACKS:;

//---------------dance-single - ----------------
#NOTES:
     dance-single:
     sessu:
     Hard:
     18:
     0.835026,0.987929,0.194321,0.209867,1.263088,752.000000,727.000000,25.000000,27.000000,0.000000,0.000000,0.835026,0.987929,0.194321,0.209867,1.263088,752.000000,727.000000,25.000000,27.000000,0.000000,0.000000:
// measure 0
0000
0000
0000
0000
,  // measure 1
0000
0000
0000
0000
,  // measure 2
1000
0000
0001
0000
0100
0010
0000
1000
0010
0000
0001
0010
0000
0100
0010
0000
,  // measure 3
1000
0000
0001
0000
0010
0100
0000
1000
0100
0000
0001
0100
0000
0010
0100
0000
,  // measure 4
1000
0000
0001
0000
0100
0010
0000
1000
0010
0000
0001
0010
0000
0100
0010
0000
,  // measure 5
1000
0000
0001
0000
0010
0100
0000
1000
0100
0000
0001
0100
0000
0010
0100
0000
,  // measure 6
1000
0000
0010
0000
0100
0001
0000
0010
0001
0000
1000
0001
0000
0010
0001
0000
,  // measure 7
0010
0000
0100
0000
1000
0010
0000
1000
0100
0000
1000
0001
0000
1000
0010
0000
,  // measure 8
0100
0000
0001
0000
0010
1000
0000
0010
0100
0000
0010
0001
0000
1000
0001
0000
,  // measure 9
1000
0000
0010
0000
0100
1000
0000
0100
0010
0000
0100
0001
0000
0100
0010
0000
,  // measure 10
1000
0000
0001
0000
0010
0100
0000
0100
1000
0000
0001
0000
0010
0100
0000
1000
,  // measure 11
0001
0000
0100
0000
0010
1000
0000
1000
0001
0000
0100
0000
0010
1000
0000
0001
,  // measure 12
0100
0000
0010
0000
1000
0001
0000
0001
1000
0000
0100
0000
0010
0001
0000
1000
,  // measure 13
0010
0000
0100
0000
0010
0000
0100
0000
0010
0100
0010
0100
0010
0100
0010
1000
,  // measure 14
0001
0010
0100
1000
0100
0010
0001
1000
0000
0000
1100
0000
0011
0000
0000
0000
,  // measure 15
0001
0000
0000
0000
2000
0000
0000
0000
3010
0000
0000
0000
0100
0000
0001
0000
1000
0000
0100
0000
1000
0000
0000
0000
0001
0010
0001
0000
1000
0000
0010
0000
,  // measure 16
0100
0000
0000
0000
0001
0010
0001
0000
1000
0000
0010
0000
0100
0000
0000
0000
0001
0010
0001
0000
1000
0000
0010
0000
0100
0000
0000
0000
0001
0100
0001
0000
,  // measure 17
1000
0000
0100
0000
0200
0000
0000
0000
0310
0000
0000
0000
0001
0000
0100
0000
0001
0000
1000
0000
0100
0000
0000
0000
0010
0001
0010
0000
0100
0000
1000
0000
,  // measure 18
0001
0000
0000
0000
0010
0001
0010
0000
0100
0000
1000
0000
0001
0000
0000
0000
0010
0001
0010
0000
0100
0000
1000
0000
0002
0000
0000
0000
0103
0000
0100
0000
,  // measure 19
0020
0000
0000
0000
2030
0000
0000
0000
3100
0000
0010
0000
0001
0000
0010
0000
0100
0000
0000
0000
1000
0000
0001
0000
0100
0010
0100
0000
0001
0000
1000
0000
,  // measure 20
0001
0000
0000
0000
0010
0001
0010
0000
0100
0000
1000
0000
0010
0000
0100
0000
0001
0010
0001
0000
0100
0000
0010
0000
2000
0000
0000
0000
3001
0000
0001
0000
,  // measure 21
0010
0000
0100
1000
0100
0000
0010
0001
1000
0010
0100
0001
1000
0001
0100
0010
,  // measure 22
1000
0000
0100
0010
0100
0000
0001
0100
1000
0010
0100
0000
1010
0000
0100
0000
,  // measure 23
0001
0000
0000
0000
0020
0000
0000
0000
0130
0000
0000
0000
1000
0000
0010
0000
0001
0000
0010
0000
1000
0000
0000
0000
0100
0010
0001
0000
1000
0000
0010
0000
,  // measure 24
0100
0000
0000
0000
0100
0010
1000
0000
0100
0000
0010
0000
0100
0000
0000
0000
0100
0010
0001
0000
1000
0000
0010
0000
0100
0000
0000
0000
0100
0010
1000
0000
,  // measure 25
0100
0000
0010
0000
0020
0000
0000
0000
0031
0000
0000
0000
1000
0000
0010
0000
0001
0000
0010
0000
1000
0000
0000
0000
0100
0010
0001
0000
0100
0000
0010
0000
,  // measure 26
0100
0000
0000
0000
0100
0010
1000
0000
0100
0000
0010
0000
0100
0000
0000
0000
0100
0010
0001
0000
0100
0000
0010
0000
0200
0000
0000
0000
0301
0000
0001
0000
,  // measure 27
2000
0000
0000
0000
3002
0000
0000
0000
0103
0000
0010
0000
1000
0001
1000
0000
0100
0000
0010
0000
0100
0000
0000
0000
1000
0001
1000
0000
0100
0000
0010
0000
,  // measure 28
0100
0000
0000
0000
1000
0001
1000
0000
0010
0000
0100
0000
0001
0000
0100
0000
0010
1000
0010
0000
0100
0000
0001
0000
2000
0000
0000
0000
3001
0000
1000
0000
,  // measure 29
0010
0000
0100
0000
0010
0000
0100
0000
0001
0000
0010
0000
0001
0000
0010
0000
0100
1000
0100
1000
0001
0100
0001
0100
0010
1000
0010
1000
0001
0010
0001
0010
,  // measure 30
0100
0000
1000
0000
0010
0000
0100
0010
0100
0001
0100
0000
0010
1000
0000
0000
,  // measure 31
0001
0000
0010
0000
0100
0010
0000
0001
0010
0010
0100
0010
0000
0001
0010
0000
,  // measure 32
1000
0000
0010
0000
0100
0010
0000
1000
0010
0010
0100
0010
0000
1000
0010
0000
,  // measure 33
0001
0000
0010
0000
0100
0010
0000
0001
0010
0010
0100
0010
0000
0001
0010
0000
,  // measure 34
1000
0000
0010
0000
0100
0010
0000
1000
0010
0010
0100
0010
0000
1000
0010
0010
,  // measure 35
1000
1000
0100
0100
0010
0100
0000
1000
0100
0100
0010
0100
0000
1000
0001
0001
,  // measure 36
1000
1000
0010
0010
0100
0010
0000
1000
0010
0010
0100
0010
0000
1000
0001
0001
,  // measure 37
0010
0010
0100
0100
1000
0100
0000
0010
0100
0100
1000
0100
0000
0010
0001
0001
,  // measure 38
0100
0100
0010
0010
1000
0010
0000
0100
0010
0010
1000
0010
0000
1000
0001
0001
,  // measure 39
1000
0000
0010
0000
1000
0100
0000
0001
0000
0010
0000
0001
0100
0000
0010
0100
,  // measure 40
0001
0000
0010
0000
0001
0100
0000
1000
0000
0010
0000
1000
0100
0000
0010
0100
,  // measure 41
1000
0000
1010
0000
0001
0000
0011
0000
1000
0100
0010
0001
1000
0010
0100
0001
,  // measure 42
1000
0100
1000
0100
0010
0001
0010
0001
1000
0010
1000
0010
0100
0001
0100
0001
0000
0000
0000
0000
0101
0000
0000
0000
1010
0000
0000
0000
0000
0000
0000
0000
,  // measure 43
0000
0000
0000
0000
0000
0000
0100
0000
0010
0000
0000
0010
0000
0000
0001
0000
,  // measure 44
0000
0001
0001
0000
0000
1000
0000
0000
1000
0000
0000
0010
0000
0000
0100
0000
,  // measure 45
0001
0000
0100
0000
0101
0000
0001
1000
0100
0000
0010
0000
0110
0000
0002
0000
,  // measure 46
1003
0000
0010
0000
0100
0000
0010
0000
0000
0000
1000
0000
0001
0010
0001
0000
0100
0000
0000
0000
0010
0000
0000
0000
0110
0000
0000
0000
0020
0000
0000
0000
,  // measure 47
1030
0000
0001
0000
0001
0000
0000
0000
1100
0000
0000
0000
0020
0000
0000
0000
0031
0000
0100
0000
0000
0000
0000
0000
0010
0100
0010
0000
2000
0000
0000
0000
,  // measure 48
3001
0000
0010
0000
0100
0000
0010
0000
0000
0000
0001
0000
1000
0010
1000
0000
0100
0000
0000
0000
0010
0000
0000
0000
0120
0000
0000
0000
0031
0000
0001
0000
,  // measure 49
2000
0000
0000
0000
0000
0000
0000
0000
3001
0000
0000
0000
0100
0001
0100
0000
0010
0000
0000
0000
0010
0000
0000
0000
0110
0000
0000
0000
1000
0000
0001
0000
,  // measure 50
1000
0100
0010
0100
0000
1000
0002
0000
0103
0010
0000
0000
0110
0000
0010
1000
,  // measure 51
0100
0000
0100
0010
0100
0000
0110
0000
0100
0010
0001
0100
0010
1000
0010
1000
,  // measure 52
0001
0000
0000
0101
0000
0000
1000
0000
0000
0000
1100
0000
0010
0100
1000
0000
,  // measure 53
0001
0000
0010
0000
0100
0000
0000
0000
0110
0000
0000
0000
0010
0001
0010
0000
0100
0000
1000
0000
0001
0000
0000
0000
0101
0000
0000
0000
2000
0000
0000
0000
,  // measure 54
3001
0000
0010
0000
0100
0000
0010
0000
0001
0000
1000
0000
0010
0100
0010
0000
1000
0000
0000
0000
1000
0000
0000
0000
1001
0000
0000
0000
0002
0000
0000
0000
,  // measure 55
1003
0000
0100
0000
0100
0000
0000
0000
1100
0000
0000
0000
0010
0001
0010
0000
0100
0000
1000
0000
0001
0000
0000
0000
0100
0010
0100
0000
0002
0000
0000
0000
,  // measure 56
1003
0000
0010
1000
0010
0000
0100
0000
0001
0000
0010
0000
0200
0000
0000
0000
0310
0000
0000
0000
0010
0000
0000
0000
0110
0000
0000
0000
0001
0000
1000
0000
,  // measure 57
0001
0000
0002
0000
0000
0000
0003
0000
0100
0000
0010
0000
1000
0001
1000
0000
0100
0000
0000
0000
0100
0000
0000
0000
0110
0000
0000
0000
0001
0000
0001
0000
,  // measure 58
1000
0000
0100
0010
0100
0000
1000
0000
0010
0000
0100
0000
0002
0000
0000
0000
1003
0000
1000
0000
0000
0000
0000
0000
1001
0000
0000
0000
0120
0000
0000
0000
,  // measure 59
1030
0000
0100
0000
0010
0000
0001
0000
1000
0000
0010
0000
0100
0000
0001
0000
1000
0010
1000
0010
0100
0001
0100
0001
1000
0100
1000
0100
0010
0001
0010
0001
,  // measure 60
1000
0000
0100
0010
0001
0000
0100
0010
0100
0001
0100
0000
0010
1000
0000
0000
,  // measure 61
0200
0000
0000
0000
,  // measure 62
0300
0000
0000
0000
;
