#TITLE:Silly Love;
#SUBTITLE:;
#ARTIST:DE DE MOUSE;
#TITLETRANSLIT:;
#SUBTITLETRANSLIT:;
#ARTISTTRANSLIT:;
#GENRE:;
#CREDIT:;
#BANNER:;
#BACKGROUND:;
#LYRICSPATH:;
#CDTITLE:;
#MUSIC:Silly Love.ogg;
#OFFSET:-0.031001;
#SAMPLESTART:25.113029;
#SAMPLELENGTH:12.000000;
#SELECTABLE:YES;
#BPMS:0.000000=153.000092
,224.000000=124.000214
,256.000000=153.000259
,264.000000=153.000320
;
#STOPS:
;
#BGCHANGES:;
#KEYSOUNDS:;
#ATTACKS:;

//---------------dance-single - ----------------
#NOTES:
     dance-single:
     :
     Hard:
     14:
     0.633904,0.770590,0.292571,0.105651,0.418539,546.000000,510.000000,36.000000,13.000000,0.000000,0.000000,0.633904,0.770590,0.292571,0.105651,0.418539,546.000000,510.000000,36.000000,13.000000,0.000000,0.000000:
0000
0000
0000
0000
,
0000
0000
0000
0000
,
0000
0000
0000
0000
,
0000
0000
0000
0000
,
0010
0000
1000
0100
0010
0000
0000
0100
,
0000
1000
0001
0100
0010
0000
1000
0001
,
1000
0000
0000
0010
0000
0000
0000
0100
,
0000
0001
0000
0001
0010
0000
0100
0000
,
1001
0000
1000
0100
0010
0001
0100
0010
,
0000
1000
0010
0100
0010
0000
1000
0001
,
1000
0000
0000
0100
0000
0000
0000
0010
,
0000
0001
0000
0001
1000
0000
1010
0000
,
1001
0000
0001
0100
0010
1000
0100
0010
,
0000
0001
0010
0100
0010
0000
0001
1000
,
0010
0100
0010
0100
0001
1000
0001
1000
,
0001
0010
0001
0010
0100
1000
0100
1000
0001
0000
0000
0000
0000
0000
0000
0000
,
1001
0000
0000
0000
1000
0000
0100
0000
0010
0000
0000
0001
0000
0000
0011
0000
,
0000
0000
0000
0000
0000
0000
0000
0000
0001
0010
0100
1000
0001
0100
0010
1000
,
0001
0000
0000
0000
0000
0000
0100
0000
0010
0000
0000
1000
0000
0000
1010
0000
,
0000
0000
0000
0000
0000
0000
0000
0000
0010
1000
0010
1000
0001
0010
0100
1000
,
0001
0000
0000
0000
0010
0000
0000
0000
0010
0000
0000
0100
0000
0000
1001
0000
,
0000
0000
0000
0000
0000
0000
0000
0000
0010
0001
0010
0001
1000
0010
1000
0010
,
0100
0000
0001
0000
1000
0000
0000
0000
0010
0000
0000
0100
0000
0000
1001
0000
,
0000
0000
0000
0000
0000
0000
0000
0000
1000
0010
0100
0001
1000
0010
0100
0001
,
1000
0100
1000
0000
0001
0100
0001
0000
,
0010
0000
0100
0000
1000
0000
0001
0000
1000
0010
0100
0001
1000
0100
0010
0001
,
1000
0010
1000
0000
0001
0010
0001
0000
,
0100
0000
0010
0000
0100
0000
0001
0000
1000
0100
1000
0100
0010
0001
0010
0001
,
1000
0010
0100
0000
0001
0010
0100
0000
,
1000
0000
0001
0000
0010
0000
0001
0000
1000
0010
0100
0001
1000
0010
0100
0001
,
1000
0100
0010
0001
0100
0010
1000
0001
,
0010
0100
0010
0100
1000
0001
1000
0001
0200
0000
0000
0000
0320
0000
0000
0000
,
1030
0000
0010
0000
0100
0000
0001
0000
0010
0000
0000
0011
0000
0000
0001
0000
,
1000
0000
0010
0000
0001
0000
0010
0000
1000
0000
0000
1010
0000
0000
1010
0000
,
0100
0000
0001
0000
1000
0000
0001
0000
0010
0000
0000
0110
0000
0000
0100
0000
,
1000
0000
0010
0000
0100
0000
0001
0000
0100
0000
0000
0110
0000
0000
0110
0000
,
1000
0000
0001
0000
0010
0000
0001
0000
1000
0000
0000
1100
0000
0000
0100
0000
,
0010
0000
0001
0000
1000
0000
0010
0000
0100
0000
0000
0101
0000
0000
0101
0000
,
1000
0000
0100
0000
0010
0000
0001
0000
1000
0000
0000
1010
0000
0000
1000
0000
,
0001
0010
0100
1000
0020
0000
0230
0000
,
0301
0010
0100
0010
0001
0100
0010
0100
,
0001
0000
1000
0000
0010
0000
0100
0000
0001
1000
0001
1000
0100
0010
0100
0010
,
0001
1000
0100
1000
0001
1000
0010
1000
,
0001
0000
0010
0000
0100
0000
1000
0000
0001
0100
0001
0100
0010
1000
0010
1000
,
0001
0100
1000
0100
0001
1000
0010
1000
,
0001
0000
0010
0000
0100
0000
1000
0000
0001
0010
0100
1000
0001
0010
0100
1000
,
0001
0010
1000
0010
0001
1000
0100
1000
,
0001
0100
0001
0100
0010
1000
0010
1000
0200
0000
0000
0000
0320
0000
0000
0000
,
0031
1000
0100
0000
0011
0000
2100
0000
,
0000
0000
0000
0000
3001
0000
0000
0000
0100
0000
0010
1000
0010
1000
0010
1000
,
0010
0100
0001
0000
1010
0000
0102
0000
,
0000
0000
1003
0000
0100
0010
0001
1000
,
0001
0100
0010
0000
1010
0000
0102
0000
,
0000
0000
0000
0000
1003
0000
0000
0000
0100
0000
0010
0001
0010
0001
0010
0001
,
1000
0010
0100
0001
0010
0000
2100
0000
,
0000
3000
0000
0000
,
1000
0000
0000
0000
1010
0000
0000
0000
0010
0000
0100
0001
0000
0100
0001
0000
,
1000
0000
1010
0000
0001
0010
0100
1000
,
0001
0000
0000
0000
0011
0000
0000
0000
0010
0000
0100
1000
0000
0100
1000
0000
,
0001
0000
0000
0000
0000
0000
0011
0000
0000
0000
0000
0000
0001
0000
0100
0000
0010
0000
1000
0000
0000
0002
0000
0000
,
1003
0000
0000
0000
1010
0000
0000
0000
0010
0000
0100
0001
0000
1000
0001
0000
,
0100
0000
0110
0000
0010
1000
0001
0000
,
1000
0000
0000
0000
1100
0000
0000
0000
0100
0000
0010
0001
0000
0010
0001
0000
,
1000
0000
0010
0000
0100
0000
0001
0000
0000
0000
0001
0000
0010
0100
0010
0100
,
1000
0000
0100
0000
0010
0000
0001
0000
0100
0000
0010
1000
0000
0010
1000
0000
,
0001
0000
0010
0000
0100
0000
1000
0000
0010
0000
0100
0001
0100
0010
0100
0000
,
0001
0000
0100
0000
0010
0000
1000
0000
0100
0000
0010
0001
0000
0010
0001
0000
,
1000
0000
0010
0000
0100
0000
0001
0000
0010
0100
0010
0001
1000
0000
0010
0000
,
1000
0000
0100
0000
0010
0000
0100
0000
1000
0000
0000
1001
0000
0000
0011
0000
,
0001
0000
0010
0000
0100
0000
0010
0000
0001
0000
0000
1001
0000
0000
0101
0000
,
0001
0100
0010
1000
0100
0010
0001
1000
,
0001
0010
0001
0010
0100
1000
0100
1000
0002
0000
0000
0000
0203
0000
0000
0000
,
0310
1000
0010
1000
0001
0010
0001
0010
0100
1000
0100
1000
0001
0100
0001
0100
;

//---------------dance-single - ----------------
#NOTES:
     dance-single:
     :
     Medium:
     10:
     0.442340,0.504279,0.130032,0.251936,0.073143,381.000000,365.000000,16.000000,31.000000,0.000000,0.000000,0.442340,0.504279,0.130032,0.251936,0.073143,381.000000,365.000000,16.000000,31.000000,0.000000,0.000000:
0000
0000
0000
0000
,
0000
0000
0000
0000
,
0000
0000
0000
0000
,
0000
0000
0000
0000
,
0010
0000
1000
0001
1000
0000
0000
0100
,
0000
1000
0100
0010
0001
0000
0100
0010
,
0100
0000
0000
0001
0000
0000
0000
1000
,
0000
0010
0000
1000
0001
0000
1001
0000
,
1000
0100
1000
0100
0010
0000
0000
0100
,
0000
1000
0100
0010
0001
0000
1000
0010
,
0100
0000
0001
0000
0011
0000
0000
0100
,
0000
1000
0000
0100
0010
0000
0001
0000
,
0001
0100
0001
0100
0010
0000
0000
0100
,
0000
0001
0010
0100
1000
0000
0001
0010
,
0100
0000
1000
0000
1010
0000
0000
0100
,
0000
0001
0000
0100
0010
0000
1000
0000
,
0001
0000
0010
0000
0100
0000
1000
0000
0010
0000
0000
0010
0000
0000
0010
0000
,
0000
0000
0200
0302
,
1003
0000
0100
0000
0010
0000
0001
0000
0100
0000
0000
0010
0000
0000
0100
0000
,
0000
0000
0002
0023
,
0130
0000
1000
0000
0001
0000
0000
0000
0001
0000
0000
0100
0000
0000
0001
0000
,
0000
0000
2000
3002
,
1003
0000
0100
0000
0010
0000
0001
0000
1000
0000
0000
0100
0000
0000
1000
0000
,
0000
0000
0002
2003
,
3001
0100
0001
0000
0010
0001
0010
0000
,
0001
0100
0001
0000
0020
0000
0230
0000
,
1300
0100
1000
0000
0010
1000
0010
0000
,
1000
0100
1000
0000
0020
0000
0230
0000
,
0301
1000
0001
0000
1000
0010
1000
0000
,
0001
1000
0001
0000
0020
0000
0230
0000
,
1300
0001
1000
0000
0001
0010
0001
0000
,
1000
0100
0010
0001
0200
0000
0310
0000
,
1000
0000
0010
0000
0100
0000
0001
0000
0100
0000
0000
0010
0000
0000
0010
0000
,
0000
1000
0001
0010
0100
0000
0100
0000
,
1000
0000
0100
0000
0010
0000
0001
0000
0010
0000
0000
0100
0000
0000
0100
0000
,
0000
1000
0010
0100
0001
0000
0001
0000
,
1000
0000
0100
0000
1000
0000
0010
0000
1000
0000
0000
0001
0000
0000
0010
0000
,
0000
0100
1000
0100
0010
0000
0010
0000
,
0001
0000
0100
0000
0001
0000
0010
0000
0001
0000
0000
1000
0000
0000
0010
0000
,
0000
0100
0001
0100
0010
0000
0010
0000
,
1000
0000
0001
0000
0010
0000
0100
0000
1000
0000
0000
0001
0000
0000
0001
0000
,
0000
1000
0010
1000
0200
0000
0320
0000
,
0031
0000
1000
0000
0100
0000
0010
0000
0001
0000
0000
1000
0000
0000
1000
0000
,
0000
0001
0010
0001
0200
0000
0320
0000
,
1030
0000
0010
0000
1000
0000
0100
0000
0010
0000
0000
0001
0000
0000
0001
0000
,
0000
1000
0100
0010
0002
0000
0203
0000
,
0301
0000
0010
0000
0001
0000
0100
0000
0010
0000
0000
1000
0000
0000
1000
0000
,
0010
0100
0001
0010
0100
1000
0020
0000
,
0130
0001
0011
2100
,
0000
0000
3100
0000
0010
0001
1000
0001
,
0100
0010
1010
0102
,
0000
0103
0010
0110
,
1000
0001
0100
0001
0010
0000
2100
0000
,
0000
0000
3100
0000
0010
0001
0010
0000
,
0100
1000
0001
1000
0010
0000
0102
0000
,
0000
0003
0000
0000
,
1000
0000
0000
0000
0010
0000
0000
0000
1000
0000
0000
0001
0000
0000
0100
0000
,
0001
0000
0010
0000
0001
0100
0020
0000
,
1030
0000
0100
0000
1000
0000
0000
0000
0010
0000
0000
0100
0000
0000
0100
0000
,
0001
0000
0000
0010
0000
0000
0001
0000
0000
0000
0000
0000
1000
0000
0010
0000
0100
0000
0002
0000
0000
0000
0000
0000
,
1003
0000
0000
0000
0100
0000
0000
0000
1000
0000
0000
0001
0000
0000
0010
0000
,
0001
0000
0100
0000
0001
0010
0200
0000
,
1300
0000
0010
0000
1000
0000
0000
0000
0100
0000
0000
0010
0000
0000
0010
0000
,
0001
0100
0001
0100
0000
0010
1000
0010
,
1000
0000
1010
0000
0100
0010
1000
0000
,
0001
0000
0011
0000
0100
0010
0001
0000
,
1000
0000
1100
0000
0010
0100
1000
0000
,
0001
0000
0101
0000
0010
0100
0001
1000
,
0001
0000
0011
0000
0100
0010
0001
0000
,
1000
0000
1010
0000
0100
0010
1000
0000
,
0001
0100
0001
0100
0010
1000
0010
1000
,
0001
0010
0100
1000
0010
0100
0010
0100
,
0002
0010
1000
0200
,
0303
0000
0000
0000
;

//---------------dance-single - ----------------
#NOTES:
     dance-single:
     :
     Easy:
     6:
     0.318113,0.355962,0.081270,0.048762,0.000000,274.000000,264.000000,10.000000,6.000000,0.000000,0.000000,0.318113,0.355962,0.081270,0.048762,0.000000,274.000000,264.000000,10.000000,6.000000,0.000000,0.000000:
0000
0000
0000
0000
,
0000
0000
0000
0000
,
0000
0000
0000
0000
,
0000
0000
0000
0000
,
1000
0000
0100
0000
0100
0000
0000
1000
,
0000
0010
0000
0100
0000
0000
0001
1000
,
0001
0000
0000
0100
0000
0000
0000
0010
,
0000
0100
0001
1001
,
1000
0000
0100
0000
0100
0000
0000
1000
,
0000
0010
0000
0100
0000
0000
0001
1000
,
0001
0000
0000
0100
0000
0000
0000
0010
,
0000
0100
0000
0000
0001
0000
1001
0000
,
1000
0000
0100
0000
0100
0000
0000
1000
,
0000
0010
0000
0100
0000
0000
0001
1000
,
0001
0000
0000
0100
0000
0000
0000
0010
,
0000
0100
0000
0000
0001
0000
1001
0000
,
0001
0010
0100
1000
,
0000
0000
0002
0000
,
1003
0100
0010
0001
,
0000
0000
2000
0000
,
3010
0100
0001
1000
,
0000
0000
0020
0000
,
0130
0001
1000
0100
,
0000
0000
0020
0000
,
0031
0001
1000
1000
,
0010
0100
0001
0010
,
1000
1000
0001
0001
,
0010
0100
0001
1000
,
0001
0001
1000
1000
,
0010
0100
0001
0010
,
1000
1000
0001
0001
,
0010
0100
0001
1000
,
0001
0010
0001
0000
0100
0000
0000
0000
,
0010
1000
0010
0000
0100
0000
0001
0000
,
1000
0010
1000
0000
0100
0000
0000
0000
,
0001
0010
1000
0100
,
0010
0001
0010
0000
0100
0000
0000
0000
,
1000
0001
1000
0000
0010
0000
0100
0000
,
0001
0010
0001
0000
0100
0000
0000
0000
,
1000
0010
0001
1000
,
0001
0100
0001
0001
,
1000
0100
1000
0000
0010
0000
1010
0000
,
0001
0100
0001
0001
,
1000
0010
1000
0000
0001
0000
1001
0000
,
1000
0100
1000
1000
,
0001
0100
0001
0000
0010
0000
0011
0000
,
0100
0100
1000
1000
,
0001
0010
0001
0000
1000
0000
1000
0000
,
0100
0000
0010
0100
,
1000
0010
0100
0001
,
0101
0000
0010
0100
,
0001
0010
0100
1000
,
1100
0000
0001
1000
,
0010
0010
0100
0100
,
0101
0000
1000
0001
,
0010
0100
1000
0000
,
0001
0010
0001
0010
,
0100
0000
1000
0000
0100
0100
1000
0000
,
0010
1000
0010
1000
,
0001
0100
0001
1001
,
1000
0100
0010
0100
,
1000
0000
0010
0000
0100
0001
0100
0000
,
0001
0010
0100
0010
,
0001
0000
0100
0000
0010
1000
0010
0000
,
0100
0001
0010
1000
,
0010
0000
0001
0000
0100
0001
0100
0000
,
0010
1000
0100
0001
,
0100
0000
1000
0000
0010
1000
0010
0000
,
0100
0000
0001
0000
1000
0100
1000
0000
,
0100
0000
1000
0000
0001
0100
0001
0000
,
1000
1000
0001
0001
,
0010
0100
0010
0100
0020
0000
0000
0000
,
0032
0000
0000
0000
,
0003
0000
0000
0000
;

//---------------dance-single - ----------------
#NOTES:
     dance-single:
     :
     Beginner:
     3:
     0.154413,0.204800,0.000000,0.000000,0.000000,133.000000,133.000000,0.000000,0.000000,0.000000,0.000000,0.154413,0.204800,0.000000,0.000000,0.000000,133.000000,133.000000,0.000000,0.000000,0.000000,0.000000:
// measure 0
0000
0000
0000
0000
,  // measure 1
0000
0000
0000
0000
,  // measure 2
0000
0000
0000
0000
,  // measure 3
0000
0000
0000
0000
,  // measure 4
0001
0000
0001
0000
,  // measure 5
1000
0000
1000
0000
,  // measure 6
0100
0000
0000
0000
,  // measure 7
0100
0000
0010
0010
,  // measure 8
0001
0000
0001
0000
,  // measure 9
0100
0000
0100
0000
,  // measure 10
0001
0000
0000
0000
,  // measure 11
0010
0000
0100
0100
,  // measure 12
1000
0000
1000
0000
,  // measure 13
0100
0000
0100
0000
,  // measure 14
1000
0000
0000
0000
,  // measure 15
0010
0000
0100
0100
,  // measure 16
0001
0000
0000
0001
,  // measure 17
0000
0000
0010
0000
,  // measure 18
1000
0000
0000
1000
,  // measure 19
0000
0000
0010
0000
,  // measure 20
0001
0000
0000
0001
,  // measure 21
0000
0000
0100
0000
,  // measure 22
1000
0000
0000
1000
,  // measure 23
0000
0000
0100
0000
,  // measure 24
0001
0001
0001
0000
,  // measure 25
0100
0000
0100
0000
,  // measure 26
0010
0010
0010
0000
,  // measure 27
1000
0000
1000
0000
,  // measure 28
0100
0100
0100
0000
,  // measure 29
0010
0000
0010
0000
,  // measure 30
0001
0001
0001
0000
,  // measure 31
1000
0000
0001
0000
,  // measure 32
1000
0000
0010
0000
,  // measure 33
1000
0000
0000
0000
,  // measure 34
0001
0000
0100
0000
,  // measure 35
0001
0000
0000
0000
,  // measure 36
1000
0000
0100
0000
,  // measure 37
1000
0000
0000
0000
,  // measure 38
0001
0000
0010
0000
,  // measure 39
0001
0000
0000
0000
,  // measure 40
1000
0000
0010
0000
,  // measure 41
1000
0000
1000
0000
,  // measure 42
0001
0000
0010
0000
,  // measure 43
0001
0000
0000
0000
,  // measure 44
1000
0000
0100
0000
,  // measure 45
1000
0000
1000
0000
,  // measure 46
0001
0000
0100
0000
,  // measure 47
0001
0000
0000
0000
,  // measure 48
1000
0000
0010
0010
,  // measure 49
0000
0000
1000
0000
,  // measure 50
0001
0000
0010
0010
,  // measure 51
0000
0000
0001
0000
,  // measure 52
1000
0000
0100
0100
,  // measure 53
0000
0000
1000
0000
,  // measure 54
0001
0000
0100
0100
,  // measure 55
0000
0000
0001
0000
,  // measure 56
1000
0000
1000
0000
,  // measure 57
1000
0000
0001
0000
,  // measure 58
0100
0000
0100
0000
,  // measure 59
0100
0000
0010
0000
,  // measure 60
1000
0000
1000
0000
,  // measure 61
1000
0000
0001
0000
,  // measure 62
0010
0000
0010
0000
,  // measure 63
0010
0000
0100
0000
,  // measure 64
1000
0100
1000
0000
,  // measure 65
1000
0000
0000
0000
,  // measure 66
0001
0100
0001
0000
,  // measure 67
0001
0000
0000
0000
,  // measure 68
1000
0010
1000
0000
,  // measure 69
1000
0000
0000
0000
,  // measure 70
0001
0001
0001
0000
,  // measure 71
1000
1000
1000
0000
,  // measure 72
0010
0000
0000
0000
;
