#TITLE:Shiva;
#SUBTITLE:;
#ARTIST:Relect;
#TITLETRANSLIT:;
#SUBTITLETRANSLIT:;
#ARTISTTRANSLIT:;
#GENRE:;
#CREDIT:;
#BANNER:Shiva.png;
#BACKGROUND:Shiva-bg.png;
#LYRICSPATH:;
#CDTITLE:;
#MUSIC:Shiva.ogg;
#OFFSET:-0.089000;
#SAMPLESTART:65.667656;
#SAMPLELENGTH:19.200005;
#SELECTABLE:YES;
#BPMS:0.000000=150.000000
;
#STOPS:
;
#BGCHANGES:;
#KEYSOUNDS:;
#ATTACKS:;

//---------------dance-single - ----------------
#NOTES:
     dance-single:
     :
     Hard:
     17:
     0.944470,0.951760,0.257352,0.212981,1.149211,745.000000,716.000000,29.000000,24.000000,0.000000,0.000000,0.944470,0.951760,0.257352,0.212981,1.149211,745.000000,716.000000,29.000000,24.000000,0.000000,0.000000:
0000
0000
0000
0000
,
0001
0000
1000
0100
0010
0000
0001
1000
0001
1000
0100
0000
0010
0001
1000
0001
,
0100
0000
0001
0100
0010
0000
1000
0001
1000
0000
0010
0000
0100
0001
1000
0001
,
0100
0000
0001
1000
0010
0000
1000
0001
1000
0001
0100
0000
0010
1000
0001
1000
,
0100
0000
1000
0001
0010
0000
0001
1000
0001
0000
0010
0000
0100
1000
0100
1000
,
0001
0000
0100
0000
1000
0000
0100
0000
0001
0000
0100
0000
1000
0000
0100
0001
,
1000
0000
0100
0000
0001
0000
0100
0000
1000
0000
0100
0000
0001
0000
0100
1000
,
0001
0100
0001
0100
0010
1000
0010
1000
0001
0010
0001
0010
0100
1000
0100
1000
,
0000
0000
0000
1001
,
0020
0000
0030
1000
0001
0010
0100
1000
0001
0100
0010
0100
0001
0010
0100
1000
,
0001
0100
0010
0100
0001
0010
0100
1000
0001
0100
0010
0100
0001
0010
0100
1000
,
0001
0100
0010
0100
0001
0010
0100
1000
0001
0100
0010
0100
0001
0010
0100
1000
,
0001
0100
0010
0100
0001
1000
0100
0010
0001
0100
0010
1000
0100
0000
0000
0000
,
0110
0000
0000
0010
0001
0010
0100
1000
0001
0100
0010
0100
0001
0010
0100
1000
,
0001
0100
0010
0100
0001
0010
0100
1000
0001
0100
0010
0100
0001
0010
0100
1000
,
0001
0100
0001
0100
0010
1000
0010
1000
0001
0010
0001
0010
0100
1000
0100
1000
,
0001
0000
0000
1000
0100
1000
0000
0010
0000
0010
0100
0000
1001
0000
0000
0000
,
0110
0000
0000
0010
1000
0100
0010
0001
1000
0010
0100
0010
1000
0100
0010
0001
,
1000
0010
0100
0010
1000
0100
0010
0001
1000
0010
0100
0001
0010
0001
0100
0010
,
1000
0010
0100
0010
1000
0100
0010
0001
1000
0010
0100
0010
1000
0100
0010
0001
,
1000
0010
0100
0010
1000
0100
0010
0001
1000
0010
0100
0001
1000
0000
0000
0000
,
0110
0000
0000
0010
1000
0100
0010
0001
1000
0010
0100
0010
1000
0100
0010
0001
,
1000
0010
0100
0010
1000
0100
0010
0001
1000
0010
0100
0001
0010
0001
0100
0010
,
1000
0100
1000
0100
0010
0001
0010
0001
1000
0010
1000
0010
0100
0001
0100
0001
,
0020
0000
0000
0130
,
0012
0010
0010
0010
,
2003
0000
0010
0000
0010
0000
3010
0100
,
0002
0010
0010
0010
,
2003
0000
0010
0000
0010
0000
3010
0100
,
0001
0100
1000
0100
0001
0100
1000
0100
,
0001
0010
1000
0010
0001
0010
1000
0010
,
0001
0010
0001
0010
0100
1000
0100
1000
0001
0100
0001
0100
0010
1000
0010
1000
,
0001
0100
1001
0100
1010
0100
2002
3003
,
0011
0000
0100
0010
0011
0010
0100
1000
,
0002
0103
2000
3100
0002
0103
2000
3100
,
0001
0010
0001
0010
0100
1000
0100
1000
0002
0000
0000
0000
0103
0010
0100
0010
,
0100
0010
0100
0010
1000
0000
0010
0000
1010
0000
1000
0000
0100
0000
0000
0000
,
0110
0000
1000
0100
0011
0100
1000
0001
,
2000
3010
0002
0013
2000
3010
0002
0013
,
0220
0000
0330
0000
0001
0000
1000
0000
2200
0000
3300
0000
0010
0001
0010
0001
,
0010
0001
0010
0001
1000
0000
0010
0000
1010
0000
1000
0000
0100
0000
0000
0000
,
0010
0000
0001
1000
0001
0000
0100
0000
0010
0000
1000
0100
1000
0000
0010
0000
,
0100
0000
0001
0010
0001
0000
1000
0000
0100
0000
1000
0001
1000
0000
0010
0000
,
0100
0000
0001
0010
0001
0000
0100
0000
0010
0000
1000
0001
1000
0000
0100
0000
,
0010
0000
0001
0100
0001
0000
0010
0000
0100
0000
1000
0001
1000
0000
0100
0000
,
0110
0010
0001
0100
1000
0100
0001
0010
,
1000
0001
0100
1000
0010
0001
0010
1000
,
0001
0010
0100
1000
0001
1000
0010
0100
0001
0100
0010
1000
0001
1000
0100
0010
,
0000
0000
0000
0110
,
2000
0000
3001
0010
0100
0010
0001
0000
1000
0010
1000
0001
0010
0100
0010
0000
,
0011
0000
0001
0010
0100
0010
0001
0000
1000
0010
1000
0001
0010
0100
0010
0000
,
0011
0000
0001
0010
0100
0010
0001
0000
1000
0010
1000
0001
0010
0100
0010
0000
,
0011
0000
0001
0010
0100
0010
0001
0000
1000
0010
1000
0001
2000
0000
3000
0000
,
1010
0000
1000
0010
0100
0010
1000
0000
0001
0010
0001
1000
0010
0100
0010
0000
,
1010
0000
1000
0010
0100
0010
1000
0000
0001
0010
0001
1000
0010
0100
0010
0000
,
1000
0010
1000
0010
0100
0001
0100
0001
1000
0100
1000
0100
0010
0001
0010
0001
,
1000
0000
0001
0010
0001
1000
0001
0000
1000
0100
0010
0001
0010
0100
1000
0000
,
0010
0000
1000
0100
0010
0100
1000
0000
0001
0100
0001
1000
0100
0010
0100
0000
,
1100
0000
1000
0100
0010
0100
1000
0000
0001
0100
0001
1000
0100
0010
0100
0000
,
1100
0000
1000
0100
0010
0100
1000
0000
0001
0100
0001
1000
0100
0010
0100
0000
,
1100
0000
1000
0100
0010
0100
1000
0000
0001
0100
0001
1000
0002
0000
0003
0000
,
0101
0000
0001
0100
0010
1000
0010
1000
0001
0010
0001
0010
0100
1000
0100
1000
,
0001
0010
0001
0010
0100
1000
0100
1000
0001
0100
0001
0100
0010
1000
0010
1000
,
0001
0010
0100
1000
0001
1000
0010
0100
0001
1000
0001
0010
0100
1000
0001
1000
,
0010
0100
0000
0100
0001
0000
1000
0100
1000
0000
0010
0000
0110
0000
0000
0000
,
0100
0000
0000
0000
;

//---------------dance-single - ----------------
#NOTES:
     dance-single:
     :
     Medium:
     13:
     0.711205,0.663348,0.124239,0.062120,0.452585,561.000000,547.000000,14.000000,7.000000,0.000000,0.000000,0.711205,0.663348,0.124239,0.062120,0.452585,561.000000,547.000000,14.000000,7.000000,0.000000,0.000000:
0000
0000
0000
0000
,
1000
0000
1000
0000
0010
0000
0100
0001
0100
0000
0010
0000
1000
0000
0001
0000
,
1000
0000
1000
0000
0100
0000
0010
0001
0010
0000
0100
0000
0010
0000
0001
0000
,
1000
0000
1000
0000
0010
0000
0100
0001
0100
0000
0010
0000
1000
0000
0001
0000
,
1000
0000
1000
0000
0100
0000
0010
0001
0010
0000
0100
0000
0010
0000
0001
0000
,
1000
0000
1000
0000
0010
0000
0010
0000
0100
0000
0100
0000
0001
0000
0001
1000
,
0100
0000
0100
0000
0010
0000
0010
0000
0001
0000
0001
0000
1000
0000
1000
0010
,
0100
0001
0010
0100
1000
0010
0100
0001
,
0000
0000
0010
1001
,
0001
0000
0000
1000
0010
0000
0100
0000
0001
0000
1000
0100
1000
0000
0001
0000
,
0010
0000
0001
0100
0001
0000
1000
0000
0010
0000
1000
0100
1000
0000
0001
0000
,
0010
0000
0001
0100
0001
0000
1000
0000
0010
0000
1000
0100
1000
0000
0001
0000
,
0010
0000
0001
0100
0001
0000
1000
0000
0010
0000
1000
0100
1000
0000
0000
0000
,
0011
0000
0000
0001
1000
0000
0010
0000
1000
0000
0100
0010
0100
0000
1000
0000
,
0001
0000
0100
0010
0100
0000
0001
0000
1000
0000
0100
0010
0100
0000
1000
0000
,
0001
0010
0001
0000
1000
0010
1000
0000
0001
0100
0001
0000
1000
0100
1000
0000
,
0010
0000
0000
0100
0001
0100
0000
0010
0000
0010
1000
0000
1001
0000
0000
0000
,
0011
0000
0000
0001
1000
0000
0010
0000
0100
0000
0001
0010
0001
0000
0100
0000
,
0010
0000
1000
0100
1000
0000
0010
0000
0100
0001
0000
0010
0001
0000
0100
0000
,
0010
0000
1000
0100
1000
0000
0010
0000
0100
0000
0001
0010
0001
0000
0100
0000
,
0010
0000
1000
0100
1000
0000
0001
0100
0001
0000
1000
0100
0010
0000
0000
0000
,
0011
0000
0000
0001
1000
0000
0010
0000
1000
0000
0001
0100
0001
0000
0010
0000
,
0001
0000
1000
0100
1000
0000
0010
0000
1000
0000
0001
0100
0001
0000
0010
0000
,
0001
0010
0001
0000
1000
0010
1000
0000
0001
0100
0001
0000
1000
0100
1000
0000
,
0020
0000
0000
0130
,
1001
0010
0100
1000
,
0010
0000
0100
0000
0001
0000
1000
0100
,
1000
0000
0001
0100
0001
0000
0010
0000
,
0100
0000
1000
0001
1000
0000
0100
0000
,
0011
0010
0100
1000
0010
0100
0001
1000
,
0001
0010
0100
1000
0010
0100
0001
1000
,
0001
0010
0001
0000
0010
0100
0010
0000
0100
1000
0100
0000
1000
0001
1000
0000
,
0010
0100
0001
0100
0010
1000
1001
0000
,
0012
0000
0103
0010
1000
0010
0100
0001
,
1000
0001
1000
0001
0010
0100
1000
0000
,
0012
0000
0103
0010
2000
0000
3001
0010
,
0001
1000
0010
0010
0010
0100
0001
0000
,
2010
0000
3100
0010
0001
0010
0100
1000
,
0001
1000
0001
1000
0010
0100
0001
0000
,
0201
0000
0310
1000
0002
0000
0013
0100
,
1000
0100
0010
0010
0010
0001
1000
0000
,
1000
0000
0001
0010
0001
0000
1000
0000
0001
0000
1000
0010
1000
0000
0001
0000
,
1000
0000
0001
0100
0001
0000
1000
0000
0001
0000
1000
0100
1000
0000
0001
0000
,
1000
0000
0010
0100
0010
0000
1000
0000
0010
0000
0100
0010
0100
0000
0001
0000
,
0100
0000
0010
0100
0010
0000
1000
0000
0010
0000
0100
0010
0100
0000
0001
0000
,
1000
0100
0010
0001
1000
0010
0100
0001
,
0001
0010
0100
1000
0001
0100
0010
1000
,
0001
0010
0001
0000
0100
0010
0100
0000
0001
1000
0001
0000
1000
0100
1000
0000
,
0000
0000
0000
1010
,
0001
0000
1000
0010
0000
0010
1000
0000
0001
0000
0010
0100
0010
0000
0001
0000
,
1000
0000
0001
0010
0000
0010
0001
0000
1000
0000
0010
0100
0010
0000
1000
0000
,
0001
0000
1000
0100
0000
0100
1000
0000
0001
0000
0100
0010
0100
0000
0001
0000
,
1000
0000
0001
0100
0000
0100
0001
0000
1000
0000
0100
0010
0001
0000
0000
0000
,
1000
0000
0001
0010
0000
0001
0010
0000
0100
0000
1000
0001
1000
0000
0010
0000
,
1000
0000
0001
0010
0000
0001
0010
0000
0100
0000
1000
0001
1000
0000
0010
0000
,
1000
0000
0001
0100
0000
0001
0100
0000
0010
0000
1000
0001
1000
0000
0100
0000
,
1000
0000
0001
0100
0001
1000
0001
0000
0010
0000
0100
1000
0100
0000
0010
0000
,
0001
0000
1000
0010
0000
0010
1000
0000
0001
0000
1000
0100
0010
0000
0001
0000
,
1000
0000
0001
0010
0000
0010
0001
0000
1000
0000
0001
0010
0100
0000
1000
0000
,
0001
0000
1000
0010
0000
0010
1000
0000
0001
0000
1000
0100
0010
0000
0001
0000
,
1000
0000
0001
0010
0000
0010
0001
0000
1000
0000
0001
0010
0100
0000
0000
0000
,
1000
0000
0001
0100
0001
0000
0010
0000
0100
0000
1000
0000
0010
0000
0100
0000
,
0001
0100
0010
1000
0100
0010
0001
1000
,
0001
0100
0001
0000
1000
0100
1000
0000
0010
1000
0010
0000
0100
0010
0100
0000
,
0001
0000
1000
0000
0001
0000
0010
0100
0010
0000
0001
0000
1000
0000
0000
0000
,
1010
0000
0000
0000
;

//---------------dance-single - ----------------
#NOTES:
     dance-single:
     :
     Easy:
     9:
     0.452585,0.490301,0.124239,0.230730,0.000000,357.000000,343.000000,14.000000,26.000000,0.000000,0.000000,0.452585,0.490301,0.124239,0.230730,0.000000,357.000000,343.000000,14.000000,26.000000,0.000000,0.000000:
0000
0000
0000
0000
,
1000
0000
0010
0000
1000
0001
1000
0000
,
0100
0000
0010
0000
0001
1000
0001
0000
,
0001
0000
0010
0000
0001
1000
0001
0000
,
0010
0000
0100
0000
1000
0001
1000
0000
,
2010
0001
0100
0001
,
0010
0001
0100
0001
,
3010
0100
0001
0100
0010
1000
0010
0100
,
0000
0000
0000
1001
,
0020
0000
1030
0100
1000
0000
0100
0010
,
0100
0000
0010
0001
0010
0000
0001
1000
,
0001
0000
0001
0100
0001
0000
0100
0010
,
0100
0000
0010
1000
0010
0000
1001
0000
,
0200
0000
0301
1000
0001
0000
0010
0001
,
0010
0000
0100
0010
0100
0000
1000
0100
,
1000
0000
0001
1000
0001
0000
0100
0001
,
0100
0010
1000
1001
,
0020
0000
0031
1000
0001
0000
0010
0001
,
0010
0000
0100
0010
0100
0000
1000
0100
,
1000
0000
1000
0001
1000
0000
0010
1000
,
0010
0000
0100
0001
0100
0000
1001
0000
,
0200
0000
0301
1000
0001
0000
0010
0001
,
0010
0000
0100
1000
0100
0000
0010
0001
,
0010
0000
0001
1000
0001
0000
0100
0001
,
0000
0000
0000
0000
,
2010
0001
0001
3001
,
0010
0100
1000
0001
,
0200
0010
0010
0310
,
1000
0000
0001
0010
0001
0000
1000
0000
,
0010
1000
0010
1000
0001
0010
0001
0010
,
0100
1000
0100
1000
0001
0100
0001
0100
,
0010
1000
0001
0010
,
0100
1000
0001
1000
0010
0100
0001
0000
,
0101
0000
0100
0010
1000
0010
0100
0000
,
0001
0000
0001
0000
0010
0100
0010
0000
,
0002
0103
2000
3100
,
0001
0000
1000
0010
1000
0001
1000
0000
,
1100
0000
0100
0010
0001
0010
0100
0000
,
1000
0000
1000
0000
0010
0100
0010
0000
,
2000
0000
3001
0010
0002
0000
0000
0000
,
0103
0000
0010
1000
0001
1000
0100
0000
,
0010
0000
0001
1000
0010
0000
1000
0001
,
0010
0000
0001
1000
0010
0000
1000
0001
,
0100
0000
0001
1000
0100
0000
1000
0001
,
0100
0000
0001
1000
0100
0000
0010
0001
,
1000
0010
1000
0010
0100
0001
0100
0001
,
1000
0100
1000
0100
0010
0001
0010
0001
,
2000
3020
0230
0302
,
0003
0000
0000
0011
,
1000
0000
0001
0100
0001
0000
0020
0000
,
0031
0000
1000
0100
1000
0000
0020
0000
,
1030
0000
0001
0100
0001
0000
0020
0000
,
0130
0000
1000
0010
1000
0001
0020
0000
,
0130
0000
1000
0001
1000
0000
0200
0000
,
0310
0000
0001
1000
0001
0000
0200
0000
,
0310
0000
1000
0001
1000
0000
0200
0000
,
0310
0000
0001
0010
0001
1000
0001
0000
,
0100
0010
0100
0000
0001
0000
0011
0000
,
0100
1000
0100
0000
0010
0000
0011
0000
,
0100
0010
0100
0000
0001
0000
0011
0000
,
0100
1000
0100
0000
0010
0000
0011
0000
,
1000
0010
1000
0010
0100
0001
0100
0001
,
1000
0100
1000
0100
0010
0001
0010
0001
,
2000
3200
0302
0203
,
1300
0001
1000
0010
1000
0000
0011
0000
,
0100
0000
0000
0000
;

//---------------dance-single - ----------------
#NOTES:
     dance-single:
     :
     Beginner:
     3:
     0.134381,0.173047,0.000000,0.000000,0.000000,106.000000,106.000000,0.000000,0.000000,0.000000,0.000000,0.134381,0.173047,0.000000,0.000000,0.000000,106.000000,106.000000,0.000000,0.000000,0.000000,0.000000:
// measure 0
0000
0000
0000
0000
,  // measure 1
0000
0000
0000
0000
,  // measure 2
0000
0000
0000
0000
,  // measure 3
0000
0000
0000
0000
,  // measure 4
0000
0000
0000
0000
,  // measure 5
1000
0000
1000
0000
,  // measure 6
0100
0000
0100
0000
,  // measure 7
1000
0000
0001
0000
,  // measure 8
1000
0000
0000
0000
,  // measure 9
0001
0000
0100
0000
,  // measure 10
0001
0000
0100
0000
,  // measure 11
0001
0000
1000
0000
,  // measure 12
0001
0000
1000
0000
,  // measure 13
0100
0000
1000
0000
,  // measure 14
0100
0000
1000
0000
,  // measure 15
0001
0000
1000
0000
,  // measure 16
0001
0000
0000
0000
,  // measure 17
0100
0000
0010
0000
,  // measure 18
0100
0000
0010
0000
,  // measure 19
1000
0000
0010
0000
,  // measure 20
1000
0000
0010
0000
,  // measure 21
0100
0000
0010
0000
,  // measure 22
0100
0000
0010
0000
,  // measure 23
0100
0000
0001
0000
,  // measure 24
0100
0000
0000
0000
,  // measure 25
0001
0000
0000
0000
,  // measure 26
0000
0000
0000
0000
,  // measure 27
0010
0000
0000
0000
,  // measure 28
0100
0000
0000
0000
,  // measure 29
1000
0000
1000
0000
,  // measure 30
0010
0000
0010
0000
,  // measure 31
0001
0000
0010
0000
,  // measure 32
1000
0000
0000
0000
,  // measure 33
0100
0000
0010
0000
,  // measure 34
0100
0100
0100
0000
,  // measure 35
1000
0000
0001
0000
,  // measure 36
1000
0000
0000
0000
,  // measure 37
0010
0000
0100
0000
,  // measure 38
0010
0010
0010
0000
,  // measure 39
1000
0000
0001
0000
,  // measure 40
1000
0000
0000
0000
,  // measure 41
0001
0000
0001
0000
,  // measure 42
0010
0000
0010
0000
,  // measure 43
0001
0000
0001
0000
,  // measure 44
1000
0000
1000
0000
,  // measure 45
0010
0000
0000
0000
,  // measure 46
0010
0000
0000
0000
,  // measure 47
0010
0000
0100
0000
,  // measure 48
0010
0000
0000
0000
,  // measure 49
1000
0000
0100
0000
,  // measure 50
0001
0000
0100
0000
,  // measure 51
1000
0000
0100
0000
,  // measure 52
0001
0000
0000
0000
,  // measure 53
1000
0000
0010
0000
,  // measure 54
0001
0000
0010
0000
,  // measure 55
1000
0000
0010
0000
,  // measure 56
0001
0000
0000
0000
,  // measure 57
1000
0000
0100
0000
,  // measure 58
0010
0000
0100
0000
,  // measure 59
1000
0000
0100
0000
,  // measure 60
0010
0000
0000
0000
,  // measure 61
0001
0000
0001
0000
,  // measure 62
0100
0000
0100
0000
,  // measure 63
0010
0000
0010
0000
,  // measure 64
1000
0000
0001
0000
,  // measure 65
1000
0000
0000
0000
;
