#TITLE:Sahara;
#SUBTITLE:;
#ARTIST:Hommarju;
#TITLETRANSLIT:;
#SUBTITLETRANSLIT:;
#ARTISTTRANSLIT:;
#GENRE:;
#CREDIT:;
#BANNER:Sahara.png;
#BACKGROUND:Sahara-bg.png;
#LYRICSPATH:;
#CDTITLE:;
#MUSIC:Sahara.ogg;
#OFFSET:-0.651000;
#SAMPLESTART:43.767792;
#SAMPLELENGTH:12.000000;
#SELECTABLE:YES;
#BPMS:0.000000=95.000000
,40.000000=100.000000
,42.000000=110.000000
,44.000000=115.000000
,46.000000=120.000000
,48.000000=124.999992
,50.000000=130.000000
,52.000000=135.000000
,54.000000=140.000000
,56.000000=145.000000
,150.000000=140.000000
,152.000000=135.000000
,154.000000=130.000000
,158.000000=124.999992
,160.000000=120.000000
,164.000000=124.999992
,166.000000=130.000000
,168.000000=135.000000
,170.000000=140.000000
,172.000000=145.000000
,174.000000=150.000000
,176.000000=155.000000
;
#STOPS:
;
#BGCHANGES:;
#KEYSOUNDS:;
#ATTACKS:;

//---------------dance-single - ----------------
#NOTES:
     dance-single:
     :
     Hard:
     15:
     0.726273,0.782018,0.166556,0.150693,0.594842,641.000000,620.000000,21.000000,19.000000,0.000000,0.000000,0.726273,0.782018,0.166556,0.150693,0.594842,641.000000,620.000000,21.000000,19.000000,0.000000,0.000000:
0000
0000
0000
0000
,
0000
0000
0000
0000
,
1010
0000
0000
0000
0010
1000
0100
0000
1000
0000
0001
0010
0100
1000
0100
0000
,
0011
0000
0000
0000
0001
0100
0001
0000
0010
0000
0100
1000
0001
0100
0001
0000
,
1010
0000
1000
0000
0001
0100
0001
0000
0010
0000
0001
0000
1000
0010
0100
0001
,
0010
0000
0000
0000
0001
0010
0100
0000
1000
0000
1000
0000
0001
0000
0100
0000
,
0101
0000
0000
0000
1000
0001
0010
0000
0001
0000
1000
0100
0010
0001
0010
0000
,
1100
0000
0000
0000
1000
0010
1000
0000
0100
0000
0010
0001
1000
0010
1000
0000
,
0101
0000
0001
0000
1000
0010
1000
0000
0100
0000
1000
0000
0001
0100
0010
1000
,
0100
0000
0000
0000
1000
0100
0010
0000
0001
0000
1000
0010
1000
0001
1000
0000
,
0010
0000
0100
0001
0100
0000
0010
0000
1000
0000
0000
0000
0100
0000
0010
0000
,
0001
1000
0001
1000
0010
0100
0010
0000
0010
0000
0000
0000
0100
0000
0001
0010
,
0001
0000
1000
0100
1000
0000
0001
0000
1000
0000
0000
0000
0001
0000
0001
0000
,
1000
0100
1000
0100
0010
0001
0010
0000
0100
0000
0000
0000
1000
0000
0001
0100
,
0001
0000
1000
0100
1000
0000
0010
0000
1000
0000
0001
0100
0001
0000
0010
0000
,
0001
0000
1000
0100
1000
0000
0010
0000
1000
0000
0001
0100
0001
0000
0010
0000
,
0001
0000
1000
0100
1000
0000
0001
0100
0001
0000
1000
0100
1000
0000
0001
0100
,
0001
0010
0001
0010
0100
1000
0100
1000
0001
0100
0001
0100
0010
1000
0010
1000
,
0200
0000
0000
0300
,
0010
0000
0001
1000
0010
0000
1000
0001
0010
0000
0100
0000
0110
0000
0000
0000
,
0001
0010
0100
1000
0100
0010
0001
0000
1000
0000
0010
0000
1000
0000
0000
0000
,
1000
0010
1000
0001
1000
0000
0100
0010
0001
0000
0100
0000
0001
0000
0000
0010
,
0000
0010
0001
0000
0001
0000
1000
0010
1000
0000
0001
0000
0001
0000
0100
0010
,
0100
0001
1000
0000
0100
0010
0100
1000
0000
1000
0001
0000
1000
0000
0010
0000
,
1000
0000
0001
0100
0010
0100
0001
0000
1000
0000
0100
0000
1000
0000
0000
0000
,
0010
0000
1000
0001
0100
0001
0010
0000
0100
0000
1000
0001
1000
0000
0010
0000
,
1000
0100
1000
0100
0010
0001
0010
0001
1000
0010
0000
0010
1000
0000
0100
0000
,
1000
0100
1000
0001
0100
0001
1000
0100
0010
0001
0020
0000
0230
0000
0300
0000
,
1001
0000
0001
1000
0010
0000
0010
0000
1000
0001
0010
0000
0010
0000
0100
0000
,
1100
0000
1000
0001
0010
0000
0010
0000
0001
1000
0010
0000
0010
0000
0000
0000
,
0101
0000
0100
0001
0010
0000
0010
0000
0100
1000
0010
0000
0010
0000
1000
0000
,
1100
0000
0100
0010
0000
0010
0000
0010
0000
0010
0002
0000
2003
0000
3000
0000
,
1010
0000
1000
0001
0010
0000
0010
0000
0001
1000
0010
0000
0010
0000
1000
0000
,
1100
0000
0100
1000
0001
0000
0001
0000
0100
0001
1000
0000
1000
0000
0000
0000
,
0011
0000
1000
0100
0010
0000
0010
0000
0001
0100
0010
0000
0010
0000
1000
0000
,
1010
0000
0001
0010
0000
0010
0000
0010
0001
1000
0020
0000
0230
0000
0301
1000
,
0001
0000
0100
0010
0100
0000
0001
0000
1000
0000
0000
0000
0001
0000
0010
0000
,
0001
1000
0010
1000
0001
0100
0001
0000
0010
0000
0000
0000
0010
0000
0001
1000
,
0010
0000
1000
0100
1000
0000
0001
0000
0100
0000
0000
0000
0010
0000
1000
0000
,
0001
0010
0100
0010
0001
1000
0001
0000
0100
0000
0000
0000
0001
0010
0001
0000
,
1000
0000
0010
0100
0010
0000
1000
0000
0100
0000
0000
0100
1000
0000
0010
0000
,
1000
0100
0010
0001
0000
0001
0010
0000
0001
0000
0000
0000
1000
0000
0001
0100
,
0001
0000
0001
0010
0001
0000
1000
0000
0100
0000
0000
0000
1000
0000
0010
0000
,
0100
0001
1000
0001
0100
0010
0100
0000
0001
0000
0000
0000
0001
0000
0000
0000
,
1000
0100
0010
0100
1000
0001
1000
0000
,
0001
0100
0010
0100
0001
1000
0001
0000
,
1000
0010
0001
0010
1000
0100
1000
0000
,
0001
0010
1000
0010
0001
0100
0001
0000
,
1000
0100
0010
0001
0100
0010
1000
0100
,
0010
0001
0100
0010
1000
0100
0010
0001
,
1000
0010
0100
0001
1000
0010
0100
0001
1000
0100
1000
0100
0010
0001
0010
0001
,
0200
0000
0320
0000
2030
0000
0002
3003
,
0001
0000
1000
0100
0010
0000
0010
0000
0001
0000
0010
0000
0100
0000
1000
0000
,
0001
0000
0010
0100
0010
0000
0001
0000
1000
0010
1000
0100
2000
0000
0000
0000
,
3001
0000
1000
0100
0010
0000
0010
0000
0001
0000
0010
0000
0100
0000
1000
0000
,
0001
0100
0001
0000
0001
0010
0001
0000
0010
0100
1000
0000
1001
0000
0001
0000
,
0001
0000
1000
0100
0010
0000
0010
0000
0001
0000
0100
0000
0010
0000
1000
0000
,
0001
0000
0010
0100
0010
0000
0001
0000
1000
0010
1000
0100
2000
0000
0000
0000
,
3001
0000
1000
0100
0010
0000
0010
0000
0001
0000
0100
0000
0010
0000
1000
0000
,
0001
0100
0001
0100
0001
0000
0010
0000
0100
0000
2000
0000
0002
0000
3003
0000
,
0101
1100
0101
0010
1000
0001
1000
0200
,
0000
0000
1300
0000
0001
0000
0100
0000
0010
1000
0010
0100
0020
0000
0000
0000
,
0130
0001
0010
0001
1000
0100
0001
0100
,
1000
0010
0100
0001
1000
0020
0130
0100
,
0000
0001
1001
0100
0010
0001
1000
0002
,
0000
0000
1003
0000
0100
0000
1000
0000
0010
1000
0010
0100
0010
0000
0100
0000
,
0001
0010
1000
0001
0100
1000
0001
1000
,
0010
0100
0010
0100
0001
0000
1000
0000
0001
0000
0010
0000
0001
0000
0000
0000
,
1100
0000
0000
0000
;

//---------------dance-single - ----------------
#NOTES:
     dance-single:
     :
     Medium:
     11:
     0.543855,0.566289,0.055519,0.111037,0.047587,480.000000,473.000000,7.000000,14.000000,0.000000,0.000000,0.543855,0.566289,0.055519,0.111037,0.047587,480.000000,473.000000,7.000000,14.000000,0.000000,0.000000:
0000
0000
0000
0000
,
0000
0000
0000
0000
,
0010
0000
0000
0000
1000
0001
1000
0000
0100
0000
0010
0000
0001
0100
0001
0000
,
0010
0000
0000
0000
0001
1000
0001
0000
0010
0000
0100
0000
1000
0100
1000
0000
,
0010
0000
0010
0000
1000
0001
1000
0000
0100
0000
0010
0000
0001
1000
0001
0000
,
0100
0000
0000
0000
0010
1000
0010
0000
0100
0000
0001
0000
1000
0000
0001
0000
,
0010
0000
0000
0000
0011
0000
0001
0000
1000
0000
0010
0000
0100
0001
0100
0000
,
0010
0000
0000
0000
1010
0000
1000
0000
0010
0000
0100
0000
0001
1000
0001
0000
,
0010
0000
0010
0000
0100
1000
0100
0000
0010
0000
0001
0000
1000
0010
1000
0000
,
0001
0000
0000
0000
0101
0000
0001
0000
1000
0000
0100
0000
0010
0001
0010
0000
,
0100
1000
0001
1000
0020
0000
0130
0001
,
0100
0001
1000
0001
0020
0000
0031
1000
,
0001
0100
1000
0100
0002
0000
1003
0010
,
1000
0100
0001
0100
2000
0000
3010
0100
,
0001
0100
0010
0000
1000
0100
0010
0000
,
0001
0100
0010
0000
1000
0100
0010
0000
,
0001
0100
0001
1000
0100
1000
0010
0100
,
0001
0010
1000
0010
0001
0100
1000
0100
,
0002
0000
0000
0000
,
1003
0010
0100
0010
1000
0001
1001
0000
,
1000
0100
0010
0100
1000
0001
0001
0000
,
1000
0010
0100
0001
0010
0100
0010
0000
,
0001
0100
0001
0100
0010
1000
0010
1000
,
0001
0010
0100
1000
0010
0100
0010
0000
,
1000
0100
0010
0100
1000
0001
0001
0000
,
1000
0010
0100
0001
0010
0100
0010
0000
,
0001
0010
0001
0010
0100
1000
0100
1000
,
0001
0100
0010
1000
0010
0100
0002
0000
,
1003
0100
0010
0010
0100
1000
0001
0000
,
0001
0100
0010
0010
0100
0001
1000
0000
,
0100
0010
0001
0001
0010
0100
1000
0000
,
0001
0100
0001
0100
0010
1000
0020
0000
,
0130
0001
0010
0010
0100
1000
0001
0000
,
1000
0100
0010
0010
0001
1000
1000
0000
,
0001
0010
0100
0100
0010
0001
1000
0000
,
0001
0100
0001
0100
0010
1000
0002
0000
,
1003
0100
0010
0100
2000
0000
3001
0010
,
0001
0100
0010
0100
0002
0000
1003
0010
,
1000
0100
0001
0100
2000
0000
3001
0010
,
0001
0100
1000
0100
0002
0000
1003
0010
,
1000
0001
0010
0100
1000
0000
0001
0010
,
0001
0100
1000
0100
0001
0000
1000
0100
,
0010
0001
0100
0001
0020
0000
0130
1000
,
0001
0010
0100
0010
0002
0000
0103
0000
,
0010
1000
0001
1000
0100
0010
0100
0000
,
0010
0001
1000
0001
0100
0010
0100
0000
,
0010
1000
0100
1000
0001
0100
0001
0000
,
0010
0001
0100
0001
1000
0100
1000
0000
,
0001
0010
0100
0010
0001
1000
0010
1000
,
0001
0100
1000
0100
0001
1000
0001
0000
,
1000
0100
0010
0001
0100
0010
1000
0100
,
1000
0010
0101
1100
,
0100
0010
0001
0001
1000
0010
1000
0100
,
0000
0010
0001
1000
0010
0100
0010
0000
,
1000
0100
0010
0010
0001
0100
0001
1000
,
0010
0100
0010
1000
0001
0010
0100
0000
,
0100
0010
0001
0001
1000
0010
1000
0100
,
0000
0010
0001
1000
0010
0100
0010
0000
,
1000
0100
0010
0010
0001
0100
0001
1000
,
0100
0010
0100
0010
0001
0100
1000
0000
,
0100
0001
0010
0001
1000
0100
1000
0001
,
0000
0100
1000
0100
0010
1000
0010
0000
,
0100
0001
0010
0001
1000
0100
1000
0001
,
0000
1000
0100
0010
0001
0000
0100
0100
,
0000
0010
1000
0010
0100
0001
0100
1000
,
0000
0100
0001
0010
0100
1000
0100
0000
,
0010
0001
1000
0010
0100
0001
1000
0100
,
0010
0001
0010
0100
0010
0001
1000
0000
,
0101
0000
0000
0000
;

//---------------dance-single - ----------------
#NOTES:
     dance-single:
     :
     Easy:
     8:
     0.385231,0.377526,0.039656,0.007931,0.000000,340.000000,335.000000,5.000000,1.000000,0.000000,0.000000,0.385231,0.377526,0.039656,0.007931,0.000000,340.000000,335.000000,5.000000,1.000000,0.000000,0.000000:
// measure 0
0000
0000
0000
0000
,  // measure 1
0000
0000
0000
0000
,  // measure 2
1000
0000
0010
1000
0001
0010
0001
0000
,  // measure 3
1000
0000
0001
0010
0001
1000
0010
0000
,  // measure 4
0100
0100
0010
0010
1000
0001
1000
0000
,  // measure 5
0100
0000
0010
0001
1000
0000
0010
0010
,  // measure 6
1000
0000
0100
0010
0100
1000
0001
0000
,  // measure 7
0100
0000
0010
0100
0001
1000
0001
0000
,  // measure 8
0010
0010
0001
0000
1000
0010
1000
0000
,  // measure 9
0100
0000
0010
0001
1000
0010
1000
0000
,  // measure 10
0001
0010
0100
1000
,  // measure 11
0010
0100
0010
0000
0001
0000
0010
0000
,  // measure 12
1000
0100
0010
0001
,  // measure 13
0100
0010
0100
0000
1000
0000
0100
0000
,  // measure 14
0001
0010
0001
0000
0100
0000
0001
0000
,  // measure 15
1000
0010
1000
0000
0100
0000
1000
0000
,  // measure 16
0001
1000
0001
0000
1000
0001
1000
0000
,  // measure 17
0010
1000
0010
0000
0100
0001
0100
0000
,  // measure 18
0020
0000
0000
0000
,  // measure 19
1030
0000
1000
0000
0001
0010
0001
0000
,  // measure 20
1000
0010
1000
0000
0100
0000
0010
0000
,  // measure 21
0001
0100
0001
0000
0010
0000
0100
0000
,  // measure 22
1000
0010
0010
0000
1000
0001
0001
0000
,  // measure 23
1000
0100
0100
0000
0010
0000
0001
0000
,  // measure 24
0100
0010
0100
0000
0001
0000
1000
0000
,  // measure 25
0100
0010
0100
0000
1000
0000
0001
0000
,  // measure 26
1000
0010
1000
0000
0010
0100
0010
0000
,  // measure 27
0100
0000
0001
0000
1000
0100
1000
0000
,  // measure 28
0001
0000
0010
0100
0000
0010
0001
0000
,  // measure 29
1000
0000
0001
0010
0000
0100
0010
0000
,  // measure 30
0001
0000
0100
0010
0000
0100
0001
0000
,  // measure 31
1000
0000
0100
0000
0010
0001
1000
0000
,  // measure 32
0001
0000
1000
0010
0000
0100
0010
0000
,  // measure 33
1000
0000
0010
0100
0000
0010
1000
0000
,  // measure 34
0001
0000
0010
0100
0000
1000
0100
0000
,  // measure 35
0010
0000
0001
0000
1000
0010
1000
0000
,  // measure 36
0001
0100
0010
1000
,  // measure 37
0100
0010
0100
0000
0001
0000
0100
0000
,  // measure 38
1000
0010
0100
0001
,  // measure 39
0010
0100
0010
0000
1000
0000
0010
0000
,  // measure 40
0001
0100
0001
0000
0010
0000
0001
0000
,  // measure 41
1000
0100
1000
0000
0010
0000
1000
0000
,  // measure 42
0001
0100
0001
0000
0010
0000
0100
0000
,  // measure 43
1000
0100
1000
0000
0001
0000
0000
0000
,  // measure 44
0001
0000
0100
0000
0010
1000
0010
0000
,  // measure 45
1000
0000
0100
0000
0010
0001
0010
0000
,  // measure 46
0001
0000
0100
0000
0010
1000
0010
0000
,  // measure 47
1000
0000
0100
0000
0010
0001
0010
0000
,  // measure 48
0100
1000
0100
1000
,  // measure 49
0001
0000
0100
0000
0001
1000
0001
0000
,  // measure 50
0100
0010
0100
0001
,  // measure 51
1000
0100
0011
0011
,  // measure 52
1000
0010
1000
0000
0100
1000
0100
0000
,  // measure 53
0010
0000
0001
0000
1000
0010
1000
0000
,  // measure 54
0001
0010
0001
0000
0100
0001
0100
0000
,  // measure 55
0010
0000
1000
0000
0001
0000
1000
0010
,  // measure 56
1000
0001
1000
0000
0100
0010
0100
0000
,  // measure 57
1000
0000
0001
0000
1000
0010
1000
0000
,  // measure 58
0001
1000
0001
0000
0100
0010
0100
0000
,  // measure 59
0001
0000
1000
0000
0100
0010
0100
0000
,  // measure 60
0000
1000
0001
0000
0100
0001
0100
0000
,  // measure 61
0000
0001
1000
0000
0010
0100
0010
0000
,  // measure 62
0000
1000
0001
0000
0100
0001
0100
0000
,  // measure 63
0010
1000
0101
1100
,  // measure 64
0000
0001
1000
0000
0100
1000
0100
0000
,  // measure 65
0000
1000
0001
0000
0010
0100
0010
0000
,  // measure 66
0001
0010
0001
0000
1000
0010
1000
0000
,  // measure 67
0001
0100
0010
1000
,  // measure 68
0101
0000
0000
0000
;

//---------------dance-single - ----------------
#NOTES:
     dance-single:
     :
     Beginner:
     4:
     0.176753,0.242695,0.000000,0.000000,0.000000,156.000000,156.000000,0.000000,0.000000,0.000000,0.000000,0.176753,0.242695,0.000000,0.000000,0.000000,156.000000,156.000000,0.000000,0.000000,0.000000,0.000000:
0000
0000
0000
0000
,
0000
0000
0000
0000
,
1000
0000
1000
0000
,
0001
0000
0001
0000
,
1000
0000
0001
0000
,
1000
0000
0001
0000
,
0100
0010
0100
0000
,
0001
0001
1000
0000
,
0100
0010
0100
0000
,
1000
1000
0001
0000
,
1000
0000
0010
0000
,
1000
0000
1000
0000
,
0001
0000
0010
0000
,
0001
0000
0001
0000
,
0100
0000
0100
0000
,
0100
0000
0100
0000
,
0100
0100
0100
0100
,
0100
0100
0100
0100
,
0100
0000
0000
0000
,
0000
0000
0000
0000
,
0001
0000
1000
0000
,
0001
1000
0001
0000
,
0010
0000
0001
0000
,
1000
0100
1000
0000
,
0010
0010
0010
0000
,
0010
0010
0010
0000
,
1000
0000
0001
0000
,
1000
0100
1000
0000
,
0001
0000
0001
0000
,
0010
0000
0010
0000
,
0001
0000
0001
0000
,
1000
1000
1000
0000
,
0100
0000
0100
0000
,
0010
0000
0010
0000
,
0100
0000
0100
0000
,
0010
0010
0010
0000
,
0001
0000
0100
0000
,
0001
0000
0001
0000
,
1000
0000
0100
0000
,
1000
0000
1000
0000
,
0010
0000
0010
0000
,
0100
0000
0100
0000
,
0001
0000
0001
0000
,
1000
0000
1000
0000
,
0100
0000
0000
0000
,
0100
0000
0000
0000
,
0100
0000
0000
0000
,
0100
0000
0000
0000
,
0100
1000
0100
1000
,
0001
0100
0001
0000
,
1000
0000
1000
0000
,
0010
0010
0010
0000
,
1000
0000
0001
0000
,
1000
0001
1000
0000
,
0100
0000
0010
0000
,
0100
0100
0100
0000
,
1000
0000
0001
0000
,
1000
0001
1000
0000
,
0010
0000
0100
0000
,
0010
0010
0010
0000
,
0000
1000
0001
1000
,
0000
0100
0010
0010
,
0000
0001
1000
0001
,
0100
0000
0100
0000
,
0000
0001
1000
0001
,
0000
0010
0100
0100
,
0000
1000
0001
1000
,
0010
0010
0010
0000
,
0100
0000
0000
0000
;
