#TITLE:Overslept;
#SUBTITLE:;
#ARTIST:PARKGOLF;
#TITLETRANSLIT:;
#SUBTITLETRANSLIT:;
#ARTISTTRANSLIT:;
#GENRE:DRUM'N'BASS;
#CREDIT:;
#BANNER:Overslept.png;
#BACKGROUND:Overslept-bg.png;
#LYRICSPATH:;
#CDTITLE:;
#MUSIC:Overslept.ogg;
#OFFSET:-0.106000;
#SAMPLESTART:91.857803;
#SAMPLELENGTH:12.000000;
#SELECTABLE:YES;
#BPMS:0.000000=170.000534
;
#STOPS:
;
#BGCHANGES:;
#KEYSOUNDS:;
#ATTACKS:;

//---------------dance-single - ----------------
#NOTES:
     dance-single:
     sessu:
     Hard:
     18:
     1.184382,1.694401,0.396400,0.210851,1.771150,983.000000,936.000000,47.000000,25.000000,0.000000,0.000000,1.184382,1.694401,0.396400,0.210851,1.771150,983.000000,936.000000,47.000000,25.000000,0.000000,0.000000:
// measure 0
0000
0000
0000
0000
,  // measure 1
1000
0000
0001
0000
0010
0000
0100
1000
0001
1000
0100
0000
0100
0000
0010
0000
,  // measure 2
0000
0000
0002
0003
,  // measure 3
1000
0000
0001
0000
1000
0100
1000
0100
0010
0000
0000
0000
0001
0000
0100
0000
0010
0000
0100
0000
0001
0000
0000
0000
0001
0000
0000
0000
0010
0000
0000
0000
,  // measure 4
0200
0000
0000
0000
0300
0000
0000
0000
1000
0000
0010
0100
0001
0001
0000
0010
,  // measure 5
0100
0000
0010
0000
0001
0000
1000
0001
0010
0001
0100
0000
0100
0000
0010
0000
,  // measure 6
0000
0000
2000
3000
,  // measure 7
0001
0000
1000
0000
0001
0100
0001
0100
0010
0000
0000
0000
1000
0000
0100
0000
0010
0000
0100
0000
1000
0000
0000
0000
1000
0000
0000
0000
0010
0000
0000
0000
,  // measure 8
0010
0000
0010
0000
0001
0010
0100
1000
0002
0000
1003
0010
0100
0100
0000
0001
,  // measure 9
1000
0100
1000
0100
1000
0100
1000
0100
1000
0100
1000
0100
1000
0100
1000
0100
,  // measure 10
1000
0100
1000
0100
1000
0100
1000
0100
1000
0100
1000
0100
1000
0100
1000
0100
,  // measure 11
0010
0001
0010
0001
0010
0001
0010
0001
0010
0001
0010
0001
0010
0001
0010
0001
,  // measure 12
0010
0001
0010
0001
0010
0001
0010
0001
0010
0001
0010
0001
0010
0001
0010
0001
,  // measure 13
1000
0100
0010
0001
0010
0100
1000
0100
0010
0001
0010
0100
1000
0100
0010
0001
0010
0100
1000
0100
0010
0001
0010
0100
,  // measure 14
1000
0100
0010
0001
0010
0100
1000
0100
0010
0001
0010
0100
1000
0100
0010
0001
0010
0100
1000
0100
0010
0001
0010
0100
,  // measure 15
2000
0000
0000
0000
,  // measure 16
0000
0000
0000
3010
,  // measure 17
0101
0000
0000
0000
0010
0000
0000
1000
0000
0000
0001
0000
0000
1000
0000
0000
,  // measure 18
1100
0000
0000
0000
0100
0000
0000
0010
0000
0000
0001
0000
0000
1000
0000
0000
,  // measure 19
0101
0000
0000
0000
0010
0000
0000
1000
0000
0000
0001
0000
0000
0000
1000
0000
,  // measure 20
1100
0000
0000
0000
0100
0000
0100
0010
0000
0000
0001
0000
0000
1000
0000
0000
,  // measure 21
0101
0000
0000
0000
0010
0000
0000
1000
0000
0000
0001
0000
0000
1000
0000
0000
,  // measure 22
1100
0000
0000
0000
0100
0000
0000
0010
0000
0000
0001
0000
0000
1000
0000
0000
,  // measure 23
0101
0000
0000
0000
0010
0000
0000
1000
0000
0000
0001
0000
0000
0000
1000
0000
,  // measure 24
1100
0000
0000
0000
0100
0000
0100
0010
0000
0000
0001
0000
0000
1000
0000
0000
,  // measure 25
0100
0100
0100
0100
0100
0010
0001
1000
0100
0100
0100
0100
0100
0010
0001
1000
,  // measure 26
0100
0100
0100
0100
0100
0010
0001
1000
0100
0001
0100
0001
0100
1000
0100
1000
,  // measure 27
0010
0010
0010
0010
0010
0100
0001
1000
0010
0010
0010
0010
0010
0100
0001
1000
,  // measure 28
0010
0010
0010
0010
0010
0100
0001
1000
0001
0010
0100
1000
0001
0010
0100
0010
,  // measure 29
0001
0001
0001
0001
0001
0010
0100
1000
0001
0001
0001
0001
0001
0010
0100
1000
,  // measure 30
0001
0100
0010
1000
0001
1000
0010
0100
0001
0010
0100
1000
0001
1000
0100
0010
,  // measure 31
0101
0010
0100
0010
1100
0010
0100
0010
0101
0010
0100
0010
1100
0010
0100
0010
,  // measure 32
0101
0010
0001
1000
0001
0100
0010
1000
0100
0010
0100
0010
0001
1000
0001
1000
,  // measure 33
0002
0100
0013
0100
0001
0000
1000
0100
0010
0000
1000
0000
0010
0001
0100
0001
,  // measure 34
1000
0100
0010
0100
1000
0000
0010
1000
0100
0010
0100
0000
0010
0001
0100
0000
,  // measure 35
0001
0010
0100
0010
0001
0000
1000
0010
0100
0000
1000
0000
0100
0001
0010
0001
,  // measure 36
1000
0000
0000
0100
0000
0000
0010
0000
0000
0100
0000
0000
1000
0000
0000
0000
0000
0000
0010
0000
0000
1000
0000
0000
0001
0000
0000
0000
0000
0000
0011
0000
0000
0000
0000
0000
1000
0000
0100
0000
0010
0000
0001
0000
0000
1000
0000
0000
,  // measure 37
0001
0100
0001
0000
0011
0000
1000
0100
1000
0000
1010
0000
0001
0010
0100
1000
,  // measure 38
0010
0100
0001
0000
1010
0000
0010
0100
0001
0001
0010
0000
0100
1000
0100
1000
,  // measure 39
0001
0100
0001
0000
0011
0000
1000
0100
1000
0000
1010
0000
0001
0010
0100
1000
,  // measure 40
0010
0100
0001
0000
1010
0000
0010
0100
0001
0001
0010
0000
0001
1000
0001
1000
,  // measure 41
0010
0000
0100
0000
0001
0000
0100
0010
0000
1000
0100
1000
0001
0010
0001
0010
,  // measure 42
0100
1000
0010
0000
1010
0000
0100
0001
0010
0010
0100
0000
0010
0100
1000
0000
,  // measure 43
0010
1000
0100
0000
1100
0000
0010
0001
0100
0000
0101
0000
0001
0010
0001
0010
,  // measure 44
0100
0000
0000
1000
0000
0000
0010
0000
0000
0000
0000
0000
1010
0000
0000
0000
0000
0000
0100
0000
0000
0001
0000
0000
0010
0000
0000
0000
0000
0000
0110
0000
0000
0000
0000
0000
0001
0000
0010
0000
0100
0000
1000
0000
0000
0001
0000
0000
,  // measure 45
1000
0010
0100
0000
1010
0000
0001
0010
0100
0000
0011
0000
1000
0100
0010
0100
,  // measure 46
1000
0010
0100
0000
0101
0000
0001
0010
0100
0100
0010
0000
0001
1000
0100
0000
,  // measure 47
1000
0010
0100
0000
1010
0000
0001
0010
0100
0000
0011
0000
1000
0100
0010
0100
,  // measure 48
1000
0010
0100
0001
0010
0000
0001
0010
0100
1000
0100
1000
0010
0100
0010
0100
,  // measure 49
0002
0000
0000
0000
0003
0000
0000
0010
0000
0000
0000
0000
0000
0010
0000
0000
,  // measure 50
1100
0000
0000
0000
0000
0000
0000
0002
0000
0000
0000
0003
0000
1000
0000
0000
,  // measure 51
1010
0000
0000
0000
0000
0000
0000
0100
0000
0000
0000
0000
0000
0000
0100
0000
,  // measure 52
0002
0000
0000
0000
0003
0000
1000
0010
0000
0000
0010
0000
0000
0000
0000
0000
,  // measure 53
0002
0000
0000
0000
0003
0000
0000
0010
0000
0000
0000
0000
0000
0010
0000
0000
,  // measure 54
1100
0000
0000
0000
0000
0000
0000
0002
0000
0000
0000
0003
0000
1000
0000
0000
,  // measure 55
0001
0000
1000
0000
0001
0100
0001
0100
0010
0000
0000
0000
1000
0000
0001
0000
0010
0000
0100
0000
1000
0000
0000
0000
1000
0000
0000
0000
0010
0000
0000
0000
,  // measure 56
0010
0000
0010
0000
1000
0100
0010
0001
0100
0000
0010
0100
0001
0001
0000
0001
,  // measure 57
1000
0010
1000
0100
1000
0001
0010
0100
0010
0001
0010
1000
0010
0100
1000
0001
,  // measure 58
0100
1000
0100
0001
0100
0010
1000
0100
0010
0100
0100
1000
0010
0100
0100
0001
,  // measure 59
1000
0100
0010
0001
1000
0010
1000
0100
0010
0001
0100
0010
1000
0100
0001
0100
,  // measure 60
1000
0010
0100
0001
1000
0010
1000
0100
1000
0010
0100
0001
1000
0001
0010
0100
,  // measure 61
1000
0000
0001
0000
1000
0000
0001
0000
1000
0000
0001
0000
1000
0000
0000
0100
0000
0000
0010
0000
0000
0001
0000
0000
0100
0000
0010
0000
0100
0000
0010
0000
0100
0000
0010
0000
0100
0000
0000
0001
0000
0000
0010
0000
0000
0100
0000
0000
,  // measure 62
1000
0000
0001
0000
1000
0000
0001
0000
1000
0000
0001
0000
1000
0000
0000
0100
0000
0000
0010
0000
0000
0001
0000
0000
0100
0000
0010
0000
1000
0000
0001
0000
0010
0000
0100
0000
1000
0000
0100
0000
0010
0000
0001
0000
1000
0000
0001
0000
,  // measure 63
0200
0000
0000
0000
0010
0000
0000
0010
0000
0000
0010
0000
0000
0000
0010
0000
,  // measure 64
0302
0000
0000
0000
1000
0000
1000
1000
0000
0000
1000
0000
0000
1000
0000
0000
,  // measure 65
2003
0000
0000
0000
3200
0000
0000
0320
0000
0000
0032
0000
0000
0203
0000
0000
,  // measure 66
0310
0001
0100
0000
1010
0000
0010
1000
0100
0010
0100
1000
0001
0001
0100
0000
,  // measure 67
1010
0000
1001
0000
1100
0000
0100
0010
0000
0100
1000
0001
0010
0100
0010
0100
,  // measure 68
1000
0000
0000
0001
0000
0000
0100
0000
0000
0000
0000
0000
1010
0000
0000
0000
0000
0000
0100
0000
0000
0001
0000
0000
1000
0000
0100
0000
0010
0000
0001
0000
0000
1000
0000
0000
0001
0000
0000
0010
0000
0000
0100
0000
0000
1000
0000
0000
,  // measure 69
0001
0100
0010
0000
1001
0000
0010
0100
1000
0000
1001
0000
0001
0100
1000
0100
,  // measure 70
0001
0010
0100
0000
0011
0000
1000
0010
0100
0000
1010
0000
1000
0010
0100
0000
,  // measure 71
0001
1000
0100
1000
0010
0000
1000
0001
0100
0001
0010
0000
0010
0100
1000
0001
,  // measure 72
1000
0010
1000
0010
1000
0010
1000
0010
0100
0100
0100
0100
0001
0010
0001
0010
,  // measure 73
0200
1000
0301
0000
0200
0001
1300
0000
0020
1000
0031
0000
0020
0001
1030
0000
,  // measure 74
0020
1000
0130
0000
0020
0001
0130
0000
1010
0000
0100
0001
0000
0010
0100
1000
,  // measure 75
0001
0100
0010
0100
1000
0001
1000
0100
0001
0010
0100
1000
0001
0100
0010
1000
,  // measure 76
0001
0010
0001
0010
0001
1000
0010
0100
0001
0010
0100
1000
0010
0100
1000
0100
,  // measure 77
0001
0010
0100
0010
0101
0010
0100
0010
1000
0010
0100
0010
1100
0010
0100
0010
,  // measure 78
0001
1000
0010
1000
0011
1000
0010
1000
0001
1000
0100
1000
0101
0001
1000
0000
,  // measure 79
0001
0100
0010
0100
1000
1000
0001
0010
0100
1000
0010
0100
0001
0010
0100
1000
,  // measure 80
0010
0000
0000
0010
0000
0000
0010
0000
0000
0010
0000
0000
0010
0000
0000
0000
0000
0000
1000
0000
0100
0000
0010
0000
0001
0000
0000
0100
0000
0000
1000
0000
0000
0100
0000
0000
0001
0000
0000
0010
0000
0000
0001
0000
0000
0010
0000
0000
,  // measure 81
0200
0000
0000
0000
,  // measure 82
0300
0000
0000
0000
;
