#TITLE:Old Town Road (Remix);
#SUBTITLE:;
#ARTIST:Lil Nas X & Billy Ray Cyrus feat. Young Thug & Mason Ramsey;
#TITLETRANSLIT:;
#SUBTITLETRANSLIT:;
#ARTISTTRANSLIT:;
#GENRE:;
#CREDIT:;
#BANNER:Old Town Road (Remix).png;
#BACKGROUND:Old Town Road (Remix)-bg.png;
#LYRICSPATH:;
#CDTITLE:;
#MUSIC:Old Town Road (Remix).ogg;
#OFFSET:1.286735;
#SAMPLESTART:22.812962;
#SAMPLELENGTH:12.000000;
#LASTBEATHINT:0.575240;
#SELECTABLE:YES;
#BPMS:0.000000=136.000000
;
#STOPS:
;
#BGCHANGES:2.958=Old Town Road (Remix).mp4=1.000=1=0=1===CrossFade==,
391.000=Old Town Road (Remix)-bg.png=1.000=1=0=1===CrossFade==,
99999=-nosongbg-=1.000=0=0=0 // don't automatically add -songbackground-
;
#KEYSOUNDS:;
#ATTACKS:;

//---------------dance-single - ----------------
#NOTES:
     dance-single:
     :
     Hard:
     9:
     0.431337,0.510823,0.116129,0.180000,0.014516,520.000000,500.000000,20.000000,31.000000,0.000000,0.000000,0.431337,0.510823,0.116129,0.180000,0.014516,520.000000,500.000000,20.000000,31.000000,0.000000,0.000000:
0000
0000
0000
0000
,
0000
0000
0000
0000
,
1000
0000
1000
0000
,
0010
0000
0010
0000
,
0001
0000
0001
0000
,
0100
0000
0010
0000
,
1000
0000
1000
0000
,
0100
0000
0100
0000
,
0010
0000
0010
0000
,
0001
0000
0100
0000
,
1000
0000
0100
0000
0010
0000
0001
0100
,
0010
1000
0000
1000
0000
0001
0100
0001
,
0000
0000
0020
0000
0030
0000
0001
0010
,
0001
0000
0100
0000
0010
1000
0001
1000
,
0100
0000
0010
0000
0001
0000
0001
0100
,
0010
1000
0000
1000
0000
0001
0010
0001
,
0200
0000
0010
0000
0302
0000
1003
0100
,
1000
0000
0001
0000
0001
0100
0010
0010
,
1000
0100
0001
0100
1000
0001
0011
0000
,
0001
0100
0010
0100
0010
1000
0101
0000
,
1000
0100
0001
0100
1000
0000
0001
0010
,
0100
1000
0001
1000
0200
0000
0310
0000
,
0001
0100
1000
0100
0001
0000
1010
0000
,
0001
0100
0001
0010
0001
0000
1100
0000
,
0001
0010
1000
0010
0001
1000
0001
0001
,
0100
0010
1000
0010
0100
0001
2000
0000
,
3100
0010
0001
0010
0100
0000
1000
0000
,
0001
0200
0010
0301
,
1000
0100
1000
0000
0010
0000
0010
0000
,
0200
0000
0002
0000
0303
0000
0010
1000
,
0001
0010
0100
0010
0001
0000
1000
0000
,
0010
0200
0001
0310
,
1000
0001
1000
0000
0100
0000
0010
0000
,
0002
0000
0200
0000
0303
0000
0010
1000
,
0001
0010
0001
0010
0100
1000
0100
1000
,
0001
0100
1000
0100
0001
0000
0110
0000
,
1000
0100
1000
0100
0010
0000
0001
1000
,
0001
0010
0001
0100
0001
0000
1000
0000
,
0010
0100
0001
0100
0010
1000
0001
0010
,
0001
0000
1000
0100
1000
0000
0020
0000
,
0130
0001
0101
1100
,
0010
0001
0100
0000
0010
1000
0200
0000
,
1300
0001
0010
0001
0100
0000
0010
1000
,
0010
0000
0100
0001
1000
0000
0011
0000
,
1000
0100
0000
0000
0001
0100
0000
0000
1001
0000
0000
0000
0010
1000
0000
0000
,
1000
0001
0000
0000
0001
0010
0000
0000
0100
0000
0000
0000
1001
0000
0000
0000
,
0100
0000
0010
0100
0001
0001
1000
0100
,
0010
0010
0100
1000
0001
0000
0100
0010
,
1000
0100
0001
0100
1000
0010
0100
0010
,
1000
0100
0010
0001
0100
0000
0100
0000
,
0001
1000
0001
0010
0001
0000
0100
0000
,
0020
2000
3030
0101
,
1000
0100
1000
0000
0001
0100
0001
0000
,
0010
0001
0010
0100
1000
0010
1000
0000
,
0100
0010
0001
0010
0100
0000
1000
0000
,
0001
0200
0010
0301
,
1000
0100
1000
0000
0010
0000
1000
0000
,
0001
0100
0001
0000
0010
0000
0001
0000
,
1000
1100
0001
0101
,
1000
0010
0100
0010
1000
0000
0001
0000
,
1000
0100
0010
0100
1000
0001
0010
0001
,
1000
0100
0010
0001
,
1000
0010
0100
0001
1000
0100
0010
0100
,
1000
0001
0100
0010
2000
0000
3001
0000
,
0010
0100
1000
0100
0001
0100
1000
0100
,
0010
0001
0010
0001
1000
0000
0010
0000
,
0101
0001
1000
0001
0010
0000
0100
0000
,
2000
0000
0002
0000
3003
0100
0001
0000
,
1000
0100
1000
0000
0001
0000
0001
0000
,
2000
0010
3200
0310
,
0001
0100
1000
0100
0001
0000
0010
0000
,
0200
0000
2000
0000
3300
0001
0100
0000
,
0001
1000
0001
0000
0100
0000
0100
0000
,
0020
2030
3200
0320
,
0031
1000
0100
1000
0001
0000
0110
0000
,
0001
1000
0010
0100
0001
0000
0101
0000
,
1000
0100
0010
0100
1000
0000
0001
1000
,
0001
0100
1000
0100
0002
0000
0013
0100
,
1000
0000
0000
0001
0100
0000
0000
0000
,
0010
1000
0100
0010
0001
1000
0001
0000
,
1000
0100
0010
0100
1000
0100
0001
0100
,
1000
0001
1000
0010
0100
0002
1000
1003
,
0010
0000
0101
0000
1100
0000
0010
0001
,
1000
0100
0000
0100
0000
1000
0001
1000
,
0000
0000
0020
0000
0100
0000
0130
0001
,
1000
0000
0001
0000
0001
0100
0010
0100
,
0001
0000
1100
0000
0101
0000
1000
0100
,
0010
0001
0000
0001
0000
0100
0010
0100
,
0000
0000
0002
0000
1000
0000
0103
0010
,
1000
0000
0100
0000
0010
0000
0001
1000
,
0001
0000
0001
0000
,
0100
0000
0100
0000
,
1000
0000
1000
0000
,
0100
0000
0010
0000
,
1000
0100
1000
0100
,
0001
0100
0001
0100
,
0010
0001
0010
0001
,
1000
0010
1000
0010
;

//---------------dance-single - ----------------
#NOTES:
     dance-single:
     :
     Challenge:
     14:
     0.617973,0.737856,0.360000,0.110323,0.197420,745.000000,683.000000,62.000000,19.000000,0.000000,0.000000,0.617973,0.737856,0.360000,0.110323,0.197420,745.000000,683.000000,62.000000,19.000000,0.000000,0.000000:
0000
0000
0000
0000
,
0000
0000
0000
0000
,
1000
0000
1000
0000
,
0010
0000
0010
0000
,
0001
0000
0001
0000
,
0100
0000
0010
0000
,
1000
0000
1000
0000
,
0100
0000
0100
0000
,
0010
0000
0010
0000
,
0001
0000
0000
0000
0100
0001
0010
0001
,
1000
0000
0100
0000
0010
0000
0001
0100
,
0010
1000
0000
1000
0000
0001
0100
0001
,
1000
0000
0020
0000
1030
0000
0001
0010
,
0001
0000
0100
0000
0010
1000
0001
1000
,
0100
0000
0010
0000
0001
0000
0001
0100
,
0010
1000
0000
1000
0000
0001
0010
0001
,
0200
0000
0010
0000
0302
0000
1003
0100
,
1000
0000
0110
0000
0001
0100
0010
0010
,
1000
0000
0000
0100
0000
0000
0001
0000
0000
0100
0000
0000
1000
0000
0000
0001
0000
0000
1000
0100
0010
0001
0000
0000
,
1000
0010
0100
0001
0010
0100
1002
0000
,
1003
0000
0000
0100
0000
0000
0001
0000
0000
0100
0000
0000
1000
0000
0000
0010
0000
0000
0100
0000
0000
0001
1000
0001
,
0010
0000
0000
0011
0000
0000
1100
0000
0000
0010
0000
0000
0001
0000
0000
1010
0000
0000
0100
0001
1000
0001
0000
0000
,
1000
0100
0001
0100
1000
0001
0010
0100
,
1000
0000
0000
0101
0000
0000
0101
0000
0000
0010
0000
0000
1000
0000
0000
0100
0000
0000
0100
1000
0001
1000
0000
0000
,
0010
0000
0000
1000
0000
0000
0001
0010
0100
1000
0000
0000
0001
0000
0000
0001
0000
0000
1000
0000
0000
0010
0000
0000
,
1000
0000
0000
0100
0000
0000
0100
0000
0000
0010
0000
0000
0001
0010
0100
1000
0000
0000
0010
0000
0000
1000
0000
0000
,
0001
0000
0000
0100
0000
0000
1000
0000
0000
0100
0000
0000
0001
0000
0000
1000
0000
0000
0001
0010
0100
1000
0000
0000
,
0001
0100
0010
0010
1000
0001
1200
0000
,
0310
0001
0100
1000
0100
0001
1000
0110
,
0001
0000
0000
0101
0000
0000
1100
0000
0000
0010
0000
0000
0001
0000
0000
1000
0000
0000
0001
0100
0001
1000
0000
0000
,
0001
0010
1000
0010
0001
0100
0010
1000
,
0001
0000
0000
0011
0000
0000
0011
0000
0000
1000
0000
0000
0001
0000
0000
0010
0000
0000
0001
1000
0100
1000
0000
0000
,
0010
0000
0000
1000
0000
0000
0001
0010
0100
1000
0000
0000
0001
0000
0000
0001
0000
0000
0100
0000
0000
1010
0000
0000
,
0100
0000
0000
1010
0000
0000
0101
0000
0000
0001
0000
0000
1000
0100
0010
0001
0000
0000
1000
0000
0000
1000
0000
0000
,
0001
0010
0001
0010
0100
1000
0100
1000
,
0001
0100
1000
0100
0001
0000
0110
0000
,
1000
0100
1000
0100
0010
0000
0001
1000
,
0001
0010
0001
0100
0001
0000
1000
0000
,
0010
0100
0001
0100
0010
1000
0001
0010
,
0001
0000
1000
0100
1000
0000
0020
0000
,
0130
0001
0101
1100
,
0010
0001
0100
0000
0010
1000
0200
0000
,
1300
0000
0000
0001
0000
0000
0010
0000
0000
0100
0000
0000
1000
0000
0000
0001
0000
0000
1000
0100
0010
0001
0000
0000
,
1000
0010
0100
0001
0010
0100
1002
0000
,
1003
0000
0000
0010
0000
0000
0100
0000
0000
0001
0000
0000
1000
0000
0000
0010
0000
0000
0100
0000
0000
0001
1000
0001
,
0010
0000
0000
0011
0000
0000
1100
0000
0000
0010
0000
0000
0001
0000
0000
1010
0000
0000
0100
0001
1000
0001
0000
0000
,
0010
0100
1000
0100
0010
0001
0100
0001
,
1000
0000
0000
1010
0000
0000
0101
0000
0000
0010
0000
0000
1000
0000
0000
0001
0000
0000
1000
0100
0010
0001
0000
0000
,
0100
0000
0000
0100
0000
0000
0001
0010
0100
1000
0000
0000
0001
0000
0000
0001
0000
0000
0100
0000
0000
0001
0000
0000
,
1000
0100
0001
0100
2000
0000
3001
0000
,
0101
0000
0000
0100
0000
0000
1000
0000
0000
0100
0000
0000
0001
0000
0000
1000
0000
0000
0001
0010
0100
1000
0000
0000
,
0001
0100
0010
0010
1000
0001
1200
0000
,
0310
0001
0100
1000
0100
0001
1000
0110
,
0001
0000
0000
0101
0000
0000
1100
0000
0000
0010
0000
0000
0001
0000
0000
1000
0000
0000
0001
0100
0001
1000
0000
0000
,
0001
0010
1000
0010
0001
0100
0010
1000
,
0001
0000
0000
0011
0000
0000
0011
0000
0000
1000
0000
0000
0001
0000
0000
0010
0000
0000
0001
1000
0100
1000
0000
0000
,
0010
0000
0000
1000
0000
0000
0001
0010
0100
1000
0000
0000
0001
0000
0000
0001
0000
0000
0100
0000
0000
1010
0000
0000
,
0100
0000
0000
1010
0000
0000
0101
0000
0000
0001
0000
0000
1000
0100
0010
0001
0000
0000
1000
0000
0000
0010
0000
0000
,
1000
1100
0001
0101
,
1000
0010
0100
0010
1000
0000
0001
0000
,
1000
0100
0010
0100
1000
0001
0010
0001
,
1000
0100
0010
0001
,
1000
0010
0100
0001
1000
0100
0010
0100
,
1000
0001
0100
0010
2000
0000
3001
0000
,
0010
0100
1000
0100
0001
0100
1000
0100
,
0010
0001
0010
0001
1000
0000
0010
0000
,
0101
0000
0000
0100
0000
0000
0010
0000
0000
1000
0000
0000
0001
0000
0000
0001
0000
0000
1000
0100
0010
0001
0000
0000
,
1000
0010
0001
1000
0100
0001
1200
0000
,
0310
0001
0100
1000
0100
0001
1000
0110
,
0001
0000
0000
0101
0000
0000
1100
0000
0000
0010
0000
0000
0001
0000
0000
1000
0000
0000
0001
0100
0001
1000
0000
0000
,
0001
0100
0010
0010
1000
0100
0010
0001
,
1000
0000
0000
0101
0000
0000
0101
0000
0000
1000
0000
0000
0100
0000
0000
0010
0000
0000
0001
0010
0100
1000
0000
0000
,
0001
0100
0100
0000
0100
0000
0100
0000
,
0020
2030
3002
0103
,
0001
0000
0000
0010
0000
0000
1000
0000
0000
0010
0000
0000
0001
0000
0000
1000
0000
0000
0001
0010
0100
1000
0000
0000
,
0001
0100
0010
1000
0100
0010
2001
0000
,
3001
0000
0000
0010
0000
0000
1000
0000
0000
0010
0000
0000
0001
0000
0000
0100
0000
0000
0010
0000
0000
1000
0001
1000
,
0100
0000
0000
0011
0000
0000
1100
0000
0000
0001
0000
0000
1000
0000
0000
0101
0000
0000
0010
1000
0001
1000
0000
0000
,
0001
0010
1000
0010
0001
1000
0100
0010
,
0001
0000
0000
1010
0000
0000
1010
0000
0000
0100
0000
0000
0001
0000
0000
0010
0000
0000
0010
0001
1000
0001
0000
0000
,
0100
0000
0000
0001
0000
0000
1000
0100
0010
0001
0000
0000
1000
0000
0000
0010
0000
0000
1000
0000
0000
0001
0000
0000
,
1000
0100
0010
0001
0100
0020
0000
0000
,
1030
0000
0000
0000
0000
0000
0101
0000
0000
0000
0000
0000
1100
0000
0000
0000
0000
0000
1000
0100
0010
0001
0000
0000
,
1000
0010
0100
0100
0001
1000
0021
0000
,
0130
0000
0000
1000
0000
0000
0001
0000
0000
0000
0000
0000
0100
0000
0000
0001
0000
0000
1000
0000
0000
0001
0010
0100
,
1000
0001
0101
0010
1000
1100
0010
0001
,
1000
0000
0101
0000
1100
0000
0010
0001
,
1000
0000
0000
0110
0000
0000
0110
0000
0000
0001
0000
0000
1000
0000
0000
0001
0000
0000
1000
0100
0010
0001
0000
0000
,
1000
0000
0000
1000
0000
0000
0001
0010
0100
1000
0000
0000
0001
0000
0000
0001
0000
0000
1000
0000
0000
0101
0000
0000
,
1000
0000
0000
0011
0000
0000
1100
0000
0000
0100
0000
0000
1000
0100
0010
0001
0000
0000
1000
0000
0000
0010
0000
0000
,
1000
0000
1000
0000
,
0100
0000
0020
0000
0031
1000
0000
1000
,
0001
0000
0001
0000
,
0100
0010
1000
0001
,
1000
0100
1000
0100
,
0001
0100
0001
0100
,
0010
0001
0010
0001
,
1000
0010
0100
0001
;
