#TITLE:Nighthiker;
#SUBTITLE:;
#ARTIST:nana(Sevencolors) feat. mana;
#TITLETRANSLIT:;
#SUBTITLETRANSLIT:;
#ARTISTTRANSLIT:;
#GENRE:;
#CREDIT:;
#BANNER:Nighthiker.png;
#BACKGROUND:Nighthiker-bg.png;
#LYRICSPATH:;
#CDTITLE:;
#MUSIC:Nighthiker.ogg;
#OFFSET:-0.110640;
#SAMPLESTART:53.672920;
#SAMPLELENGTH:12.000000;
#SELECTABLE:YES;
#BPMS:0.000000=112.000000
;
#STOPS:
;
#BGCHANGES:;
#KEYSOUNDS:;
#ATTACKS:;

//---------------dance-single - ----------------
#NOTES:
     dance-single:
     :
     Hard:
     12:
     0.600108,0.670267,0.220628,0.079426,0.600108,476.000000,451.000000,25.000000,9.000000,0.000000,0.000000,0.600108,0.670267,0.220628,0.079426,0.600108,476.000000,451.000000,25.000000,9.000000,0.000000,0.000000:
0000
0000
0000
0000
,
0010
0010
1000
0010
0000
0010
1000
0001
,
0001
0000
1000
0000
0001
0010
1000
0010
,
0001
0001
1000
0001
0000
0001
0100
0010
,
0010
0000
1000
0100
0010
0001
1000
0001
,
0100
0100
0010
0100
0000
0100
0001
1000
,
1000
0000
0001
0000
1000
0010
0001
0010
,
1000
1000
0010
1000
0000
1000
0100
0010
,
0010
0000
0001
1000
0010
0001
0010
1000
,
0001
0010
1100
0010
0001
1000
0110
1000
,
0001
0000
1100
0000
0010
0001
0110
0001
,
1000
0100
0011
0100
1000
0001
0110
0001
,
1000
0000
0011
0100
1000
0010
0001
0010
,
1000
0100
0011
0100
1000
0001
0110
0001
,
1000
0000
0011
0000
0100
1000
0110
1000
,
0001
0010
1100
0010
0001
1000
0110
1000
,
0001
0000
1100
0010
0001
0100
1000
0100
,
0001
0000
0000
0010
0000
0000
1000
0000
0000
0010
0000
0000
0001
0000
1000
0000
,
0001
0000
0000
0100
0000
0000
1000
0000
0000
0100
0000
0000
0001
0000
1000
0000
,
0001
0000
0000
0010
0000
0000
1000
0000
0000
0010
0000
0000
0001
0000
1000
0000
,
0001
0000
0000
0100
0000
0000
1000
0000
0000
0100
0000
0000
0001
0000
1000
0000
,
0001
0010
0001
0000
0001
0100
0001
0000
1000
0010
0000
0010
0100
0010
0000
0000
,
1000
0010
1000
0000
1000
0100
1000
0000
0001
0010
0000
0010
0100
0010
0001
0000
,
1000
0100
0010
0001
1000
0100
0010
0100
1000
0001
0010
0100
0010
0001
1000
0001
,
1000
0100
0001
0100
1000
0000
0010
0100
0010
0100
0010
0000
1001
0000
0000
0000
,
1000
0100
0010
0001
1000
0010
0100
0010
2000
0000
0000
0010
0000
0000
3100
0000
,
0010
0001
0010
0000
0100
1000
0001
1000
0010
0000
0100
0000
1001
0000
0100
0000
,
0010
1000
0010
0100
0010
0000
1000
0100
0001
0100
1000
0000
0001
0010
0100
1000
,
0001
0010
0000
0001
0100
0001
1000
0010
0100
0000
0001
0000
1100
0000
0001
0000
,
1000
0100
0010
0001
1000
0010
0100
0010
2000
0000
0000
0010
0000
0000
3100
0000
,
0010
0000
0001
0100
0010
1000
0100
0000
0010
0000
0100
0000
1001
0000
0100
0000
,
0010
0001
1000
0010
1000
0000
0010
1000
0001
0010
0001
0000
0010
0100
1000
0001
,
0100
0010
0100
0000
0001
0100
0001
0000
1000
0100
0010
0001
0010
0100
1000
0000
,
0020
0000
0000
0000
0030
1000
0100
0010
0001
0000
0010
0000
0100
0000
1000
0001
,
2000
0000
0000
0000
3000
0000
0010
0000
0000
0000
1000
0100
0010
0000
0100
1000
,
0002
0000
0000
0000
0003
0000
0000
0000
0000
0000
0100
0010
1000
0000
0001
1000
,
0200
0000
0000
0000
0300
1000
0100
0010
0002
1000
0003
0100
0010
1000
0000
0001
,
1000
0000
1000
0000
0000
1000
0000
0000
1000
0000
0100
1000
0000
0100
1000
0000
,
0001
0000
0001
0000
0000
0001
0100
0000
0101
0000
0000
0101
0000
0001
0100
0000
,
0010
1000
0010
1000
0001
0010
0001
0010
0100
1000
0100
1000
0001
0100
0001
0100
,
0010
1000
0100
1000
0010
0000
0100
0001
0100
0001
0100
0000
1001
0000
0000
0000
,
1000
0100
0010
0001
1000
0010
0100
0010
2000
0000
0000
0010
0000
0000
3100
0000
,
0010
0001
0010
0000
0100
1000
0001
1000
0010
0000
0100
0000
1001
0000
0100
0000
,
0010
1000
0010
0100
0010
0000
1000
0100
0001
0100
1000
0000
0001
0010
0100
1000
,
0001
0010
0000
0001
0100
0001
1000
0010
0100
0000
0001
0000
1100
0000
0001
0000
,
1000
0100
0010
0001
1000
0010
0100
0010
2000
0000
0000
0010
0000
0000
3100
0000
,
0010
0000
0001
0100
0010
1000
0100
0000
0010
0000
0100
0000
1001
0000
0100
0000
,
0010
0100
0010
0001
0000
1000
0001
1000
0010
0100
0010
1000
0000
0001
1000
0001
,
0010
0100
0010
0001
0000
1000
0001
1000
0010
0000
0100
0010
1000
0001
0000
0000
,
1010
0000
0000
0000
;
