#TITLE:Macho Monky;
#SUBTITLE:;
#ARTIST:kors k;
#TITLETRANSLIT:;
#SUBTITLETRANSLIT:;
#ARTISTTRANSLIT:;
#GENRE:;
#CREDIT:;
#BANNER:Macho Monky.png;
#BACKGROUND:Macho Monky-bg.png;
#LYRICSPATH:;
#CDTITLE:;
#MUSIC:Macho Monky.ogg;
#OFFSET:0.540030;
#SAMPLESTART:26.644295;
#SAMPLELENGTH:12.000000;
#SELECTABLE:YES;
#BPMS:0.000000=150.000000
;
#STOPS:
;
#BGCHANGES:;
#KEYSOUNDS:;
#ATTACKS:;

//---------------dance-single - ----------------
#NOTES:
     dance-single:
     :
     Hard:
     18:
     0.939979,1.239506,0.598904,0.186146,0.987383,813.000000,739.000000,74.000000,23.000000,0.000000,0.000000,0.939979,1.239506,0.598904,0.186146,0.987383,813.000000,739.000000,74.000000,23.000000,0.000000,0.000000:
// measure 0
0000
0000
0000
0000
,  // measure 1
0000
0000
0000
0000
,  // measure 2
0000
0000
0000
0000
,  // measure 3
0000
0000
0000
0000
,  // measure 4
0000
0000
0000
0000
,  // measure 5
1000
0010
1000
0010
0100
0000
0100
0000
,  // measure 6
0001
0010
0001
0010
0100
0000
0000
0000
,  // measure 7
1000
0010
1000
0010
0100
0000
0100
0000
,  // measure 8
0001
1000
0001
1000
0001
1000
0001
1000
0001
1000
0001
1000
0001
1000
0001
1000
0001
1000
0002
0000
0000
0000
0000
0000
,  // measure 9
1003
0100
0001
0100
1000
0000
1000
1010
,  // measure 10
0001
0100
1000
0100
0001
0000
0001
0011
,  // measure 11
1000
0100
0001
0100
1000
0000
1000
1010
,  // measure 12
0001
0000
0100
0000
1000
0000
0100
0000
0001
0000
1000
0100
1000
0000
0011
0000
,  // measure 13
1000
0100
0001
0100
1000
0000
0001
1010
,  // measure 14
0001
0100
1000
0100
0001
0000
1000
0011
,  // measure 15
1000
0100
0001
0100
1000
0000
0001
1010
,  // measure 16
0001
1000
0010
1000
0001
0000
0010
0100
1000
0000
0001
0000
1010
0000
0100
0000
,  // measure 17
0101
0000
0001
0000
1001
0000
0001
0000
0101
0000
0010
1000
0001
0100
0010
0000
,  // measure 18
1010
0000
1000
0000
1001
0000
1000
0000
1010
0000
0000
0110
0000
0000
1010
0000
,  // measure 19
0011
0000
0001
0000
1001
0000
0001
0000
0011
0000
0010
0100
1000
0001
0010
0000
,  // measure 20
1100
0000
1000
0000
1001
0000
1000
0000
1100
0000
0100
0010
0001
1000
0001
0000
,  // measure 21
0101
0000
0001
0000
0011
0000
0001
0000
0101
0000
0010
1000
0001
0100
0010
0000
,  // measure 22
1010
0000
1000
0000
1100
0000
1000
0000
1010
0000
0000
1001
0000
0000
0011
0000
,  // measure 23
1100
0000
1000
0000
1010
0000
1000
0000
1100
0000
0010
0001
1000
0100
0010
0000
,  // measure 24
0001
0000
0100
0000
1000
0000
0100
0000
0001
0000
0010
0100
0010
0000
0010
0000
,  // measure 25
1002
0000
1003
0001
1000
0001
1000
0001
,  // measure 26
1000
0001
1000
0001
2000
0000
3010
0100
,  // measure 27
1002
0000
1003
0001
1000
0001
1000
0001
,  // measure 28
1000
0001
1000
0001
2000
0000
3010
0100
,  // measure 29
1002
0000
1003
0100
1000
0000
0001
0000
1000
0000
0001
0000
1000
0000
0001
0000
,  // measure 30
1000
0001
1000
0001
2000
0000
3010
0100
,  // measure 31
1002
0000
1003
0100
1000
0000
0001
0000
1000
0000
0001
0000
1000
0000
0001
0000
,  // measure 32
1000
0001
1000
0001
2000
0000
3010
0100
,  // measure 33
1002
0000
1003
0100
1000
0000
0001
0000
0101
0000
0001
0000
1000
0000
0001
0000
,  // measure 34
0011
0001
1000
0001
0201
0000
0310
0100
,  // measure 35
1002
0000
1003
0100
1000
0000
0001
0000
0101
0000
0001
0000
1000
0000
0001
0000
,  // measure 36
0011
0001
1000
0001
0201
0000
0310
0100
,  // measure 37
1002
0000
1003
0100
1000
0000
1100
0000
0001
0100
0001
0000
0101
0000
1000
0010
,  // measure 38
1000
0000
1010
0000
0001
0010
0001
0000
0011
0000
0010
0100
1000
0000
0001
0000
,  // measure 39
1100
0000
0101
0000
0110
0010
1000
0100
,  // measure 40
0010
0001
0010
0001
0200
0000
0310
0000
,  // measure 41
0000
0000
0010
1000
0000
0010
1000
0000
0000
0001
0000
0000
0010
0000
0001
0010
0000
0001
0010
0000
0001
0010
0100
1000
,  // measure 42
0001
0000
0100
0001
0000
0100
0001
0000
0100
0001
0000
0100
0001
0000
0100
0001
0000
0100
0010
0000
0000
1010
0000
0000
,  // measure 43
0000
0000
0001
1000
0001
1000
0001
0000
0000
0010
0000
0100
0000
0000
0100
0000
0000
0010
0100
0000
0000
1001
0000
0000
,  // measure 44
0100
0000
0000
0100
0000
0010
0100
0000
0100
0000
0000
0100
0000
0000
0000
1000
0000
0001
0010
0000
0010
0100
0000
0100
,  // measure 45
1000
0000
0001
0010
0000
0000
0010
0000
0001
0010
0000
0001
0010
0000
0001
0010
0000
0001
0010
0000
0001
1000
0010
1000
,  // measure 46
0010
0000
1000
0010
0000
1000
0001
0010
0001
0010
0000
0001
1000
0000
0001
0010
0100
1000
0001
0000
0000
1001
0000
0000
,  // measure 47
0010
0000
0001
1000
0001
1000
0001
0000
0000
0010
0000
0100
0000
0000
0100
0000
0000
0010
0100
0000
0000
1001
0000
0000
,  // measure 48
0001
0010
0100
1000
0010
0100
0001
0010
0100
1000
0010
0100
0001
0000
1001
0000
,  // measure 49
0100
0000
0010
1000
0000
0010
1000
0000
0000
0001
0000
0000
0010
0000
0001
0010
0000
0001
0010
0000
0001
0010
0100
1000
,  // measure 50
0010
0000
0100
0001
0000
0100
0001
0000
0100
0001
0000
0100
0010
0000
0100
0001
0000
1000
0001
0010
0100
1000
0100
0010
,  // measure 51
0001
0000
1000
0001
1000
0001
1000
0000
0000
0010
0000
0100
0000
0000
0100
0000
0000
0001
0100
0000
0000
1010
0000
0000
,  // measure 52
0010
0000
1000
0001
0010
0100
1000
0000
0000
0010
0000
1000
0001
0010
0100
1000
0000
0001
0010
0000
0000
1001
0000
0000
,  // measure 53
1000
0000
0010
1000
0000
0010
1000
0000
0010
1000
0000
0010
1000
0000
0010
1000
0000
0010
1000
0000
0010
1000
0000
0010
,  // measure 54
1000
0000
1000
0100
0000
0100
0010
0000
0010
0001
0000
0001
1000
0000
1000
0001
0010
0100
1000
0000
0000
0011
0000
0000
,  // measure 55
1000
0100
1000
0100
0010
0100
0010
0100
0001
0100
0001
0100
0010
0100
0010
0100
,  // measure 56
1000
0000
0001
0000
1000
0000
0001
0000
2000
0000
3001
0100
0001
0000
0010
0000
,  // measure 57
1200
0000
0001
0000
0300
0000
0010
0100
0010
0100
0010
0100
0010
0100
0000
0000
,  // measure 58
1200
0000
0001
0000
0300
0000
0010
0100
0010
0100
0010
0100
0010
0100
0000
0000
,  // measure 59
1200
0000
0001
0000
0300
0000
0010
0100
0010
0100
0010
0100
0010
0100
0000
0000
,  // measure 60
1200
0000
0001
0000
0300
0000
0010
0100
0010
0100
0010
0100
0010
0100
0000
0000
,  // measure 61
1001
0000
1000
0010
1000
0000
0100
0010
0001
0010
0100
0010
0001
0010
0100
1000
,  // measure 62
0002
0000
1003
0100
0010
0000
0100
0010
0001
0010
0100
0010
0001
0010
0100
1000
,  // measure 63
0001
0000
1000
0010
1000
0000
0100
0010
0001
0010
0100
0010
0001
0010
0100
1000
,  // measure 64
0002
0000
1003
0010
0000
0010
0001
0000
0001
0100
0000
0100
0010
1000
0100
0010
,  // measure 65
0001
0000
0000
0000
0000
0000
1000
0000
0000
0000
0001
0000
0100
0000
0000
0000
0000
0000
1010
0000
0000
0000
0000
0000
0101
0000
0000
0000
0000
0000
1010
0000
0000
0000
0000
0000
0100
0000
0000
0001
0000
0000
0100
0000
0000
1000
0000
0000
,  // measure 66
0100
0000
0000
0000
0000
0000
0001
0000
0000
0000
1000
0000
0100
0000
0000
0000
0000
0000
0011
0000
0000
0000
0000
0000
1100
0000
0000
0000
0000
0000
0011
0000
0000
0000
0000
0000
0100
0000
0000
0010
0000
0000
0001
0000
0000
1000
0000
0000
,  // measure 67
0001
0000
0100
0001
0100
0000
1010
0000
0101
0000
0010
0000
1000
0001
1000
0001
,  // measure 68
1000
0000
0000
1000
0000
0000
0010
0000
0000
0100
0000
0000
0100
0000
0000
0010
0000
0000
1000
0000
0000
0010
0000
0000
0100
0001
0100
0000
0000
0000
0010
0000
0000
1000
0000
0000
0001
0000
0000
0010
0000
0000
0100
0000
0000
1000
0000
0000
,  // measure 69
0001
0010
0100
1000
0010
0100
0001
1000
0001
0100
0010
1000
0100
0010
0001
1000
,  // measure 70
0001
0010
0100
1000
0010
0100
0001
1000
0001
0100
0010
0100
1000
0100
0010
0100
,  // measure 71
0001
1000
0010
0100
0010
1000
0100
0010
0100
1000
0010
0100
0010
1000
0100
0010
,  // measure 72
0100
1000
0001
1000
0010
0100
0001
0010
0100
1000
0010
0100
0001
0010
0100
1000
0010
0100
0001
0010
0100
1000
0010
0100
,  // measure 73
0002
0000
0003
0000
,  // measure 74
0000
0000
0000
0000
0000
0000
0000
0000
0000
0000
0000
0000
0000
0000
0000
0000
0000
0010
0000
0000
0000
0000
0000
0000
;

//---------------dance-single - ----------------
#NOTES:
     dance-single:
     :
     Medium:
     13:
     0.671744,0.725564,0.315639,0.089026,0.327779,581.000000,542.000000,39.000000,11.000000,0.000000,0.000000,0.671744,0.725564,0.315639,0.089026,0.327779,581.000000,542.000000,39.000000,11.000000,0.000000,0.000000:
0000
0000
0000
0000
,
0000
0000
0000
0000
,
0000
0000
0000
0000
,
0000
0000
0000
0000
,
0000
0000
0000
0000
,
1000
0100
1000
0100
0010
0000
0010
0000
,
0001
0100
0001
0100
0010
0000
0000
0000
,
1000
0100
1000
0100
0010
0000
0010
0000
,
0001
1000
0001
1000
0001
0100
1000
0100
0001
1000
0000
0000
,
0001
0000
0010
0000
0001
0000
0100
0000
0010
0000
1000
0001
1000
0000
0010
0000
,
1000
0100
0001
0100
1000
0000
1000
0001
,
1000
0000
0010
0000
1000
0000
0100
0000
0010
0000
0001
1000
0001
0000
0010
0000
,
0001
0000
0100
0000
1000
0000
0100
0000
0001
0000
0100
0010
1000
0000
0100
0000
,
0010
0000
0001
0000
0010
0000
0001
0000
0100
0000
0001
1000
0001
0000
0010
0000
,
0001
0100
1000
0100
0001
0000
0010
0001
,
1000
0000
0010
0000
1000
0000
0010
0000
0100
0000
0001
1000
0001
0000
0010
0000
,
0100
1000
0100
1000
0000
0000
0001
0100
0001
0000
1000
0000
1010
0000
0000
0000
,
0001
0000
0100
0000
0010
0000
0100
0000
0001
0000
1000
0010
0000
0010
1000
0000
,
0001
0000
0010
0000
0100
0000
0010
0000
0001
0000
1000
0100
1000
0000
0010
0000
,
1000
0000
0100
0000
0010
0000
0100
0000
1000
0000
0001
0010
0000
0010
0001
0000
,
1000
0000
0010
0000
0100
0000
0010
0000
1000
0000
0000
0101
0000
0000
0011
0000
,
0100
0000
0010
0000
0001
0000
0010
0000
0100
0000
1000
0001
0000
0001
1000
0000
,
0010
0000
0100
0000
0001
0000
0100
0000
0010
0000
1000
0001
1000
0000
0010
0000
,
0100
0000
0001
0000
0010
0000
0001
0000
0100
0000
0000
1010
0000
0000
1001
0000
,
0010
0100
1000
0010
0100
0001
1001
0000
,
0020
0000
0130
0001
1000
0001
0010
0001
,
1000
0001
0100
0010
0100
0000
1001
0000
,
0021
0000
0130
1000
0001
1000
0010
1000
,
0001
0000
1000
0000
0100
0000
0010
0000
0200
0000
0000
0000
0310
0000
0001
1000
,
0002
0000
1003
0010
0001
0010
1000
0010
,
0001
0010
1000
0100
0001
0000
0100
1000
,
2000
0000
3001
0100
1000
0100
0001
0100
,
1000
0100
0001
0010
2000
0000
3010
0100
,
0110
0000
0000
0010
0100
0000
1000
0000
0001
0000
0100
0000
1000
0000
0100
0000
,
0001
0010
1000
0010
0002
0000
0103
0010
,
0110
0000
0000
0010
0100
0000
0001
0000
1000
0000
0100
0000
0001
0000
0100
0000
,
1000
0010
0001
0010
2000
0000
3100
0010
,
0001
0000
1000
0010
1000
0000
0100
0000
1000
0010
1000
0000
0001
0000
1000
0010
,
1000
0000
0100
0000
1000
0010
1000
0000
0001
0000
0100
0000
1000
0000
0100
0000
,
0001
0010
1000
0010
0001
0100
0010
1000
,
0001
0010
0100
1000
0100
0010
0110
0000
,
0000
0000
0000
0000
0000
0001
1000
0000
0000
1100
0000
0000
0000
0000
0000
0001
0000
0000
0101
0000
0000
0010
0000
0000
,
1000
0000
0000
0000
0000
1000
0001
0000
0000
0101
0000
0000
0000
0000
0000
1000
0000
0000
1100
0000
0000
0010
0000
0000
,
0001
0000
0000
0000
0000
0001
1000
0000
0000
1100
0000
0000
0000
0000
0000
0001
0000
0000
0101
0000
0000
0010
0000
0000
,
1000
0000
0000
0000
0000
1000
0001
0000
0000
0101
0000
0000
0000
0000
0000
1000
0000
0000
1100
0000
0000
0010
0000
0000
,
0001
0000
0000
1000
0000
0000
0100
0000
0000
1000
0000
0000
0001
0000
0000
0000
0000
0101
0000
0000
0000
1010
0000
0000
,
1000
0000
0000
0001
0000
0000
0100
0000
0000
0001
0000
0000
1000
0000
0000
0000
0000
1100
0000
0000
0000
0011
0000
0000
,
0001
0000
0000
1000
0000
0000
0100
0000
0000
1000
0000
0000
0001
0000
0000
0000
0000
0101
0000
0000
0000
1010
0000
0000
,
1000
0100
0001
0100
1000
0001
1000
0000
,
0101
0000
0000
0000
0000
0001
0100
0000
0000
0010
0000
0000
1000
0000
0010
1000
0000
0000
0100
0000
0000
0010
0000
0000
,
0001
0000
0010
0001
0000
0000
0010
0000
0000
0100
0000
0000
1000
0000
0001
1000
0000
0000
0010
0000
0000
0000
0000
0000
,
0100
0000
0000
0000
0000
0001
0100
0000
0000
0100
0000
0000
0000
0000
0000
0001
0000
0000
0100
0000
0000
1010
0000
0000
,
0100
0000
0000
0000
0000
0001
0100
0000
0000
0100
0000
0000
0000
0000
0000
0010
0000
0000
1000
0000
0000
0001
0000
0000
,
1001
0000
0000
0000
0000
0010
0000
0000
0000
0100
0000
0000
1001
0000
0000
0000
0000
0010
0000
0000
0000
0100
0000
0000
,
1001
0000
0000
0000
0000
0010
0000
0000
0000
0100
0000
0000
1000
0000
0000
0001
0100
0000
0001
0000
0000
0010
0000
0000
,
0200
0000
1300
0010
1000
0100
1000
0010
,
0100
0000
0001
0000
0010
0000
0100
0000
1000
0000
0001
0100
0001
0000
0010
0000
,
0110
0000
0100
0000
0000
0000
1000
0001
1000
0000
0100
0000
1000
0000
0000
0000
,
0110
0000
0100
0000
0000
0000
1000
0001
1000
0000
0100
0000
1000
0000
0000
0000
,
0110
0000
0100
0000
0000
0000
1000
0001
1000
0000
0100
0000
1000
0000
0000
0000
,
0110
0000
0100
0000
0000
0000
1000
0001
1000
0000
0100
0000
1000
0000
0010
0000
,
1010
0000
0000
0000
0000
0100
0000
0000
0000
0001
0000
0000
1000
0000
0000
0100
0000
0000
0010
0000
0000
0001
0000
0000
,
0101
0100
0020
0000
1030
0100
0010
0001
,
1100
0000
0000
0000
0000
0010
0000
0000
0000
0001
0000
0000
1000
0000
0000
0100
0000
0000
0010
0000
0000
0001
0000
0000
,
0100
0000
0010
1000
0000
0001
1000
0000
0100
1000
0000
0100
0010
0000
0001
0000
,
1000
0000
0001
0100
0001
0000
0010
0000
0100
0000
1000
0000
0001
0010
0001
0000
,
1000
0000
0010
0100
0010
0000
1000
0000
0100
0000
0010
0000
0001
0100
0001
0000
,
1000
0000
0000
0000
0000
0000
0000
0000
0000
0000
1100
0000
0000
0000
0000
0000
0000
0000
0001
0000
0000
0000
0000
0000
0100
0000
0000
0000
0000
0000
0010
0000
0000
1000
0000
0000
0010
0000
0000
0000
0000
0000
0100
0000
0000
0000
0000
0000
,
0001
0010
0001
1000
0010
1000
0001
0010
0100
0000
1000
0001
2000
0000
0000
0000
,
3001
0000
0100
0010
0100
0000
1000
0000
0001
0000
0010
0100
0010
0000
1000
0000
,
0001
0000
0010
0100
0010
0000
1000
0000
0001
0000
0100
0010
0100
0000
1000
0000
,
0001
0000
0100
0010
1000
0000
0100
0010
0001
0000
0100
0010
1000
0000
0100
0010
,
0100
0000
1000
0000
0010
0000
0100
0000
0001
0010
0100
1000
0001
0000
0000
0000
,
1001
0000
0000
0000
,
0000
0000
0000
0000
0000
0000
0000
0000
0000
0000
0000
0000
0000
0000
0000
0000
0000
1000
0000
0000
0000
0000
0000
0000
;

//---------------dance-single - ----------------
#NOTES:
     dance-single:
     :
     Easy:
     10:
     0.393103,0.413568,0.178053,0.064746,0.028327,340.000000,318.000000,22.000000,8.000000,0.000000,0.000000,0.393103,0.413568,0.178053,0.064746,0.028327,340.000000,318.000000,22.000000,8.000000,0.000000,0.000000:
0000
0000
0000
0000
,
0000
0000
0000
0000
,
0000
0000
0000
0000
,
0000
0000
0000
0000
,
0000
0000
0000
0000
,
0001
0010
0001
0000
0100
0000
0100
0000
,
1000
0010
1000
0000
0100
0000
0000
0000
,
0010
0001
0010
0000
0100
0000
0100
0000
,
2000
0000
0000
3000
,
0001
0100
0001
0000
0010
0000
0010
0000
,
0100
1000
0100
0000
0010
0000
0000
0000
,
1000
0010
1000
0000
0100
0000
0100
0000
,
0010
0001
0010
0000
0100
0000
0000
0000
,
1000
0001
1000
0000
0100
0000
0100
0000
,
0010
0001
0010
0000
0100
0000
0000
0000
,
0001
1000
0001
0000
0100
0000
0100
0000
,
0020
1000
0230
0001
,
0310
1000
0010
0000
0100
0000
0001
0000
,
0010
0001
0010
0000
0100
0000
0000
0000
,
0010
0001
0010
0000
0100
0000
1000
0000
,
0010
1000
0010
0000
0100
0000
0000
0000
,
0001
0010
0001
0000
1000
0000
0010
0000
,
0100
0001
0100
0000
0010
0000
0000
0000
,
1000
0010
1000
0000
0001
0000
0010
0000
,
0100
1000
0100
0000
0020
0000
0031
0000
,
1001
0010
0010
0010
,
0100
1000
0100
0010
0100
0000
0000
0000
,
1001
0100
0100
0100
,
0010
0001
0010
0100
0010
0000
0000
0000
,
1001
0001
1000
1000
,
0001
0010
0001
0100
0001
0000
0000
0000
,
1001
1000
0001
0001
,
1000
0010
1000
0100
1000
0000
0000
0000
,
0011
0000
0101
0000
,
1100
0000
1010
0000
,
0110
0000
0011
0000
,
0101
0000
1100
0000
,
0020
0000
0000
2030
0000
0000
3200
0000
,
0000
0320
0000
0000
0031
0000
0100
0000
,
0010
0010
1000
1000
,
0001
0010
0001
0010
0100
0000
1000
0000
,
1001
0000
0001
0100
0000
1000
0100
0000
,
0010
0000
1000
0001
0000
1000
0001
0000
,
0010
0000
0100
1000
0000
0010
0001
0000
,
0100
0000
0010
1000
0000
0100
0001
0000
,
1000
0000
0000
0000
0100
0000
0000
0000
0010
0000
0000
0010
0000
0000
0010
0000
,
0001
0000
0000
0000
0100
0000
0000
0000
0010
0000
0000
0010
0000
0000
0010
0000
,
1000
0000
0000
0000
0100
0000
0000
0000
0001
0000
0000
0100
0000
0000
1000
0000
,
0001
0100
0001
1000
0001
0000
0010
0000
,
0110
0000
0100
1000
0000
0100
0010
0000
,
0001
0000
1000
0010
0000
0001
0010
0000
,
0100
0000
0001
0010
0000
0100
1000
0000
,
0001
0000
1000
0010
0000
0100
0001
0000
,
1000
1100
0001
0101
,
1000
1010
0001
0011
,
0100
0000
1000
0001
1000
0000
0100
0000
,
0010
0001
0010
0100
1000
0000
0001
0000
,
1001
0000
0000
0010
0001
0010
0001
0000
,
1000
0000
0000
0001
0100
0001
0100
0000
,
0001
0000
0000
1000
0010
1000
0010
0000
,
1000
0000
0000
0100
1000
0100
1000
0000
,
0001
0000
0000
0010
0000
0000
0010
0000
0001
0000
1000
0000
0001
0000
0000
0000
,
0100
0001
0100
0000
0010
0000
1010
0000
,
1000
0000
0000
0010
0000
0000
0010
0000
1000
0000
0001
0000
1000
0000
0000
0000
,
0001
0000
0000
0010
0000
0000
0100
0000
0000
1000
0000
0000
0010
0000
1000
0000
,
0001
0000
1000
0100
1000
0001
1000
0000
,
0100
0000
0010
0001
0010
0100
0010
0000
,
0001
0101
1000
1100
,
0001
0010
0001
1000
0010
0000
0010
0000
,
0100
0000
0001
1000
0100
0000
1000
0001
,
0100
0000
0001
1000
0100
0000
1000
0001
,
0100
0010
1000
0001
,
0010
0100
1000
0001
1000
0010
0100
0001
,
1000
0000
0000
0000
;

//---------------dance-single - ----------------
#NOTES:
     dance-single:
     :
     Beginner:
     5:
     0.226612,0.295405,0.121399,0.008093,0.000000,196.000000,181.000000,15.000000,1.000000,0.000000,0.000000,0.226612,0.295405,0.121399,0.008093,0.000000,196.000000,181.000000,15.000000,1.000000,0.000000,0.000000:
0000
0000
0000
0000
,
0000
0000
0000
0000
,
0000
0000
0000
0000
,
0000
0000
0000
0000
,
0000
0000
0000
0000
,
0010
0000
1000
0000
,
0010
0000
1000
0000
,
0001
0000
0010
0000
,
0002
0000
0000
0000
,
1003
1000
1000
0000
,
0001
0001
0001
0000
,
0010
0010
0010
0000
,
0001
1000
0001
0000
,
0100
0000
0101
0101
,
1000
0000
1100
0000
,
1000
0000
1010
1010
,
0001
0000
0000
0000
,
1000
0100
0001
0100
,
1000
0100
0001
0000
,
1000
0010
0001
0010
,
1000
0010
0001
0000
,
1000
1000
0010
0010
,
1000
0001
1000
0000
,
0001
0001
0010
0010
,
0001
1000
0001
0000
,
1001
0000
0000
0000
,
0000
0000
0100
0010
,
1001
0000
0000
0000
,
0000
0000
0100
0010
,
1001
0000
0010
0000
,
0010
0000
0010
0000
,
1001
0000
0010
0000
,
0010
0000
0010
0000
,
1000
0100
1000
0000
,
0001
0010
0001
0000
,
1000
0010
1000
0000
,
0001
0100
0001
0000
,
1000
1000
0010
0010
,
0100
0100
0001
0001
,
1000
0000
0001
0000
,
0010
0010
0010
0000
,
0100
1000
0000
1000
,
0001
0100
0000
0100
,
0010
1000
0000
1000
,
0001
0010
0000
0010
,
0100
0000
1100
0000
,
0100
0000
0101
0000
,
0010
0000
0011
0000
,
0010
0010
0010
0000
,
1000
0001
0000
0001
,
0010
0100
0000
0100
,
1000
0010
0000
0010
,
0100
0001
0000
0001
,
0010
0000
0011
0000
,
0100
0000
1100
0000
,
1000
0001
1000
1000
,
0010
0100
0010
0000
,
1000
0000
0000
0000
,
0001
0000
0000
0000
,
1000
0000
0000
0000
,
0001
0000
0000
0000
,
1000
0100
0001
0000
,
0100
0010
0100
0000
,
0001
0100
1000
0000
,
0100
0010
0100
0010
,
0001
0000
0010
0001
,
1000
0000
0010
1000
,
0001
0000
0010
0100
,
1000
0000
0010
0100
,
0001
0000
0010
0000
,
1000
0000
0100
0000
,
0001
0010
0100
1000
,
0010
0100
0001
0010
,
0110
0000
0000
0000
;
